osu file format v14

[General]
AudioFilename: Kanade.mp3
AudioLeadIn: 0
PreviewTime: 45495
Countdown: 0
SampleSet: Soft
StackLeniency: 0.7
Mode: 0
LetterboxInBreaks: 1
WidescreenStoryboard: 1

[Editor]
Bookmarks: 45495
DistanceSpacing: 1.3
BeatDivisor: 4
GridSize: 4
TimelineZoom: 1.1

[Metadata]
Title:Kanade (TV Size)
TitleUnicode:奏 (TV Size)
Artist:Amamiya Sora
ArtistUnicode:雨宮 天
Creator:yanlu
Version:Normal
Source:Isshuukan Friends.
Tags:Sukima Switch(スキマスイッチ) 一週間フレンズ。 ED one week friends ending Shub-Niggurath Saya-Honmei Evil_Twilight
BeatmapID:421353
BeatmapSetID:174298

[Difficulty]
HPDrainRate:3
CircleSize:3
OverallDifficulty:3
ApproachRate:4
SliderMultiplier:2.4
SliderTickRate:1

[Events]
//Background and Video events
0,0,"bg.jpg",0,0
Video,0,"ED.avi"
//Break Periods
//Storyboard Layer 0 (Background)
//Storyboard Layer 1 (Fail)
//Storyboard Layer 2 (Pass)
//Storyboard Layer 3 (Foreground)
//Storyboard Sound Samples
Sample,50695,2,"ding.wav",40
Sample,51095,2,"ding.wav",40
Sample,51295,2,"ding.wav",40
Sample,51695,2,"ding.wav",40
Sample,51895,2,"ding.wav",20
Sample,57095,2,"ding.wav",40
Sample,57295,2,"ding.wav",40
Sample,57495,2,"ding.wav",40
Sample,57695,2,"ding.wav",50
Sample,57895,2,"ding.wav",60
Sample,58095,2,"ding.wav",40
Sample,58295,2,"ding.wav",70

[TimingPoints]
-505,800,4,2,1,30,1,0
1895,-133.333333333333,4,2,1,30,0,0
2695,-133.333333333333,4,2,0,30,0,0
3095,-133.333333333333,4,2,1,30,0,0
16895,-133.333333333333,4,2,1,20,0,0
17095,-133.333333333333,4,2,1,30,0,0
18695,-133.333333333333,4,2,2,30,0,0
30695,-133.333333333333,4,2,2,40,0,0
31295,-133.333333333333,4,2,2,30,0,0
31495,-133.333333333333,4,2,0,30,0,0
31895,-133.333333333333,4,2,2,30,0,0
42695,-133.333333333333,4,2,2,40,0,0
45895,-100,4,2,0,50,0,1
46095,-100,4,2,1,50,0,1
57895,-100,4,2,1,50,0,0
58695,-100,4,2,0,50,0,1
58895,-100,4,2,1,50,0,1
65095,-100,4,2,0,30,0,0
65495,-100,4,2,1,50,0,0
66695,-100,4,2,0,30,0,0
67095,-100,4,2,1,50,0,0
68295,-100,4,2,0,30,0,0
68495,-100,4,2,1,50,0,0
69895,-100,4,2,1,40,0,0
71495,-100,4,2,0,20,0,0
72295,-133.333333333333,4,2,0,20,0,0
73095,-100,4,2,0,5,0,0

[Colours]
Combo1 : 255,255,106
Combo2 : 255,128,128
Combo3 : 255,128,192
Combo4 : 128,255,128

[HitObjects]
44,192,1695,5,8,0:0:0:0:
88,204,1895,2,0,P|133:196|176:204,1,90.0000034332276,8|4,0:0|0:0,0:0:0:0:
256,244,2695,1,4,0:0:0:0:
424,308,3495,1,8,0:0:0:0:
380,132,4295,6,0,P|337:137|303:169,1,90.0000034332276,0|4,0:0|0:0,0:0:0:0:
256,244,5095,2,0,L|256:292,1,45.0000017166138,8|2,0:0|0:0,0:0:0:0:
256,152,5895,5,4,0:0:0:0:
404,48,6695,1,8,0:0:0:0:
340,216,7495,2,0,P|308:248|264:256,1,90.0000034332276,0|4,0:0|0:0,0:0:0:0:
176,240,8295,2,0,L|136:268,1,45.0000017166138,8|2,0:0|0:0,0:0:0:0:
124,132,9095,5,0,0:0:0:0:
80,308,9895,1,8,0:0:0:0:
256,264,10695,1,0,0:0:0:0:
256,84,11495,2,0,B|244:120|268:144|256:176,1,90.0000034332276,8|0,0:0|0:0,0:0:0:0:
256,264,12295,6,0,P|180:304|88:288,1,180.000006866455,6|2,0:0|0:0,0:0:0:0:
152,120,13895,2,0,P|196:120|236:96,1,90.0000034332276,2|2,0:0|0:0,0:0:0:0:
292,28,14695,1,2,0:0:0:0:
376,60,15095,2,0,P|416:124|400:224,1,180.000006866455,2|0,0:0|0:0,0:0:0:0:
328,276,16295,1,0,0:0:0:0:
168,192,17095,6,0,L|120:192,2,45.0000017166138,4|0|8,0:0|0:0|0:0,0:0:0:0:
196,276,17895,2,0,L|244:276,2,45.0000017166138,0|4|4,0:0|0:0|0:0,0:0:0:0:
64,248,18695,6,0,P|46:192|52:156,1,90.0000034332276,4|0,0:0|0:0,0:0:0:0:
96,84,19495,1,8,0:0:0:0:
180,48,19895,1,0,0:0:0:0:
268,60,20295,2,0,P|256:104|220:128,2,90.0000034332276,0|4|8,0:0|0:0|0:0,0:0:0:0:
356,40,21495,1,0,0:0:0:0:
356,132,21895,6,0,B|320:212|388:228|352:308,1,180.000006866455,4|8,0:0|0:0,0:0:0:0:
265,315,23095,2,0,P|305:303|353:307,1,90.0000034332277,4|0,0:0|0:0,0:0:0:0:
428,356,23895,1,4,0:0:0:0:
500,300,24295,2,0,P|508:256|500:212,1,90.0000034332276,8|0,0:0|0:0,0:0:0:0:
464,184,24895,1,0,0:0:0:0:
424,204,25095,6,0,P|368:221|332:216,2,90.0000034332276,4|0|8,0:0|0:0|0:0,0:0:0:0:
477,141,26295,2,0,L|425:313,1,180.000006866455,0|4,0:0|0:0,0:0:0:0:
425,313,27495,1,8,0:0:0:0:
224,320,28095,1,0,0:0:0:0:
212,276,28295,6,0,P|280:220|368:232,1,180.000006866455,4|8,0:0|0:0,0:0:0:0:
400,316,29495,1,0,0:0:0:0:
308,320,29895,2,0,B|256:308|188:332|128:320,1,180.000006866455,4|8,0:0|0:3,0:0:0:0:
68,244,31095,1,4,0:0:0:0:
108,224,31295,1,0,0:0:0:0:
152,224,31495,6,0,P|188:192|196:152,1,90.0000034332277,4|0,0:0|0:0,0:0:0:0:
148,76,32295,1,8,0:0:0:0:
80,136,32695,1,0,0:0:0:0:
64,224,33095,2,0,P|72:272|100:304,2,90.0000034332277,0|4|8,0:0|0:0|0:0,0:0:0:0:
80,136,34295,2,0,L|120:156,1,45.0000017166138
160,176,34695,6,0,B|238:207|254:139|334:175,1,180.000006866455,4|8,0:0|0:0,0:0:0:0:
396,240,35895,2,0,P|359:263|311:259,1,90.0000034332277
256,192,36695,1,4,0:0:0:0:
304,116,37095,1,8,0:0:0:0:
388,152,37495,2,0,L|400:196,1,45.0000017166138
396,240,37895,6,0,P|376:284|340:312,1,90.0000034332277,4|0,0:0|0:0,0:0:0:0:
256,284,38695,1,8,0:0:0:0:
176,324,39095,1,0,0:0:0:0:
88,300,39495,2,0,P|32:244|32:148,1,180.000006866455,0|8,0:0|0:0,0:0:0:0:
70,24,40695,1,0,0:0:0:0:
103,54,40895,1,0,0:0:0:0:
104,100,41095,6,0,P|75:134|33:147,1,90.0000034332277
32,240,41895,1,8,0:0:0:0:
128,212,42295,1,0,0:0:0:0:
192,136,42695,2,0,P|220:101|262:88,2,90.0000034332277,0|0|0,1:0|0:0|1:0,0:0:0:0:
212,244,43895,2,0,P|236:284|276:300,1,90.0000034332277,4|0,0:0|1:0,0:0:0:0:
396,168,45095,1,0,1:0:0:0:
288,168,45495,1,0,0:0:0:0:
256,216,45695,1,0,0:0:0:0:
212,244,45895,6,0,P|148:264|92:264,1,120,4|0,0:0|0:0,0:0:0:0:
136,152,46695,1,0,1:0:0:0:
136,152,47095,1,4,0:0:0:0:
172,36,47495,1,0,0:0:0:0:
52,64,47895,2,0,P|17:109|16:172,2,120,0|0|0,0:0|1:0|0:0,0:0:0:0:
136,152,49095,6,0,B|176:144|176:144|216:156|256:144,1,120,4|0,0:0|0:0,0:0:0:0:
368,108,49895,1,0,1:0:0:0:
332,224,50295,1,0,0:0:0:0:
448,200,50695,2,0,P|484:156|488:92,1,120,0|4,0:0|0:0,0:0:0:0:
368,108,51495,1,0,1:0:0:0:
332,224,51895,1,0,0:0:0:0:
276,248,52095,1,0,0:0:0:0:
220,272,52295,6,0,L|100:312,1,120
61,198,53095,1,0,1:0:0:0:
61,198,53495,1,0,0:0:0:0:
172,156,53895,2,0,L|292:116,1,120,0|4,0:0|0:0,0:0:0:0:
200,36,54695,2,0,L|86:73,1,120,0|0,1:0|0:0,0:0:0:0:
16,172,55495,1,0,0:0:0:0:
136,156,55895,6,0,P|256:228|116:272,1,360
20,200,57495,1,0,0:0:0:0:
60,88,57895,2,0,P|112:56|172:48,1,120,0|0,1:0|0:0,0:0:0:0:
228,60,58495,1,0,0:0:0:0:
284,80,58695,6,0,P|342:71|393:39,1,120,4|0,0:0|0:0,0:0:0:0:
488,112,59495,1,0,1:0:0:0:
376,156,59895,1,4,0:0:0:0:
472,228,60295,1,0,0:0:0:0:
356,260,60695,2,0,P|296:260|244:288,2,120,0|0|0,0:0|1:0|0:0,0:0:0:0:
456,196,61895,6,0,P|460:136|428:84,1,120,4|0,0:0|0:0,0:0:0:0:
316,44,62695,1,0,1:0:0:0:
216,112,63095,1,0,0:0:0:0:
176,224,63495,2,0,P|172:280|204:336,1,120
292,256,64295,5,0,1:0:0:0:
432,64,65095,1,4,0:0:0:0:
408,96,66695,6,0,P|304:132|196:72,1,240,4|2,0:0|0:0,0:0:0:0:
88,20,67895,2,0,B|112:72|112:72|104:136,2,120,0|4|0,0:0|0:0|0:0,0:0:0:0:
88,20,69495,1,0,0:0:0:0:
48,132,69895,6,0,P|72:225|195:214,1,240,0|0,0:0|0:0,0:0:0:0:
317,215,71095,2,0,P|425:235|464:132,1,240,0|2,0:0|0:0,0:0:0:0:
364,60,72295,2,0,L|324:32,2,45.0000017166138,0|0|2,0:0|0:0|0:0,0:0:0:0:
464,132,73095,5,2,0:0:0:0:
256,192,74695,2,0,L|192:192,2,60,0|0|2,0:0|0:0|0:0,0:0:0:0:
352,264,75495,2,0,L|416:264,2,60,0|0|2,0:0|0:0|0:0,0:0:0:0:
236,300,76295,1,2,0:0:0:0:
256,192,78095,12,0,80295,0:0:0:0:
