osu file format v13

[General]
AudioFilename: Kanade.mp3
AudioLeadIn: 0
PreviewTime: 45495
Countdown: 0
SampleSet: Soft
StackLeniency: 0.7
Mode: 0
LetterboxInBreaks: 1
WidescreenStoryboard: 1

[Editor]
Bookmarks: 45495
DistanceSpacing: 1.3
BeatDivisor: 4
GridSize: 4
TimelineZoom: 1.2

[Metadata]
Title:Kanade (TV Size)
TitleUnicode:奏 (TV Size)
Artist:Amamiya Sora
ArtistUnicode:雨宮 天
Creator:yanlu
Version:Insane
Source:Isshuukan Friends.
Tags:Sukima Switch(スキマスイッチ) 一週間フレンズ。 ED one week friends ending Shub-Niggurath Saya-Honmei Evil_Twilight
BeatmapID:421491
BeatmapSetID:174298

[Difficulty]
HPDrainRate:7
CircleSize:4
OverallDifficulty:7
ApproachRate:8
SliderMultiplier:3.59999990463257
SliderTickRate:1

[Events]
//Background and Video events
0,0,"bg.jpg",0,0
Video,0,"ED.avi"
//Break Periods
//Storyboard Layer 0 (Background)
//Storyboard Layer 1 (Fail)
//Storyboard Layer 2 (Pass)
//Storyboard Layer 3 (Foreground)
//Storyboard Sound Samples
Sample,50695,2,"ding.wav",40
Sample,51095,2,"ding.wav",40
Sample,51295,2,"ding.wav",40
Sample,51695,2,"ding.wav",40
Sample,51895,2,"ding.wav",20
Sample,57095,2,"ding.wav",40
Sample,57295,2,"ding.wav",40
Sample,57295,2,"ding.wav",40
Sample,57495,2,"ding.wav",40
Sample,57695,2,"ding.wav",50
Sample,57895,2,"ding.wav",60
Sample,58095,2,"ding.wav",40
Sample,58295,2,"ding.wav",70
Sample,63495,2,"ding.wav",40
Sample,65095,2,"ding.wav",50
Sample,67495,2,"ding.wav",20
//Background Colour Transformations
3,100,163,162,255

[TimingPoints]
-505,800,4,2,1,30,1,0
1895,-100,4,2,1,30,0,0
2695,-100,4,2,0,30,0,0
3095,-100,4,2,1,30,0,0
15095,-200,4,2,1,30,0,0
16895,-100,4,2,1,20,0,0
17095,-100,4,2,1,30,0,0
18695,-100,4,2,2,30,0,0
30695,-100,4,2,2,40,0,0
31295,-100,4,2,2,30,0,0
31495,-100,4,2,0,30,0,0
31895,-100,4,2,2,30,0,0
42695,-133.333333333333,4,2,2,40,0,0
44295,-142.857142857143,4,2,1,50,0,0
44895,-117.647058823529,4,2,1,50,0,0
45895,-100,4,2,0,50,0,1
46095,-100,4,2,1,50,0,1
57895,-100,4,2,1,50,0,0
58495,-100,4,2,1,30,0,0
58695,-100,4,2,0,50,0,1
58895,-100,4,2,1,50,0,1
65095,-100,4,2,0,30,0,0
65495,-100,4,2,1,50,0,0
66695,-200,4,2,0,30,0,0
67095,-200,4,2,1,50,0,0
68295,-200,4,2,0,30,0,0
68495,-200,4,2,1,50,0,0
69895,-200,4,2,1,40,0,0
71495,-200,4,2,0,20,0,0
73095,-200,4,2,0,5,0,0

[Colours]
Combo1 : 255,255,106
Combo2 : 255,128,128
Combo3 : 255,128,192
Combo4 : 128,255,128

[HitObjects]
120,152,1695,6,0,L|120:96,2,44.9999988079071,8|8|0,0:0|0:0|0:0,0:0:0:0:
208,128,2095,1,4,0:0:0:0:
208,40,2295,1,4,0:0:0:0:
288,80,2495,1,0,0:0:0:0:
288,168,2695,6,0,P|368:128|360:32,1,179.999995231629,4|0,0:0|0:0,0:0:0:0:
288,80,3295,1,0,0:0:0:0:
208,128,3495,2,0,P|216:224|296:256,1,179.999995231629,8|4,0:0|0:0,0:0:0:0:
376,240,4095,1,0,0:0:0:0:
448,192,4295,2,0,P|456:280|368:328,1,179.999995231629,0|4,0:0|0:0,0:0:0:0:
304,296,4895,1,0,0:0:0:0:
232,344,5095,2,0,P|200:312|184:256,1,89.9999976158143,0|2,0:0|0:0,0:0:0:0:
116,122,5495,2,0,P|154:145|176:184,1,89.9999976158143
28,144,5895,6,0,P|68:48|140:32,1,179.999995231629,4|0,0:0|0:0,0:0:0:0:
256,88,6495,1,0,0:0:0:0:
377,31,6695,2,0,P|458:60|484:144,1,179.999995231629,8|4,0:0|0:0,0:0:0:0:
360,192,7295,1,0,0:0:0:0:
483,239,7495,2,0,P|458:323|377:352,1,179.999995231629,0|4,0:0|0:0,0:0:0:0:
256,288,8095,1,0,0:0:0:0:
134,352,8295,2,0,P|88:336|56:296,1,89.9999976158143,8|2,0:0|0:0,0:0:0:0:
184,244,8695,2,0,P|230:260|262:300,1,89.9999976158143
104,188,9095,6,0,B|64:132|120:40|188:56,1,179.999995231629,4|0,0:0|0:0,0:0:0:0:
408,196,9895,2,0,B|448:252|392:344|324:328,1,179.999995231629,8|4,0:0|0:0,0:0:0:0:
260,40,10695,2,0,B|316:0|408:56|392:124,1,179.999995231629,0|4,0:0|0:0,0:0:0:0:
252,344,11495,2,0,B|196:384|104:328|120:260,2,179.999995231629,8|0|2,0:0|0:0|0:0,0:0:0:0:
268,256,12695,1,0,0:0:0:0:
280,168,13095,1,2,0:0:0:0:
280,168,13895,5,10,0:0:0:0:
196,200,14295,1,2,0:0:0:0:
208,112,14695,1,2,0:0:0:0:
296,80,15095,2,0,P|364:140|344:232,1,179.999995231629,2|0,0:0|0:0,0:0:0:0:
296,292,16295,2,0,P|348:320|396:324,1,89.9999976158143
272,212,16895,5,8,0:0:0:0:
272,212,16995,1,0,0:0:0:0:
272,212,17095,1,4,0:0:0:0:
184,188,17295,1,0,0:0:0:0:
208,276,17495,1,8,0:0:0:0:
120,264,17695,2,0,P|128:312|164:356,1,89.9999976158143,8|0,0:0|0:0,0:0:0:0:
184,188,18095,1,4,0:0:0:0:
184,188,18295,1,4,0:0:0:0:
304,52,18695,6,0,L|496:52,2,179.999995231629,4|0|8,0:0|0:0|0:0,0:0:0:0:
184,188,19895,2,0,P|152:156|141:110,1,89.9999976158143
272,192,20295,2,0,P|252:248|196:268,1,89.9999976158143
136,264,20695,2,0,L|80:264,2,44.9999988079071,4|0|0,0:0|0:0|0:0,0:0:0:0:
116,352,21095,1,8,0:0:0:0:
396,32,21495,1,0,0:0:0:0:
400,300,21895,6,0,L|400:120,1,179.999995231629,4|0,0:0|0:0,0:0:0:0:
320,80,22495,1,0,0:0:0:0:
232,80,22695,2,0,L|140:80,1,89.9999976158143,8|0,0:0|0:0,0:0:0:0:
94,160,23095,2,0,L|184:160,1,89.9999976158143,4|0,0:0|0:0,0:0:0:0:
271,159,23495,2,0,P|312:236|274:315,2,179.999995231629,0|4|8,0:0|0:0|0:0,0:0:0:0:
112,76,24695,2,0,L|16:76,1,89.9999976158143
64,160,25095,5,4,0:0:0:0:
152,160,25295,2,0,P|192:120|192:64,2,89.9999976158143
108,240,25895,2,0,P|68:280|68:336,2,89.9999976158143,8|0|0,0:0|0:0|0:0,0:0:0:0:
152,316,26495,2,0,P|176:360|216:376,1,89.9999976158143
240,292,26895,2,0,P|268:264|320:244,1,89.9999976158143,0|4,0:0|0:0,0:0:0:0:
392,292,27295,1,0,0:0:0:0:
472,252,27495,1,8,0:0:0:0:
392,92,27895,1,0,0:0:0:0:
312,136,28095,1,0,0:0:0:0:
244,80,28295,6,0,P|224:172|304:224,1,179.999995231629,4|0,0:0|0:0,0:0:0:0:
312,136,28895,1,0,0:0:0:0:
320,48,29095,2,0,P|284:8|240:0,2,89.9999976158143,8|0|0,0:0|0:0|0:0,0:0:0:0:
256,344,29895,2,0,L|72:344,2,179.999995231629,4|0|8,0:0|0:0|0:0,0:0:0:0:
320,280,30895,1,0,0:0:0:0:
320,280,30995,1,0,0:0:0:0:
320,280,31095,1,4,0:0:0:0:
376,212,31295,1,0,0:0:0:0:
408,296,31495,6,0,P|464:220|424:136,1,179.999995231629,4|0,0:0|0:0,0:0:0:0:
348,128,32095,2,0,P|376:84|436:56,1,89.9999976158143,0|8,0:0|0:0,0:0:0:0:
376,212,32495,1,0,0:0:0:0:
376,212,32595,1,0,0:0:0:0:
376,212,32695,1,4,0:0:0:0:
288,196,32895,1,0,0:0:0:0:
268,108,33095,6,0,P|204:180|228:264,1,179.999995231629,0|4,0:0|0:0,0:0:0:0:
276,328,33695,2,0,P|224:360|180:360,1,89.9999976158143,0|8,0:0|0:0,0:0:0:0:
136,296,34095,1,0,0:0:0:0:
136,296,34195,1,0,0:0:0:0:
136,296,34295,1,0,0:0:0:0:
72,232,34495,1,0,0:0:0:0:
44,316,34695,6,0,P|-8:232|32:152,1,179.999995231629,4|0,0:0|0:0,0:0:0:0:
104,80,35295,2,0,P|160:92|192:124,1,89.9999976158143,0|8,0:0|0:0,0:0:0:0:
256,204,35695,2,0,P|312:160|320:136,2,89.9999976158143
140,220,36295,1,0,0:0:0:0:
300,52,36695,2,0,L|392:72,1,89.9999976158143,4|0,0:0|0:0,0:0:0:0:
424,152,37095,2,0,L|484:84,1,89.9999976158143,8|0,0:0|0:0,0:0:0:0:
360,216,37495,2,0,L|404:304,1,89.9999976158143
480,256,37895,6,0,P|472:356|400:388,1,179.999995231629,4|0,0:0|0:0,0:0:0:0:
308,328,38495,2,0,P|260:340|228:368,1,89.9999976158143,0|8,0:0|0:0,0:0:0:0:
148,280,38895,1,0,0:0:0:0:
52,216,39095,2,0,P|36:272|44:312,1,89.9999976158143
156,164,39495,2,0,P|92:108|0:116,2,179.999995231629,0|4|8,0:0|0:0|0:0,0:0:0:0:
148,280,40495,1,0,0:0:0:0:
256,72,40695,5,0,0:0:0:0:
340,156,40895,1,0,0:0:0:0:
440,92,41095,2,0,P|488:192|468:272,1,179.999995231629,4|0,0:0|0:0,0:0:0:0:
432,336,41695,1,0,0:0:0:0:
360,284,41895,2,0,P|320:256|248:248,1,89.9999976158143,8|0,0:0|0:0,0:0:0:0:
131,343,42295,2,0,P|173:328|208:300,1,89.9999976158143,4|0,0:0|0:0,0:0:0:0:
312,152,42695,5,0,1:0:0:0:
328,120,43095,1,4,0:0:0:0:
344,88,43495,1,0,1:0:0:0:
360,56,43895,1,4,0:0:0:0:
424,120,44095,1,0,1:0:0:0:
424,120,44195,1,0,0:0:0:0:
424,120,44295,1,0,1:0:0:0:
384,200,44495,1,0,0:0:0:0:
472,196,44695,1,0,0:0:0:0:
472,196,44895,5,0,0:0:0:0:
352,136,45095,1,0,1:0:0:0:
360,272,45295,1,0,0:0:0:0:
432,108,45495,1,0,0:0:0:0:
448,288,45695,1,0,0:0:0:0:
360,52,45895,6,0,P|272:84|224:176,1,179.999995231629,4|0,0:0|0:0,0:0:0:0:
148,240,46495,1,0,0:0:0:0:
147,239,46695,2,0,P|118:206|110:162,1,89.9999976158143,0|0,1:0|0:0,0:0:0:0:
260,272,47095,1,4,0:0:0:0:
260,272,47295,2,0,P|232:320|192:340,1,89.9999976158143
284,188,47695,1,0,0:0:0:0:
284,188,47795,1,0,0:0:0:0:
284,188,47895,2,0,L|412:188,2,89.9999976158143,0|0|0,0:0|0:0|1:0,0:0:0:0:
324,108,48495,2,0,P|428:124|464:200,1,179.999995231629
435,295,49095,6,0,P|476:315|520:324,1,89.9999976158143,4|0,0:0|0:0,0:0:0:0:
348,272,49495,1,0,0:0:0:0:
347,272,49695,2,0,P|346:316|367:355,1,89.9999976158143,0|0,0:0|1:0,0:0:0:0:
312,188,50095,1,0,0:0:0:0:
312,188,50195,1,0,0:0:0:0:
312,188,50295,2,0,P|276:224|260:276,1,89.9999976158143
400,196,50695,6,0,P|364:120|272:112,1,179.999995231629
188,188,51295,1,0,0:0:0:0:
104,104,51495,1,0,1:0:0:0:
40,272,51695,1,0,0:0:0:0:
24,92,51895,1,0,0:0:0:0:
120,244,52095,1,0,0:0:0:0:
180,76,52295,6,0,P|256:32|364:56,1,179.999995231629,4|0,0:0|0:0,0:0:0:0:
419,131,52895,2,0,P|463:122|499:95,1,89.9999976158143,0|0,0:0|1:0,0:0:0:0:
344,184,53295,1,0,0:0:0:0:
344,184,53495,2,0,P|392:224|440:236,1,89.9999976158143
260,136,53895,6,0,P|168:184|140:264,1,179.999995231629,0|4,0:0|0:0,0:0:0:0:
340,96,54495,1,0,0:0:0:0:
340,96,54595,1,0,0:0:0:0:
340,96,54695,2,0,P|300:60|264:52,1,89.9999976158143,0|0,1:0|0:0,0:0:0:0:
232,228,55095,2,0,P|272:264|308:272,1,89.9999976158143
148,40,55495,6,0,P|60:76|36:156,1,179.999995231629
256,192,56095,1,0,0:0:0:0:
364,344,56295,2,0,P|452:308|476:228,1,179.999995231629,0|0,1:0|0:0,0:0:0:0:
388,72,56895,1,0,0:0:0:0:
388,72,56995,1,0,0:0:0:0:
388,72,57095,5,0,0:0:0:0:
356,184,57295,1,0,0:0:0:0:
276,100,57495,1,0,0:0:0:0:
244,212,57695,1,0,0:0:0:0:
420,64,57895,2,0,P|464:84|496:120,1,89.9999976158143,0|0,1:0|0:0,0:0:0:0:
92,320,58295,2,0,P|48:300|16:264,1,89.9999976158143
156,152,58695,6,0,P|238:183|287:257,1,179.999995231629,4|0,0:0|0:0,0:0:0:0:
80,104,59295,1,0,0:0:0:0:
80,104,59395,1,0,0:0:0:0:
80,104,59495,2,0,P|132:72|168:68,1,89.9999976158143,0|0,1:0|0:0,0:0:0:0:
188,248,59895,1,4,0:0:0:0:
256,80,60095,1,0,0:0:0:0:
256,80,60195,1,0,0:0:0:0:
256,80,60295,6,0,P|356:72|448:100,1,179.999995231629
420,208,60895,2,0,P|440:224|452:252,3,44.9999988079071,0|0|0|0,0:0|0:0|1:0|0:0,0:0:0:0:
404,252,61295,2,0,P|364:332|268:360,1,179.999995231629
135,310,61895,2,0,P|169:280|211:268,1,89.9999976158143,4|0,0:0|0:0,0:0:0:0:
304,268,62295,1,0,0:0:0:0:
304,268,62495,2,0,P|276:204|252:188,1,89.9999976158143,0|0,0:0|1:0,0:0:0:0:
196,132,62895,1,0,0:0:0:0:
140,60,63095,2,0,P|112:100|108:152,1,89.9999976158143
196,132,63495,6,0,L|380:132,1,179.999995231629
428,56,64095,1,0,0:0:0:0:
428,56,64295,2,0,P|472:136|416:228,1,179.999995231629,0|0,1:0|0:0,0:0:0:0:
368,264,64895,1,0,0:0:0:0:
368,264,64995,1,0,0:0:0:0:
368,264,65095,5,4,0:0:0:0:
144,120,66295,1,4,0:0:0:0:
72,172,66495,1,0,0:0:0:0:
72,172,66595,5,0,0:0:0:0:
72,172,66695,2,0,P|40:252|84:328,1,179.999995231629,4|2,0:0|0:0,0:0:0:0:
244,240,67895,1,0,0:0:0:0:
300,312,68095,1,0,0:0:0:0:
392,312,68295,2,0,L|488:312,1,89.9999976158143,4|0,0:0|0:0,0:0:0:0:
268,144,69495,5,0,0:0:0:0:
212,72,69695,1,4,0:0:0:0:
120,72,69895,2,0,L|24:72,1,89.9999976158143
268,144,70495,2,0,L|324:144,2,44.9999988079071
360,72,71095,2,0,L|408:116,1,44.9999988079071
440,180,71495,5,2,0:0:0:0:
440,272,71895,1,2,0:0:0:0:
396,352,72295,1,2,0:0:0:0:
352,272,72695,1,2,0:0:0:0:
276,324,73095,2,0,L|180:324,1,89.9999976158143,2|0,0:0|0:0,0:0:0:0:
10,292,73895,2,0,L|100:292,1,89.9999976158143
72,204,74695,6,0,P|56:152|72:108,1,89.9999976158143,2|2,0:0|0:0,0:0:0:0:
152,68,75495,2,0,P|196:60|244:60,2,89.9999976158143,2|2|2,0:0|0:0|0:0,0:0:0:0:
256,192,76495,12,0,77895,0:0:0:0:
256,192,78095,12,0,80295,0:0:0:0:
