osu file format v13

[General]
AudioFilename: Kanade.mp3
AudioLeadIn: 0
PreviewTime: 45495
Countdown: 0
SampleSet: Soft
StackLeniency: 0.7
Mode: 0
LetterboxInBreaks: 1
WidescreenStoryboard: 1

[Editor]
Bookmarks: 45495
DistanceSpacing: 1.3
BeatDivisor: 4
GridSize: 4
TimelineZoom: 1.2

[Metadata]
Title:Kanade (TV Size)
TitleUnicode:奏 (TV Size)
Artist:Amamiya Sora
ArtistUnicode:雨宮 天
Creator:yanlu
Version:Hard
Source:Isshuukan Friends.
Tags:Sukima Switch(スキマスイッチ) 一週間フレンズ。 ED one week friends ending Shub-Niggurath Saya-Honmei Evil_Twilight
BeatmapID:420897
BeatmapSetID:174298

[Difficulty]
HPDrainRate:6
CircleSize:4
OverallDifficulty:6
ApproachRate:7
SliderMultiplier:3.2
SliderTickRate:1

[Events]
//Background and Video events
0,0,"bg.jpg",0,0
Video,0,"ED.avi"
//Break Periods
//Storyboard Layer 0 (Background)
//Storyboard Layer 1 (Fail)
//Storyboard Layer 2 (Pass)
//Storyboard Layer 3 (Foreground)
//Storyboard Sound Samples
Sample,2095,2,"soft-hitfinish.wav",60
Sample,22695,2,"soft-hitclap2.wav",20
Sample,25895,2,"soft-hitclap2.wav",20
Sample,27095,2,"soft-hitfinish2.wav",20
Sample,35495,2,"soft-hitclap2.wav",20
Sample,42036,2,"soft-hitclap2.wav",20
Sample,46695,2,"soft-hitclap3.wav",50
Sample,48295,2,"soft-hitclap3.wav",50
Sample,49895,2,"soft-hitclap3.wav",50
Sample,50695,2,"ding.wav",40
Sample,51095,2,"ding.wav",40
Sample,51295,2,"ding.wav",40
Sample,51695,2,"ding.wav",40
Sample,51895,2,"ding.wav",20
Sample,57095,2,"ding.wav",40
Sample,57295,2,"ding.wav",40
Sample,57295,2,"ding.wav",40
Sample,57495,2,"ding.wav",40
Sample,57695,2,"ding.wav",50
Sample,57895,2,"ding.wav",60
Sample,58095,2,"ding.wav",40
Sample,58295,2,"ding.wav",70
Sample,59495,2,"soft-hitclap3.wav",50
Sample,61095,2,"soft-hitclap3.wav",50
Sample,63495,2,"ding.wav",40
Sample,65095,2,"ding.wav",50
Sample,67495,2,"ding.wav",20
//Background Colour Transformations
3,100,163,162,255

[TimingPoints]
-505,800,4,2,1,30,1,0
1895,-133.333333333333,4,2,1,30,0,0
2695,-133.333333333333,4,2,0,30,0,0
3095,-133.333333333333,4,2,1,30,0,0
16895,-133.333333333333,4,2,1,20,0,0
17095,-133.333333333333,4,2,1,30,0,0
18695,-133.333333333333,4,2,2,30,0,0
30695,-133.333333333333,4,2,2,40,0,0
31295,-133.333333333333,4,2,2,30,0,0
31495,-133.333333333333,4,2,0,30,0,0
31895,-133.333333333333,4,2,2,30,0,0
42695,-133.333333333333,4,2,2,40,0,0
44295,-142.857142857143,4,2,1,50,0,0
44895,-111.111111111111,4,2,1,50,0,0
45895,-100,4,2,0,50,0,1
46095,-100,4,2,1,50,0,1
57895,-83.3333333333333,4,2,1,50,0,0
58495,-83.3333333333333,4,2,1,30,0,0
58695,-100,4,2,0,50,0,1
58895,-100,4,2,1,50,0,1
65095,-100,4,2,0,30,0,0
65495,-100,4,2,1,50,0,0
66695,-100,4,2,0,30,0,0
67095,-100,4,2,1,50,0,0
68295,-100,4,2,0,30,0,0
68495,-100,4,2,1,50,0,0
69895,-100,4,2,1,40,0,0
71495,-100,4,2,1,20,0,0
72295,-133.333333333333,4,2,1,20,0,0
73095,-100,4,2,0,5,0,0
75895,-200,4,2,0,5,0,0
76295,-100,4,2,0,5,0,0
77895,-100,4,2,0,5,0,0

[Colours]
Combo1 : 255,255,106
Combo2 : 255,128,128
Combo3 : 255,128,192
Combo4 : 128,255,128

[HitObjects]
192,220,1695,5,8,0:0:0:0:
192,252,1795,1,8,0:0:0:0:
202,275,1895,2,0,P|216:301|242:319,2,60.0000022888184,8|4|4,0:0|0:0|0:0,0:0:0:0:
384,276,2695,6,0,B|428:260|436:208|436:208|412:192,1,120.000004577637,4|0,0:0|0:0,0:0:0:0:
256,76,3495,2,0,B|212:92|204:144|204:144|228:160,1,120.000004577637,8|4,0:0|0:0,0:0:0:0:
384,136,4295,2,0,B|400:160|400:160|452:152|468:108,1,120.000004577637,0|4,0:0|0:0,0:0:0:0:
400,56,4895,1,0,0:0:0:0:
316,64,5095,2,0,L|256:76,2,60.0000022888184,8|2|0,0:0|0:0|0:0,0:0:0:0:
432,216,5895,6,0,P|416:272|360:280,1,120.000004577637,4|0,0:0|0:0,0:0:0:0:
184,200,6695,2,0,P|200:144|256:136,1,120.000004577637,8|4,0:0|0:0,0:0:0:0:
360,300,7495,2,0,P|318:340|265:319,1,120.000004577637,0|4,0:0|0:0,0:0:0:0:
256,236,8095,1,0,0:0:0:0:
340,220,8295,2,0,L|400:208,2,60.0000022888184,8|2|0,0:0|0:0|0:0,0:0:0:0:
148,192,9095,6,0,B|128:152|84:148|84:148|76:108,1,120.000004577637
256,40,9895,2,0,B|276:80|320:84|320:84|328:124,1,120.000004577637,8|4,0:0|0:0,0:0:0:0:
220,248,10695,2,0,P|279:244|321:206,1,120.000004577637,0|4,0:0|0:0,0:0:0:0:
328,120,11295,1,0,0:0:0:0:
244,156,11495,2,0,P|220:140|204:112,2,60.0000022888184,8|0|0,0:0|0:0|0:0,0:0:0:0:
244,156,12295,5,6,0:0:0:0:
320,216,13095,1,2,0:0:0:0:
424,88,13895,1,10,0:0:0:0:
464,172,14295,1,2,0:0:0:0:
452,268,14695,1,6,0:0:0:0:
372,324,15095,2,0,B|280:380|256:224|232:380|144:324,1,240.000009155274,2|0,0:0|0:0,0:0:0:0:
256,140,16295,5,0,0:0:0:0:
60,261,16695,1,0,0:0:0:0:
104,192,16895,1,8,0:0:0:0:
140,265,17095,1,4,0:0:0:0:
264,236,17495,2,0,P|295:231|320:216,1,60.0000022888184,8|8,0:0|0:0,0:0:0:0:
396,116,17895,2,0,P|364:120|340:136,2,60.0000022888184,0|4|4,0:0|0:0|0:0,0:0:0:0:
424,280,18695,6,0,P|404:336|356:372,1,120.000004577637,4|0,0:0|0:0,0:0:0:0:
224,328,19295,1,0,0:0:0:0:
224,328,19495,2,0,B|251:311|282:318|282:318|297:291|329:286,1,120.000004577637,8|0,0:0|0:0,0:0:0:0:
268,128,20295,2,0,P|324:108|384:128,1,120.000004577637,0|4,0:0|0:0,0:0:0:0:
384,216,20895,2,0,P|351:215|329:201,2,60.0000022888184,0|8|0,0:0|0:0|0:0,0:0:0:0:
468,192,21495,2,0,P|496:208|507:231,1,60.0000022888184
408,300,21895,6,0,B|383:328|383:328|356:294|310:295,1,120.000004577637,4|0,0:0|0:0,0:0:0:0:
200,295,22495,2,0,B|155:294|128:328|128:328|104:300,1,120.000004577637
63,224,23095,2,0,P|22:265|23:323,1,120.000004577637,4|0,0:0|0:0,0:0:0:0:
192,328,23895,1,4,0:0:0:0:
212,180,24295,1,8,0:0:0:0:
96,88,24695,1,0,0:0:0:0:
40,144,24895,1,0,0:0:0:0:
64,224,25095,6,0,P|116:192|172:200,1,120.000004577637,4|0,0:0|0:0,0:0:0:0:
228,264,25695,2,0,L|348:244,1,120.000004577637
432,228,26295,1,0,0:0:0:0:
420,312,26495,2,0,P|368:344|312:336,2,120.000004577637
442,218,27495,1,8,0:0:0:0:
316,228,28095,1,0,0:0:0:0:
316,228,28295,6,0,L|196:248,1,120.000004577637,4|0,0:0|0:0,0:0:0:0:
344,96,29095,2,0,L|464:76,1,120.000004577637,8|0,0:0|0:0,0:0:0:0:
280,216,29895,2,0,P|216:216|160:232,1,120.000004577637,4|0,0:0|0:0,0:0:0:0:
88,312,30495,1,0,0:0:0:0:
168,312,30695,1,8,0:3:0:0:
80,228,31095,5,4,0:0:0:0:
88,148,31295,1,0,0:0:0:0:
148,96,31495,6,0,P|208:108|256:80,1,120.000004577637,4|0,0:0|0:0,0:0:0:0:
320,24,32095,1,0,0:0:0:0:
364,96,32295,2,0,P|304:108|256:80,1,120.000004577637,8|4,0:0|0:0,0:0:0:0:
192,24,32895,1,0,0:0:0:0:
148,96,33095,2,0,L|144:160,1,60.0000022888184
72,200,33495,2,0,L|68:264,2,60.0000022888184,4|0|8,0:0|0:0|0:0,0:0:0:0:
232,144,34295,1,0,0:0:0:0:
276,72,34495,1,0,0:0:0:0:
196,40,34695,6,0,P|196:100|232:144,1,120.000004577637,4|0,0:0|0:0,0:0:0:0:
319,144,35295,2,0,P|356:98|356:40,1,120.000004577637,0|0,0:0|0:0,0:0:0:0:
276,72,35895,2,0,L|256:192,1,120.000004577637
212,276,36695,1,4,0:0:0:0:
320,144,37095,1,8,0:0:0:0:
192,144,37495,5,0,0:0:0:0:
192,144,37695,1,0,0:0:0:0:
284,224,37895,2,0,P|300:280|280:340,1,120.000004577637,4|0,0:0|0:0,0:0:0:0:
172,320,38495,2,0,L|212:276,1,60.0000022888184,0|8,0:0|0:0,0:0:0:0:
320,144,39095,1,0,0:0:0:0:
372,212,39295,1,0,0:0:0:0:
456,212,39495,2,0,P|496:164|504:108,1,120.000004577637,0|4,0:0|0:0,0:0:0:0:
344,56,40295,1,8,0:0:0:0:
456,212,40695,1,0,0:0:0:0:
424,296,40895,1,0,0:0:0:0:
336,312,41095,6,0,B|292:288|268:336|220:316,1,120.000004577637
144,208,41695,2,0,B|192:196|203:248|255:241,1,120.000004577637
368,132,42295,2,0,B|319:120|308:172|256:165,1,120.000004577637,4|0,0:0|1:0,0:0:0:0:
164,88,43095,1,4,0:0:0:0:
368,132,43495,1,0,1:0:0:0:
256,324,43895,5,4,0:0:0:0:
148,320,44095,1,0,1:0:0:0:
76,240,44295,2,0,L|76:128,1,111.999996582031,0|0,1:0|0:0,0:0:0:0:
164,76,44895,6,0,L|164:148,2,71.9999978027344,0|0|0,0:0|1:0|0:0,0:0:0:0:
256,40,45495,1,0,0:0:0:0:
340,96,45695,1,0,0:0:0:0:
256,144,45895,6,0,P|224:172|188:184,1,80,4|0,0:0|0:0,0:0:0:0:
96,156,46295,1,0,0:0:0:0:
36,80,46495,2,0,P|64:160|60:236,1,160
40,336,47095,1,4,0:0:0:0:
61,235,47295,2,0,P|102:239|141:228,2,80
3,159,47895,1,0,0:0:0:0:
100,148,48095,2,0,B|168:120|192:160|256:132,1,160
320,56,48695,1,0,0:0:0:0:
416,80,48895,1,0,0:0:0:0:
416,80,49095,6,0,P|464:132|468:220,1,160,4|0,0:0|0:0,0:0:0:0:
326,182,49695,6,0,P|396:172|470:219,1,160
354,311,50295,6,0,P|421:289|469:215,1,160
436,28,51095,1,4,0:0:0:0:
356,84,51295,1,0,0:0:0:0:
272,36,51495,1,0,1:0:0:0:
68,72,51895,2,0,L|148:64,1,80
280,120,52295,6,0,B|240:156|192:140|192:140|204:204,1,160
120,280,52895,2,0,L|104:200,1,80,0|0,0:0|1:0,0:0:0:0:
68,72,53295,1,0,0:0:0:0:
156,112,53495,1,0,0:0:0:0:
232,48,53695,2,0,P|316:40|364:92,1,160
364,180,54295,5,4,0:0:0:0:
196,80,54695,1,0,1:0:0:0:
436,28,55095,1,0,0:0:0:0:
472,108,55295,1,0,0:0:0:0:
476,196,55495,2,0,L|448:272,1,80
368,256,55895,2,0,L|340:332,2,80,0|0|0,0:0|0:0|1:0,0:0:0:0:
144,256,56695,2,0,L|172:332,2,80,0|0|0,0:0|0:0|0:0,0:0:0:0:
152,160,57295,1,0,0:0:0:0:
160,64,57495,5,0,0:0:0:0:
72,104,57695,5,0,0:0:0:0:
152,160,57895,6,0,P|204:152|236:124,1,95.9999970703126,0|0,1:0|0:0,0:0:0:0:
344,40,58295,5,4,0:0:0:0:
356,48,58395,1,0,0:0:0:0:
364,60,58495,1,4,0:0:0:0:
368,76,58595,1,0,0:0:0:0:
368,88,58695,2,0,P|364:128|376:168,1,80,4|0,0:0|0:0,0:0:0:0:
422,248,59095,1,0,0:0:0:0:
452,162,59295,2,0,P|375:167|325:231,1,160
296,320,59895,1,4,0:0:0:0:
204,292,60095,6,0,P|180:260|180:220,2,80
372,256,60695,1,0,0:0:0:0:
280,224,60895,2,0,B|212:196|188:236|124:208,1,160
296,320,61695,1,0,0:0:0:0:
388,352,61895,6,0,P|452:304|460:228,1,160,4|0,0:0|0:0,0:0:0:0:
352,160,62495,1,0,0:0:0:0:
352,160,62695,6,0,P|288:208|280:284,1,160,0|0,1:0|0:0,0:0:0:0:
388,352,63295,1,0,0:0:0:0:
372,256,63495,1,0,0:0:0:0:
372,256,64295,5,0,1:0:0:0:
256,96,64695,1,0,0:0:0:0:
140,256,65095,2,0,P|81:310|5:305,1,160,4|0,0:0|0:0,0:0:0:0:
256,96,66295,1,4,0:0:0:0:
372,256,66695,6,0,P|430:310|506:305,1,160,4|0,0:0|0:0,0:0:0:0:
461,220,67295,2,0,L|301:220,1,160
232,284,67895,1,0,0:0:0:0:
144,248,68095,1,0,0:0:0:0:
52,273,68295,2,0,P|67:309|99:331,2,80,4|0|0,0:0|0:0|0:0,0:0:0:0:
292,176,69495,6,0,P|256:192|220:176,1,80,0|4,0:0|0:0,0:0:0:0:
332,108,69895,2,0,P|372:176|332:244,1,160
256,268,70495,1,0,0:0:0:0:
175,241,70695,2,0,P|140:173|180:108,1,160
396,40,71495,5,0,0:0:0:0:
440,192,71895,1,0,0:0:0:0:
360,328,72295,2,0,P|303:354|246:346,2,120.000004577637,0|0|0,0:0|0:0|0:0,0:0:0:0:
364,240,74695,5,0,0:0:0:0:
220,328,75095,1,0,0:0:0:0:
240,200,75495,1,0,0:0:0:0:
108,188,75895,2,0,P|109:229|125:263,1,80
256,192,76495,12,0,77895,0:0:0:0:
256,192,78095,12,0,80295,0:0:0:0:
