osu file format v13

[General]
AudioFilename: Susumu(kanade).mp3
AudioLeadIn: 1500
PreviewTime: 68537
Countdown: 0
SampleSet: Soft
StackLeniency: 0.7
Mode: 1
LetterboxInBreaks: 0
WidescreenStoryboard: 0

[Editor]
DistanceSpacing: 1.2
BeatDivisor: 4
GridSize: 32
TimelineZoom: 1.1

[Metadata]
Title:Kanade
TitleUnicode:奏(かなで)
Artist:Amamiya Sora
ArtistUnicode:雨宮天
Creator:Loneight
Version:qoot8123's Muzukashii
Source:一週間フレンズ。
Tags:qoot8123 bossandy fujimiya kaori isshuukan Friends one week ending ed full version
BeatmapID:483291
BeatmapSetID:203688

[Difficulty]
HPDrainRate:4
CircleSize:4
OverallDifficulty:3
ApproachRate:5
SliderMultiplier:2.4
SliderTickRate:1

[Events]
//Background and Video events
0,0,"BG.jpg",0,60
Video,-220,"video.avi"
//Break Periods
//Storyboard Layer 0 (Background)
//Storyboard Layer 1 (Fail)
//Storyboard Layer 2 (Pass)
//Storyboard Layer 3 (Foreground)
//Storyboard Sound Samples
//Background Colour Transformations
3,100,163,162,255

[TimingPoints]
537,800,4,2,0,50,1,0
26137,-100,4,2,0,70,0,0
42137,-100,4,2,0,60,0,0
69337,800,4,2,0,70,1,1
94937,-100,4,2,0,60,0,0
134937,800,4,2,0,70,1,1
147337,-100,4,2,0,80,0,1
147737,-100,4,2,0,70,0,1
160537,-100,4,2,0,70,0,0
222937,-142.857142857143,4,2,0,50,0,0
234137,-133.333333333333,4,2,0,50,0,0
235737,-125,4,2,0,50,0,0
242137,-117.647058823529,4,2,0,55,0,0
243837,-111.111111111111,4,2,0,60,0,0
246137,-105.263157894737,4,2,0,65,0,0
248537,800,4,2,0,70,1,1
274137,-100,4,2,0,60,0,0
286937,-100,4,2,0,50,0,0
293337,821.917808219178,4,2,0,50,1,0
294158,857.142857142857,4,2,0,50,1,0
295872,952.380952380952,4,2,0,50,1,0
296348,1034.48275862069,4,2,0,40,1,8

[Colours]
Combo1 : 182,109,109
Combo2 : 255,149,98

[HitObjects]
256,192,537,5,0,0:0:0:0:
256,192,1337,1,8,0:0:0:0:
256,192,2937,1,8,0:0:0:0:
256,192,3737,1,0,0:0:0:0:
256,192,4537,1,8,0:0:0:0:
256,192,6137,1,8,0:0:0:0:
256,192,6937,1,0,0:0:0:0:
256,192,7737,1,8,0:0:0:0:
256,192,9337,1,8,0:0:0:0:
256,192,10137,1,0,0:0:0:0:
256,192,10937,1,8,0:0:0:0:
256,192,11737,1,8,0:0:0:0:
256,192,12137,1,0,0:0:0:0:
256,192,12537,1,8,0:0:0:0:
256,192,12737,1,0,0:0:0:0:
256,192,12937,1,0,0:0:0:0:
256,192,13337,1,0,0:0:0:0:
256,192,14137,1,8,0:0:0:0:
256,192,15737,1,8,0:0:0:0:
256,192,16537,1,0,0:0:0:0:
256,192,17337,1,8,0:0:0:0:
256,192,18937,1,8,0:0:0:0:
256,192,19737,1,0,0:0:0:0:
256,192,20537,1,8,0:0:0:0:
256,192,22137,1,8,0:0:0:0:
256,192,22937,1,0,0:0:0:0:
256,192,23737,1,8,0:0:0:0:
256,192,24537,1,8,0:0:0:0:
256,192,24937,1,0,0:0:0:0:
256,192,25337,1,8,0:0:0:0:
256,192,25537,1,0,0:0:0:0:
256,192,25737,1,0,0:0:0:0:
256,192,26137,1,4,0:0:0:0:
256,192,26937,1,8,0:0:0:0:
256,192,27737,1,0,0:0:0:0:
256,192,28137,1,0,0:0:0:0:
256,192,28537,1,8,0:0:0:0:
256,192,29337,1,0,0:0:0:0:
256,192,30137,1,8,0:0:0:0:
256,192,30937,1,0,0:0:0:0:
256,192,31337,1,0,0:0:0:0:
256,192,31737,1,8,0:0:0:0:
256,192,32537,1,0,0:0:0:0:
256,192,33337,1,8,0:0:0:0:
256,192,34137,1,0,0:0:0:0:
256,192,34537,1,0,0:0:0:0:
256,192,34937,1,8,0:0:0:0:
256,192,35337,1,0,0:0:0:0:
256,192,35737,1,12,0:0:0:0:
256,192,37337,1,8,0:0:0:0:
256,192,37737,1,0,0:0:0:0:
256,192,38137,1,8,0:0:0:0:
256,192,38537,1,12,0:0:0:0:
256,192,40537,1,8,0:0:0:0:
256,192,40937,1,8,0:0:0:0:
256,192,41137,1,8,0:0:0:0:
256,192,41537,1,0,0:0:0:0:
256,192,41737,1,0,0:0:0:0:
256,192,42137,1,0,0:0:0:0:
256,192,42937,1,8,0:0:0:0:
256,192,43337,1,0,0:0:0:0:
256,192,43737,1,8,0:0:0:0:
256,192,44937,1,0,0:0:0:0:
256,192,45337,1,8,0:0:0:0:
256,192,46137,1,8,0:0:0:0:
256,192,46537,1,8,0:0:0:0:
256,192,46937,1,0,0:0:0:0:
256,192,47337,1,0,0:0:0:0:
256,192,47737,1,8,0:0:0:0:
256,192,48537,1,0,0:0:0:0:
256,192,49337,1,8,0:0:0:0:
256,192,50537,1,0,0:0:0:0:
256,192,50937,1,8,0:0:0:0:
256,192,51737,1,0,0:0:0:0:
256,192,52537,1,8,0:0:0:0:
256,192,52937,1,8,0:0:0:0:
256,192,53337,1,0,0:0:0:0:
256,192,54937,1,4,0:0:0:0:
256,192,55737,1,8,0:0:0:0:
256,192,56137,1,0,0:0:0:0:
256,192,56537,1,8,0:0:0:0:
256,192,57737,1,8,0:0:0:0:
256,192,58137,1,0,0:0:0:0:
256,192,58937,1,8,0:0:0:0:
256,192,59337,1,8,0:0:0:0:
256,192,59737,1,0,0:0:0:0:
256,192,60137,1,0,0:0:0:0:
256,192,60537,1,8,0:0:0:0:
256,192,61337,1,0,0:0:0:0:
256,192,62137,1,8,0:0:0:0:
256,192,62937,1,0,0:0:0:0:
256,192,63337,1,0,0:0:0:0:
256,192,63737,1,8,0:0:0:0:
256,192,64537,1,8,0:0:0:0:
256,192,64937,1,0,0:0:0:0:
256,192,65337,1,8,0:0:0:0:
256,192,65737,1,8,0:0:0:0:
256,192,66137,1,12,0:0:0:0:
256,192,66537,1,0,0:0:0:0:
256,192,66937,1,8,0:0:0:0:
256,192,67337,1,0,0:0:0:0:
256,192,67737,1,12,0:0:0:0:
256,192,68337,1,0,0:0:0:0:
256,192,68537,1,8,0:0:0:0:
256,192,68937,1,8,0:0:0:0:
256,192,69337,1,4,0:0:0:0:
256,192,69737,1,0,0:0:0:0:
256,192,70137,1,8,0:0:0:0:
256,192,70937,1,0,0:0:0:0:
256,192,71337,1,0,0:0:0:0:
256,192,71737,1,8,0:0:0:0:
256,192,72337,1,8,0:0:0:0:
256,192,72537,1,0,0:0:0:0:
256,192,72937,1,0,0:0:0:0:
256,192,73337,1,8,0:0:0:0:
256,192,73737,1,0,0:0:0:0:
256,192,74137,1,8,0:0:0:0:
256,192,74937,1,8,0:0:0:0:
256,192,75337,1,0,0:0:0:0:
256,192,75537,1,8,0:0:0:0:
256,192,75737,1,0,0:0:0:0:
256,192,76537,1,8,0:0:0:0:
256,192,76937,1,8,0:0:0:0:
256,192,77337,1,0,0:0:0:0:
256,192,77737,1,8,0:0:0:0:
256,192,77937,1,0,0:0:0:0:
256,192,78137,1,8,0:0:0:0:
256,192,78537,1,8,0:0:0:0:
256,192,78937,1,0,0:0:0:0:
256,192,79737,1,8,0:0:0:0:
256,192,80137,1,8,0:0:0:0:
256,192,80537,1,4,0:0:0:0:
256,192,80937,1,0,0:0:0:0:
256,192,81337,1,12,0:0:0:0:
256,192,81737,1,8,0:0:0:0:
256,192,82137,1,4,0:0:0:0:
256,192,82937,1,8,0:0:0:0:
256,192,83337,1,0,0:0:0:0:
256,192,83737,1,8,0:0:0:0:
256,192,84537,1,8,0:0:0:0:
256,192,85137,1,8,0:0:0:0:
256,192,85337,1,0,0:0:0:0:
256,192,85737,1,0,0:0:0:0:
256,192,86137,1,8,0:0:0:0:
256,192,86537,1,0,0:0:0:0:
256,192,86937,1,8,0:0:0:0:
256,192,87737,1,8,0:0:0:0:
256,192,88137,1,0,0:0:0:0:
256,192,88537,1,12,0:0:0:0:
256,192,89737,1,8,0:0:0:0:
256,192,90137,1,4,0:0:0:0:
256,192,90737,1,8,0:0:0:0:
256,192,91337,1,8,0:0:0:0:
256,192,91737,1,4,0:0:0:0:
256,192,92937,1,0,0:0:0:0:
256,192,93337,1,12,0:0:0:0:
256,192,93937,1,8,0:0:0:0:
256,192,94537,1,8,0:0:0:0:
256,192,94937,1,0,0:0:0:0:
256,192,95737,1,8,0:0:0:0:
256,192,96137,1,8,0:0:0:0:
256,192,96537,1,8,0:0:0:0:
256,192,98137,1,0,0:0:0:0:
256,192,98937,1,8,0:0:0:0:
256,192,99337,1,8,0:0:0:0:
256,192,99737,1,8,0:0:0:0:
256,192,101337,1,0,0:0:0:0:
256,192,102537,1,0,0:0:0:0:
256,192,102937,1,8,0:0:0:0:
256,192,103337,1,8,0:0:0:0:
256,192,103737,1,0,0:0:0:0:
256,192,104137,1,8,0:0:0:0:
256,192,104537,1,0,0:0:0:0:
256,192,105337,1,0,0:0:0:0:
256,192,106137,1,8,0:0:0:0:
256,192,107737,1,8,0:0:0:0:
256,192,108537,1,0,0:0:0:0:
256,192,109337,1,8,0:0:0:0:
256,192,110537,1,8,0:0:0:0:
256,192,110937,1,0,0:0:0:0:
256,192,111737,1,0,0:0:0:0:
256,192,112137,1,8,0:0:0:0:
256,192,112537,1,8,0:0:0:0:
256,192,114137,1,0,0:0:0:0:
256,192,114937,1,8,0:0:0:0:
256,192,115737,1,0,0:0:0:0:
256,192,117337,1,0,0:0:0:0:
256,192,118137,1,8,0:0:0:0:
256,192,118937,1,8,0:0:0:0:
256,192,119737,1,8,0:0:0:0:
256,192,119937,1,8,0:0:0:0:
256,192,120137,1,8,0:0:0:0:
256,192,120537,1,4,0:0:0:0:
256,192,121337,1,8,0:0:0:0:
256,192,122137,1,0,0:0:0:0:
256,192,122537,1,0,0:0:0:0:
256,192,122937,1,8,0:0:0:0:
256,192,123737,1,0,0:0:0:0:
256,192,124537,1,8,0:0:0:0:
256,192,125337,1,0,0:0:0:0:
256,192,125737,1,0,0:0:0:0:
256,192,126137,1,8,0:0:0:0:
256,192,126937,1,0,0:0:0:0:
256,192,127737,1,8,0:0:0:0:
256,192,128537,1,8,0:0:0:0:
256,192,128937,1,0,0:0:0:0:
256,192,129337,1,8,0:0:0:0:
256,192,130137,1,0,0:0:0:0:
256,192,130937,1,8,0:0:0:0:
256,192,131337,1,0,0:0:0:0:
256,192,131737,1,12,0:0:0:0:
256,192,132137,1,0,0:0:0:0:
256,192,132537,1,8,0:0:0:0:
256,192,132937,1,0,0:0:0:0:
256,192,133337,1,12,0:0:0:0:
256,192,133937,1,0,0:0:0:0:
256,192,134137,1,8,0:0:0:0:
256,192,134537,1,8,0:0:0:0:
256,192,134937,1,4,0:0:0:0:
256,192,135337,1,0,0:0:0:0:
256,192,135737,1,8,0:0:0:0:
256,192,136537,1,0,0:0:0:0:
256,192,136937,1,0,0:0:0:0:
256,192,137337,1,8,0:0:0:0:
256,192,137937,1,8,0:0:0:0:
256,192,138137,1,0,0:0:0:0:
256,192,138537,1,0,0:0:0:0:
256,192,138937,1,8,0:0:0:0:
256,192,139337,1,0,0:0:0:0:
256,192,139737,1,8,0:0:0:0:
256,192,140537,1,8,0:0:0:0:
256,192,140937,1,0,0:0:0:0:
256,192,141137,1,0,0:0:0:0:
256,192,141337,1,0,0:0:0:0:
256,192,142137,1,8,0:0:0:0:
256,192,142537,1,8,0:0:0:0:
256,192,142937,1,0,0:0:0:0:
256,192,143337,1,8,0:0:0:0:
256,192,143537,1,8,0:0:0:0:
256,192,143737,1,0,0:0:0:0:
256,192,144137,1,8,0:0:0:0:
256,192,144537,1,0,0:0:0:0:
256,192,145337,1,8,0:0:0:0:
256,192,145737,1,8,0:0:0:0:
256,192,146137,1,4,0:0:0:0:
256,192,146537,1,0,0:0:0:0:
256,192,146937,1,12,0:0:0:0:
256,192,147337,1,8,0:0:0:0:
256,192,147737,1,4,0:0:0:0:
256,192,148537,1,8,0:0:0:0:
256,192,148937,1,0,0:0:0:0:
256,192,149337,1,8,0:0:0:0:
256,192,150137,1,8,0:0:0:0:
256,192,150737,1,0,0:0:0:0:
256,192,150937,1,8,0:0:0:0:
256,192,151337,1,0,0:0:0:0:
256,192,151737,1,8,0:0:0:0:
256,192,152137,1,0,0:0:0:0:
256,192,152537,1,8,0:0:0:0:
256,192,153337,1,8,0:0:0:0:
256,192,153737,1,0,0:0:0:0:
256,192,154137,1,0,0:0:0:0:
256,192,154537,1,0,0:0:0:0:
256,192,154937,1,8,0:0:0:0:
256,192,155737,1,8,0:0:0:0:
256,192,156137,1,0,0:0:0:0:
256,192,156537,1,8,0:0:0:0:
256,192,156937,1,0,0:0:0:0:
256,192,157337,1,0,0:0:0:0:
256,192,158137,1,8,0:0:0:0:
256,192,158537,1,8,0:0:0:0:
256,192,158737,1,8,0:0:0:0:
256,192,158937,1,8,0:0:0:0:
256,192,159337,1,0,0:0:0:0:
256,192,159737,1,12,0:0:0:0:
256,192,160137,1,8,0:0:0:0:
256,192,160337,1,8,0:0:0:0:
256,192,160537,1,4,0:0:0:0:
256,192,161337,1,8,0:0:0:0:
256,192,162137,1,0,0:0:0:0:
256,192,162537,1,0,0:0:0:0:
256,192,162937,1,8,0:0:0:0:
256,192,163337,1,8,0:0:0:0:
256,192,163737,1,4,0:0:0:0:
256,192,164537,1,12,0:0:0:0:
256,192,165337,1,8,0:0:0:0:
256,192,166137,1,8,0:0:0:0:
256,192,166337,1,8,0:0:0:0:
256,192,166537,1,0,0:0:0:0:
256,192,166937,1,4,0:0:0:0:
256,192,167737,1,8,0:0:0:0:
256,192,168537,1,8,0:0:0:0:
256,192,169337,1,8,0:0:0:0:
256,192,169737,1,0,0:0:0:0:
256,192,170137,1,0,0:0:0:0:
256,192,170937,1,8,0:0:0:0:
256,192,171737,1,8,0:0:0:0:
256,192,172137,1,0,0:0:0:0:
256,192,172537,1,8,0:0:0:0:
256,192,172937,1,0,0:0:0:0:
256,192,173337,1,12,0:0:0:0:
256,192,174137,1,8,0:0:0:0:
256,192,174937,1,8,0:0:0:0:
256,192,175737,1,8,0:0:0:0:
256,192,176137,1,8,0:0:0:0:
256,192,176537,1,4,0:0:0:0:
256,192,177337,1,8,0:0:0:0:
256,192,178137,1,0,0:0:0:0:
256,192,178937,1,8,0:0:0:0:
256,192,179337,1,0,0:0:0:0:
256,192,179737,1,8,0:0:0:0:
256,192,180137,1,8,0:0:0:0:
256,192,180537,1,8,0:0:0:0:
256,192,180937,1,4,0:0:0:0:
256,192,181737,1,0,0:0:0:0:
256,192,182137,1,8,0:0:0:0:
256,192,182537,1,0,0:0:0:0:
256,192,182937,1,8,0:0:0:0:
256,192,183337,1,8,0:0:0:0:
256,192,183737,1,0,0:0:0:0:
256,192,184137,1,12,0:0:0:0:
256,192,184937,1,8,0:0:0:0:
256,192,185337,1,8,0:0:0:0:
256,192,185737,1,0,0:0:0:0:
256,192,186137,1,8,0:0:0:0:
256,192,186937,1,8,0:0:0:0:
256,192,187337,1,0,0:0:0:0:
256,192,188137,1,8,0:0:0:0:
256,192,188537,1,8,0:0:0:0:
256,192,188937,1,0,0:0:0:0:
256,192,189337,1,12,0:0:0:0:
256,192,189737,1,0,0:0:0:0:
256,192,190137,1,8,0:0:0:0:
256,192,190537,1,0,0:0:0:0:
256,192,190737,1,8,0:0:0:0:
256,192,190937,1,8,0:0:0:0:
256,192,191337,1,8,0:0:0:0:
256,192,191737,1,0,0:0:0:0:
256,192,192137,1,8,0:0:0:0:
256,192,192537,1,12,0:0:0:0:
256,192,193337,1,8,0:0:0:0:
256,192,193737,1,0,0:0:0:0:
256,192,194137,1,8,0:0:0:0:
256,192,194937,1,8,0:0:0:0:
256,192,195537,1,8,0:0:0:0:
256,192,195737,1,0,0:0:0:0:
256,192,196137,1,0,0:0:0:0:
256,192,196537,1,8,0:0:0:0:
256,192,197137,1,8,0:0:0:0:
256,192,197737,1,0,0:0:0:0:
256,192,198137,1,8,0:0:0:0:
256,192,198537,1,8,0:0:0:0:
256,192,198937,1,0,0:0:0:0:
256,192,199337,1,0,0:0:0:0:
256,192,199737,1,8,0:0:0:0:
256,192,200537,1,0,0:0:0:0:
256,192,200937,1,0,0:0:0:0:
256,192,201337,1,8,0:0:0:0:
256,192,201737,1,8,0:0:0:0:
256,192,202137,1,0,0:0:0:0:
256,192,202937,1,8,0:0:0:0:
256,192,203337,1,8,0:0:0:0:
256,192,203737,1,0,0:0:0:0:
256,192,204537,1,8,0:0:0:0:
256,192,205337,1,12,0:0:0:0:
256,192,206137,1,8,0:0:0:0:
256,192,206937,1,0,0:0:0:0:
256,192,207337,1,8,0:0:0:0:
256,192,207737,1,8,0:0:0:0:
256,192,208537,1,0,0:0:0:0:
256,192,209337,1,8,0:0:0:0:
256,192,209737,1,12,0:0:0:0:
256,192,210537,1,0,0:0:0:0:
256,192,210937,1,8,0:0:0:0:
256,192,211337,1,8,0:0:0:0:
256,192,211737,1,0,0:0:0:0:
256,192,212537,1,8,0:0:0:0:
256,192,212937,1,8,0:0:0:0:
256,192,213337,1,0,0:0:0:0:
256,192,213737,1,0,0:0:0:0:
256,192,214137,1,8,0:0:0:0:
256,192,214937,1,0,0:0:0:0:
256,192,215737,1,8,0:0:0:0:
256,192,216537,1,8,0:0:0:0:
256,192,216937,1,0,0:0:0:0:
256,192,217337,1,8,0:0:0:0:
256,192,217737,1,0,0:0:0:0:
256,192,218137,1,8,0:0:0:0:
256,192,218537,1,0,0:0:0:0:
256,192,218937,1,8,0:0:0:0:
256,192,219337,1,0,0:0:0:0:
256,192,219737,1,4,0:0:0:0:
256,192,222937,1,8,0:0:0:0:
256,192,224537,1,8,0:0:0:0:
256,192,226137,1,8,0:0:0:0:
256,192,226737,1,8,0:0:0:0:
256,192,227337,1,8,0:0:0:0:
256,192,227737,1,8,0:0:0:0:
256,192,229337,1,8,0:0:0:0:
256,192,230937,1,8,0:0:0:0:
256,192,231737,1,8,0:0:0:0:
256,192,232137,1,8,0:0:0:0:
256,192,232537,1,8,0:0:0:0:
256,192,234137,1,8,0:0:0:0:
256,192,234937,1,8,0:0:0:0:
256,192,235337,1,8,0:0:0:0:
256,192,235737,1,0,0:0:0:0:
256,192,237337,1,0,0:0:0:0:
256,192,238137,1,8,0:0:0:0:
256,192,238937,1,0,0:0:0:0:
256,192,239737,1,8,0:0:0:0:
256,192,240537,1,8,0:0:0:0:
256,192,242137,1,8,0:0:0:0:
256,192,243737,1,8,0:0:0:0:
256,192,244537,1,8,0:0:0:0:
256,192,245337,1,0,0:0:0:0:
256,192,246137,1,8,0:0:0:0:
256,192,246537,1,0,0:0:0:0:
256,192,246937,1,0,0:0:0:0:
256,192,247737,1,8,0:0:0:0:
256,192,247937,1,8,0:0:0:0:
256,192,248137,1,8,0:0:0:0:
256,192,248537,1,4,0:0:0:0:
256,192,248937,1,8,0:0:0:0:
256,192,249337,1,8,0:0:0:0:
256,192,249937,1,0,0:0:0:0:
256,192,250137,1,8,0:0:0:0:
256,192,250537,1,0,0:0:0:0:
256,192,250937,1,8,0:0:0:0:
256,192,251337,1,8,0:0:0:0:
256,192,251737,1,0,0:0:0:0:
256,192,252537,1,8,0:0:0:0:
256,192,252937,1,8,0:0:0:0:
256,192,253337,1,0,0:0:0:0:
256,192,253737,1,0,0:0:0:0:
256,192,254137,1,8,0:0:0:0:
256,192,254537,1,0,0:0:0:0:
256,192,254737,1,8,0:0:0:0:
256,192,254937,1,0,0:0:0:0:
256,192,255737,1,8,0:0:0:0:
256,192,256537,1,8,0:0:0:0:
256,192,256937,1,0,0:0:0:0:
256,192,257337,1,8,0:0:0:0:
256,192,257737,1,8,0:0:0:0:
256,192,258137,1,0,0:0:0:0:
256,192,258937,1,8,0:0:0:0:
256,192,259337,1,8,0:0:0:0:
256,192,259737,1,4,0:0:0:0:
256,192,260137,1,0,0:0:0:0:
256,192,260537,1,12,0:0:0:0:
256,192,260937,1,8,0:0:0:0:
256,192,261337,1,4,0:0:0:0:
256,192,262137,1,8,0:0:0:0:
256,192,262937,1,8,0:0:0:0:
256,192,263337,1,0,0:0:0:0:
256,192,263737,1,8,0:0:0:0:
256,192,264337,1,0,0:0:0:0:
256,192,264537,1,8,0:0:0:0:
256,192,264937,1,0,0:0:0:0:
256,192,265337,1,8,0:0:0:0:
256,192,265737,1,0,0:0:0:0:
256,192,266137,1,8,0:0:0:0:
256,192,266937,1,8,0:0:0:0:
256,192,267337,1,0,0:0:0:0:
256,192,267537,1,0,0:0:0:0:
256,192,267737,1,12,0:0:0:0:
256,192,268537,1,0,0:0:0:0:
256,192,268937,1,0,0:0:0:0:
256,192,269337,1,12,0:0:0:0:
256,192,270137,1,8,0:0:0:0:
256,192,270537,1,0,0:0:0:0:
256,192,270937,1,4,0:0:0:0:
256,192,272137,1,0,0:0:0:0:
256,192,272537,1,12,0:0:0:0:
256,192,273337,1,8,0:0:0:0:
256,192,274137,1,0,0:0:0:0:
256,192,274937,1,0,0:0:0:0:
256,192,275737,1,8,0:0:0:0:
256,192,277337,1,0,0:0:0:0:
256,192,278137,1,0,0:0:0:0:
256,192,278937,1,8,0:0:0:0:
256,192,280537,1,0,0:0:0:0:
256,192,282137,1,8,0:0:0:0:
256,192,282937,1,0,0:0:0:0:
256,192,283737,1,8,0:0:0:0:
256,192,285337,1,8,0:0:0:0:
256,192,285937,1,8,0:0:0:0:
256,192,286137,1,0,0:0:0:0:
256,192,286537,1,8,0:0:0:0:
256,192,286937,1,0,0:0:0:0:
256,192,287737,1,8,0:0:0:0:
256,192,288537,1,8,0:0:0:0:
256,192,290137,1,0,0:0:0:0:
256,192,290937,1,8,0:0:0:0:
256,192,291737,1,8,0:0:0:0:
256,192,293337,1,8,0:0:0:0:
256,192,294158,1,8,0:0:0:0:
256,192,295015,1,8,0:0:0:0:
256,192,295872,1,8,0:0:0:0:
256,192,296348,1,0,0:0:0:0:
256,192,296951,1,8,0:0:0:0:
