osu file format v13

[General]
AudioFilename: Susumu(kanade).mp3
AudioLeadIn: 1500
PreviewTime: 68537
Countdown: 0
SampleSet: Soft
StackLeniency: 0.7
Mode: 0
LetterboxInBreaks: 0
WidescreenStoryboard: 0

[Editor]
DistanceSpacing: 0.9
BeatDivisor: 4
GridSize: 4
TimelineZoom: 1.3

[Metadata]
Title:Kanade
TitleUnicode:奏(かなで)
Artist:Amamiya Sora
ArtistUnicode:雨宮天
Creator:Loneight
Version:Hard
Source:一週間フレンズ。
Tags:qoot8123 bossandy fujimiya kaori isshuukan Friends one week ending ed full version
BeatmapID:481272
BeatmapSetID:203688

[Difficulty]
HPDrainRate:5
CircleSize:4
OverallDifficulty:7
ApproachRate:8
SliderMultiplier:2.8
SliderTickRate:1

[Events]
//Background and Video events
0,0,"BG.jpg",0,0
Video,-220,"video.avi"
//Break Periods
2,95136,106987
2,222937,234987
//Storyboard Layer 0 (Background)
//Storyboard Layer 1 (Fail)
//Storyboard Layer 2 (Pass)
//Storyboard Layer 3 (Foreground)
//Storyboard Sound Samples
//Background Colour Transformations
3,100,163,162,255

[TimingPoints]
537,800,4,2,1,30,1,0
537,-142.857142857143,4,2,1,30,0,0
13337,-142.857142857143,4,2,3,30,0,0
13737,-142.857142857143,4,2,1,30,0,0
16537,-142.857142857143,4,2,3,30,0,0
16937,-142.857142857143,4,2,1,30,0,0
19737,-142.857142857143,4,2,3,30,0,0
20137,-142.857142857143,4,2,1,30,0,0
22937,-142.857142857143,4,2,3,30,0,0
23337,-142.857142857143,4,2,1,30,0,0
24937,-125,4,2,1,35,0,0
26137,-100,4,2,3,50,0,0
26337,-100,4,2,1,50,0,0
37137,-100,4,2,1,35,0,0
38537,-100,4,2,3,60,0,0
40137,-100,4,2,1,50,0,0
40537,-100,4,2,1,60,0,0
40937,-100,4,2,1,35,0,0
41737,-100,4,2,1,30,0,0
42137,-125,4,2,2,40,0,0
53337,-166.666666666667,4,2,2,40,0,0
54937,-111.111111111111,4,2,3,40,0,0
55137,-111.111111111111,4,2,2,40,0,0
66937,-111.111111111111,4,2,1,40,0,0
67737,-111.111111111111,4,2,1,50,0,0
68537,-111.111111111111,4,2,1,60,0,0
69337,800,4,2,3,80,1,1
69537,-100,4,2,1,60,0,1
80537,-100,4,2,3,60,0,1
80737,-100,4,2,1,60,0,1
81737,-100,4,2,1,60,0,0
82137,-100,4,2,3,80,0,1
82337,-100,4,2,1,60,0,1
83737,-100,4,2,3,60,0,1
83937,-100,4,2,1,60,0,1
85337,-100,4,2,3,60,0,1
85537,-100,4,2,1,60,0,1
86137,-100,4,2,4,60,0,1
86337,-100,4,2,1,60,0,1
86937,-100,4,2,3,70,0,1
87137,-100,4,2,1,60,0,1
88537,-142.857142857143,4,2,3,60,0,1
88737,-142.857142857143,4,2,1,60,0,1
90137,-125,4,2,3,60,0,1
90337,-125,4,2,1,60,0,1
91737,-111.111111111111,4,2,3,60,0,1
91937,-111.111111111111,4,2,1,60,0,1
93337,-100,4,2,3,60,0,1
93537,-100,4,2,1,60,0,1
94937,-142.857142857143,4,2,3,60,0,0
107737,-125,4,2,2,40,0,0
118937,-166.666666666667,4,2,1,40,0,0
120337,-166.666666666667,4,2,1,30,0,0
120537,-111.111111111111,4,2,3,40,0,0
120737,-111.111111111111,4,2,2,40,0,0
131737,-111.111111111111,4,2,1,40,0,0
133337,-111.111111111111,4,2,1,50,0,0
134137,-111.111111111111,4,2,1,60,0,0
134937,800,4,2,3,80,1,1
135137,-100,4,2,1,60,0,1
147337,-100,4,2,1,60,0,0
147737,-100,4,2,3,80,0,1
147937,-100,4,2,1,60,0,1
149337,-100,4,2,3,60,0,1
149537,-100,4,2,1,60,0,1
150937,-100,4,2,3,60,0,1
151137,-100,4,2,1,60,0,1
151737,-100,4,2,4,60,0,1
151937,-100,4,2,1,60,0,1
152537,-100,4,2,3,70,0,1
152737,-100,4,2,1,60,0,1
154137,-142.857142857143,4,2,3,60,0,1
154337,-142.857142857143,4,2,1,60,0,1
155737,-125,4,2,3,60,0,1
155937,-125,4,2,1,60,0,1
157337,-111.111111111111,4,2,3,60,0,1
157537,-111.111111111111,4,2,1,60,0,1
158937,-100,4,2,3,60,0,1
159137,-100,4,2,1,60,0,1
159737,-100,4,2,4,60,0,1
159937,-100,4,2,1,60,0,1
160537,-100,4,2,3,60,0,0
160737,-100,4,2,1,60,0,0
163737,-100,4,2,3,60,0,0
164537,-100,4,2,4,60,0,0
164937,-100,4,2,1,60,0,0
166937,-100,4,2,3,60,0,0
167737,-100,4,2,1,50,0,0
172137,-100,4,2,1,30,0,0
172337,-100,4,2,1,50,0,0
177937,-100,4,2,1,40,0,0
178137,-100,4,2,1,50,0,0
178337,-100,4,2,1,40,0,0
178537,-100,4,2,1,50,0,0
179737,-100,4,2,3,60,0,0
179937,-100,4,2,1,50,0,0
180937,-100,4,2,3,50,0,0
181737,-100,4,2,1,50,0,0
182937,-100,4,2,3,50,0,0
183337,-100,4,2,1,50,0,0
184137,-100,4,2,4,50,0,0
184737,-100,4,2,1,50,0,0
185337,-100,4,2,1,60,0,0
185537,-100,4,2,1,50,0,0
189337,-100,4,2,3,50,0,0
189537,-100,4,2,1,50,0,0
192537,-100,4,2,3,60,0,0
192737,-100,4,2,1,60,0,0
205337,-100,4,2,3,60,0,0
205537,-100,4,2,1,60,0,0
209737,-100,4,2,3,60,0,0
209937,-100,4,2,1,60,0,0
219737,-100,4,2,3,60,0,0
219937,-100,4,2,1,5,0,0
222137,-100,4,2,1,20,0,0
222937,-142.857142857143,4,2,1,40,0,0
242137,-125,4,2,1,45,0,0
243737,-117.647058823529,4,2,1,50,0,0
245337,-111.111111111111,4,2,1,55,0,0
248537,800,4,2,3,60,1,1
248737,-100,4,2,1,60,0,1
259737,-100,4,2,3,60,0,1
259937,-100,4,2,1,60,0,1
260937,-100,4,2,1,60,0,0
261337,-100,4,2,3,60,0,1
261537,-100,4,2,1,60,0,1
267737,-100,4,2,3,60,0,1
267937,-100,4,2,1,60,0,1
269337,-111.111111111111,4,2,3,60,0,1
269537,-111.111111111111,4,2,1,60,0,1
270937,-125,4,2,3,50,0,1
271137,-125,4,2,1,50,0,1
272537,-133.333333333333,4,2,3,40,0,1
272737,-133.333333333333,4,2,1,40,0,1
274137,-142.857142857143,4,2,1,40,0,0
293337,821.917808219178,4,2,1,35,1,0
293337,-142.857142857143,4,2,1,35,0,0
294158,857.142857142857,4,2,1,30,1,0
294158,-142.857142857143,4,2,1,30,0,0
295872,952.380952380952,4,2,1,25,1,0
296348,1034.48275862069,4,2,1,20,1,0

[Colours]
Combo1 : 255,128,128
Combo2 : 255,149,98

[HitObjects]
440,52,537,5,0,0:0:0:0:
436,188,1337,1,2,0:0:0:0:
428,324,2137,1,0,0:0:0:0:
384,264,2337,2,0,P|320:260|240:304,1,146.999995513916,2|2,0:0|0:0,0:0:0:0:
72,52,3737,5,0,0:0:0:0:
220,184,4537,1,2,0:0:0:0:
84,324,5337,1,0,0:0:0:0:
128,264,5537,2,0,P|192:260|272:304,1,146.999995513916,2|2,0:0|0:0,0:0:0:0:
440,52,6937,5,0,0:0:0:0:
236,176,7737,1,2,0:0:0:0:
460,256,8537,1,0,0:0:0:0:
388,236,8737,2,0,P|368:164|384:84,1,146.999995513916,2|2,0:0|0:0,0:0:0:0:
72,52,10137,5,0,0:0:0:0:
336,172,10937,1,2,0:0:0:0:
52,256,11737,1,0,0:0:0:0:
140,304,12137,1,2,0:0:0:0:
228,168,12537,5,0,0:0:0:0:
160,220,12737,1,0,0:0:0:0:
240,252,12937,1,2,0:0:0:0:
440,52,13337,5,8,0:0:0:0:
428,188,14137,1,2,0:0:0:0:
416,324,14937,1,0,0:0:0:0:
348,296,15137,2,0,L|500:276,1,146.999995513916,2|2,0:0|0:0,0:0:0:0:
72,52,16537,5,8,0:0:0:0:
220,180,17337,1,2,0:0:0:0:
96,324,18137,1,0,0:0:0:0:
164,296,18337,2,0,L|12:276,1,146.999995513916,2|2,0:0|0:0,0:0:0:0:
440,52,19737,5,8,0:0:0:0:
240,176,20537,1,2,0:0:0:0:
436,300,21337,1,0,0:0:0:0:
368,272,21537,2,0,L|352:108,1,146.999995513916,2|2,0:0|0:0,0:0:0:0:
72,52,22937,5,8,0:0:0:0:
340,172,23737,1,2,0:0:0:0:
76,300,24537,1,0,0:0:0:0:
240,332,24937,1,2,0:0:0:0:
324,320,25137,6,0,L|332:368,2,28,8|8|8,0:0|0:0|0:0,0:0:0:0:
340,172,25537,1,4,0:0:0:0:
380,244,25737,1,4,0:0:0:0:
476,136,25937,1,0,0:0:0:0:
328,92,26137,6,0,L|176:104,1,140,6|2,0:0|0:0,0:0:0:0:
196,312,26937,2,0,L|348:300,1,140,8|6,0:0|0:0,0:0:0:0:
312,64,27737,6,0,L|224:72,1,70,4|2,0:0|0:0,0:0:0:0:
160,48,28137,1,4,0:0:0:0:
160,48,28537,1,8,0:0:0:0:
76,28,28737,2,0,L|88:184,1,140,2|2,0:0|0:0,0:0:0:0:
171,188,29337,6,0,L|159:32,1,140,4|2,0:0|0:0,0:0:0:0:
32,220,30137,2,0,L|44:376,1,140,8|6,0:0|0:0,0:0:0:0:
252,332,30937,2,0,L|246:262,1,70,4|2,0:0|0:0,0:0:0:0:
176,300,31337,1,4,0:0:0:0:
176,300,31737,1,8,0:0:0:0:
248,364,31937,2,0,L|256:204,1,140,2|2,0:0|0:0,0:0:0:0:
308,164,32537,6,0,P|368:148|456:176,1,140,4|2,0:0|0:0,0:0:0:0:
244,240,33337,2,0,P|184:256|96:228,1,140,8|6,0:0|0:0,0:0:0:0:
304,80,34137,2,0,L|392:68,1,70,4|2,0:0|0:0,0:0:0:0:
456,88,34537,1,4,0:0:0:0:
244,240,34937,2,0,L|92:224,1,140,8|2,0:0|0:0,0:0:0:0:
72,52,35737,5,4,0:0:0:0:
384,180,36537,1,2,0:0:0:0:
176,320,37137,1,8,0:0:0:0:
176,320,37237,1,8,0:0:0:0:
176,320,37337,1,8,0:0:0:0:
344,344,37737,1,4,0:0:0:0:
384,180,38137,1,4,0:0:0:0:
344,344,38537,1,6,0:0:0:0:
344,344,40337,5,8,0:0:0:0:
344,344,40437,1,8,0:0:0:0:
344,344,40537,1,8,0:0:0:0:
260,356,40737,1,4,0:0:0:0:
184,320,40937,1,8,0:0:0:0:
184,320,41137,1,8,0:0:0:0:
184,320,41537,5,4,0:0:0:0:
104,348,41737,1,4,0:0:0:0:
104,348,42137,6,0,L|120:216,1,112,4|0,0:0|0:0,0:0:0:0:
68,168,42737,1,2,0:0:0:0:
88,88,42937,2,0,P|140:68|204:80,1,112,8|2,0:0|0:0,0:0:0:0:
376,104,43737,2,0,P|316:124|252:108,1,112,0|4,0:0|0:0,0:0:0:0:
195,76,44337,2,0,L|128:80,1,56,2|8,0:0|0:0,0:0:0:0:
268,32,44937,1,2,0:0:0:0:
376,104,45337,6,0,L|388:224,1,112,4|0,0:0|0:0,0:0:0:0:
468,188,45937,2,0,L|472:120,1,56,2|8,0:0|0:0,0:0:0:0:
452,268,46337,1,0,0:0:0:0:
492,184,46537,2,0,L|496:128,1,56,6|0,0:0|0:0,0:0:0:0:
428,44,46937,2,0,P|376:28|312:52,2,112,0|4|8,0:0|0:0|0:0,0:0:0:0:
272,112,48137,2,0,P|244:112|204:104,1,56
140,56,48537,6,0,P|152:108|148:184,1,112,4|0,0:0|0:0,0:0:0:0:
120,240,49137,1,2,0:0:0:0:
40,208,49337,2,0,L|52:336,1,112,8|2,0:0|0:0,0:0:0:0:
128,364,49937,2,0,P|184:372|240:356,1,112,0|2,0:0|0:0,0:0:0:0:
296,292,50537,2,0,P|348:284|416:300,1,112,4|8,0:0|0:0,0:0:0:0:
128,364,51537,1,0,0:0:0:0:
54,323,51737,6,0,L|44:212,1,112,4|2,0:0|0:0,0:0:0:0:
232,244,52537,2,0,L|221:132,1,112,8|6,0:0|0:0,0:0:0:0:
392,72,53337,6,0,B|407:208|407:208|383:236,1,167.999994873047,6|4,0:0|0:0,0:0:0:0:
228,328,54537,1,4,0:0:0:0:
380,358,54937,6,0,L|388:210,1,125.999996154785,6|0,0:0|0:0,0:0:0:0:
468,260,55537,2,0,L|464:184,1,62.9999980773926,2|8,0:0|0:0,0:0:0:0:
380,358,56137,1,6,0:0:0:0:
268,208,56537,2,0,P|204:204|136:236,1,125.999996154785,2|4,0:0|0:0,0:0:0:0:
92,288,57137,2,0,L|24:284,1,62.9999980773926,2|8,0:0|0:0,0:0:0:0:
40,96,57737,2,0,L|108:100,1,62.9999980773926,2|0,0:0|0:0,0:0:0:0:
176,140,58137,6,0,P|240:140|296:112,1,125.999996154785,4|0,0:0|0:0,0:0:0:0:
348,44,58737,2,0,L|420:52,1,62.9999980773926,2|8,0:0|0:0,0:0:0:0:
480,100,59137,1,2,0:0:0:0:
440,24,59337,2,0,L|368:16,1,62.9999980773926
292,40,59737,2,0,P|228:48|152:28,2,125.999996154785,2|4|8,0:0|0:0|0:0,0:0:0:0:
376,8,60737,1,2,0:0:0:0:
444,68,60937,2,0,L|512:56,1,62.9999980773926,0|0,0:0|0:0,0:0:0:0:
360,96,61337,6,0,P|352:160|372:240,1,125.999996154785,4|0,0:0|0:0,0:0:0:0:
444,208,61937,2,0,P|448:176|444:128,1,62.9999980773926,2|8,0:0|0:0,0:0:0:0:
288,272,62537,1,2,0:0:0:0:
340,336,62737,2,0,P|404:332|456:292,1,125.999996154785,0|2,0:0|0:0,0:0:0:0:
512,356,63337,2,0,B|496:208,1,125.999996154785,4|8,0:0|0:0,0:0:0:0:
256,100,64137,2,0,L|248:28,1,62.9999980773926,2|0,0:0|0:0,0:0:0:0:
176,76,64537,6,0,P|112:68|48:92,1,125.999996154785,4|0,0:0|0:0,0:0:0:0:
24,164,65137,2,0,B|32:232,1,62.9999980773926,2|8,0:0|0:0,0:0:0:0:
128,168,65537,1,2,0:0:0:0:
112,252,65737,2,0,B|120:320,1,62.9999980773926,4|0,0:0|0:0,0:0:0:0:
44,352,66137,6,0,L|29:206,1,125.999996154785,4|4,0:0|0:0,0:0:0:0:
256,112,66937,2,0,L|248:264,1,125.999996154785,8|4,0:0|0:0,0:0:0:0:
316,292,67537,1,8,0:0:0:0:
316,292,67637,1,8,0:0:0:0:
316,292,67737,1,8,0:0:0:0:
316,292,68337,5,8,0:0:0:0:
316,292,68437,1,8,0:0:0:0:
316,292,68537,1,8,0:0:0:0:
392,252,68737,1,8,0:0:0:0:
472,284,68937,2,0,L|468:220,1,62.9999980773926,4|4,0:0|0:0,0:0:0:0:
452,140,69337,6,0,P|380:128|304:160,1,140,14|2,0:0|0:0,0:0:0:0:
268,220,69937,1,0,0:0:0:0:
232,140,70137,2,0,P|164:128|76:152,1,140,8|6,0:0|0:0,0:0:0:0:
68,224,70737,1,0,0:0:0:0:
108,56,70937,2,0,P|68:64|32:80,1,70,4|0,0:0|0:0,0:0:0:0:
164,120,71337,2,0,P|204:112|240:96,1,70,4|2,0:0|0:0,0:0:0:0:
288,32,71737,1,8,0:0:0:0:
164,120,71937,2,0,P|156:184|180:264,1,140,2|2,0:0|0:0,0:0:0:0:
252,216,72537,6,0,L|244:132,1,70,4|0,0:0|0:0,0:0:0:0:
164,120,72937,1,2,0:0:0:0:
284,204,73137,2,0,L|276:120,1,70,0|8,0:0|0:0,0:0:0:0:
164,120,73537,1,0,0:0:0:0:
312,196,73737,2,0,L|304:112,1,70,6|0,0:0|0:0,0:0:0:0:
168,40,74137,1,2,0:0:0:0:
340,188,74537,5,4,0:0:0:0:
164,120,74737,2,0,L|88:108,1,70,2|8,0:0|0:0,0:0:0:0:
164,120,75137,1,2,0:0:0:0:
108,276,75337,2,0,L|116:348,1,70,4|0,0:0|0:0,0:0:0:0:
208,356,75737,6,0,L|216:204,1,140,4|2,0:0|0:0,0:0:0:0:
272,144,76337,2,0,P|304:140|352:152,1,70,0|8,0:0|0:0,0:0:0:0:
480,296,76937,2,0,P|448:300|400:288,1,70,6|8,0:0|0:0,0:0:0:0:
348,224,77337,2,0,P|412:204|488:212,1,140,4|6,0:0|0:0,0:0:0:0:
480,296,77937,1,0,0:0:0:0:
432,368,78137,2,0,L|352:360,1,70,8|2,0:0|0:0,0:0:0:0:
304,296,78537,2,0,L|224:288,1,70,0|2,0:0|0:0,0:0:0:0:
176,356,78937,6,0,P|104:368|48:320,1,140,4|2,0:0|0:0,0:0:0:0:
128,280,79537,1,0,0:0:0:0:
80,204,79737,2,0,P|152:192|208:240,1,140,8|0,0:0|0:0,0:0:0:0:
264,304,80337,5,8,0:0:0:0:
264,304,80437,1,8,0:0:0:0:
264,304,80537,2,0,L|344:296,1,70,6|0,0:0|0:0,0:0:0:0:
480,224,80937,2,0,L|400:216,1,70,2|0,0:0|0:0,0:0:0:0:
256,164,81337,2,0,L|336:156,1,70,8|8,0:0|0:0,0:0:0:0:
488,56,81737,2,0,L|408:48,1,70,6|4,0:0|0:0,0:0:0:0:
488,56,82137,6,0,P|416:40|332:64,1,140,14|0,0:0|0:0,0:0:0:0:
248,132,82737,2,0,P|216:144|168:140,1,70,0|8,0:0|0:0,0:0:0:0:
96,120,83137,1,2,0:0:0:0:
8,36,83337,2,0,P|44:32|92:44,1,70,4|8,0:0|0:0,0:0:0:0:
96,120,83737,1,8,0:0:0:0:
96,120,84137,2,0,L|88:40,1,70,6|0,0:0|0:0,0:0:0:0:
248,132,84537,2,0,L|232:212,1,70,8|2,0:0|0:0,0:0:0:0:
234,200,85137,1,2,0:0:0:0:
168,152,85337,6,0,P|112:144|20:172,1,140,10|2,0:0|0:0,0:0:0:0:
32,252,85937,1,0,0:0:0:0:
48,336,86137,2,0,P|104:344|196:316,1,140,10|2,0:0|0:0,0:0:0:0:
188,236,86737,1,0,0:0:0:0:
264,288,86937,2,0,P|336:296|412:276,2,140,10|4|8,0:0|0:0|0:0,0:0:0:0:
236,104,88137,2,0,L|244:20,1,70,2|0,0:0|0:0,0:0:0:0:
380,16,88537,6,0,L|388:136,1,97.9999970092774,6|2,0:0|0:0,0:0:0:0:
272,180,89137,2,0,P|224:188|176:164,1,97.9999970092774
152,88,89737,1,2,0:0:0:0:
28,144,89937,1,0,0:0:0:0:
28,144,90037,1,0,0:0:0:0:
28,144,90137,2,0,L|24:264,1,112,6|2,0:0|0:0,0:0:0:0:
120,344,90737,2,0,P|168:356|232:340,1,112
272,268,91337,1,2,0:0:0:0:
312,348,91537,1,0,0:0:0:0:
360,272,91737,6,0,L|368:144,1,125.999996154785,6|0,0:0|0:0,0:0:0:0:
456,240,92337,2,0,L|445:114,1,125.999996154785,2|0,0:0|0:0,0:0:0:0:
468,32,92937,2,0,P|440:28|396:40,1,62.9999980773926,2|4,0:0|0:0,0:0:0:0:
336,96,93337,2,0,P|272:84|192:108,1,140,6|2,0:0|0:0,0:0:0:0:
136,176,93937,2,0,P|84:184|32:164,1,105,0|2,0:0|0:0,0:0:0:0:
20,148,94337,2,0,L|32:80,1,70,0|2,0:0|0:0,0:0:0:0:
136,176,94737,2,0,L|148:264,1,70,0|6,0:0|0:0,0:0:0:0:
400,108,107737,5,2,0:0:0:0:
400,108,108137,2,0,L|408:184,1,56,0|2,0:0|0:0,0:0:0:0:
464,232,108537,2,0,P|408:220|348:244,1,112,8|2,0:0|0:0,0:0:0:0:
220,120,109337,1,2,0:0:0:0:
220,120,109737,2,0,L|160:112,1,56,0|2,0:0|0:0,0:0:0:0:
104,52,110137,2,0,P|112:104|96:160,1,112,8|2,0:0|0:0,0:0:0:0:
56,332,110937,6,0,P|32:272|44:208,1,112,2|0,0:0|0:0,0:0:0:0:
96,160,111537,2,0,L|172:168,1,56,2|8,0:0|0:0,0:0:0:0:
196,88,111937,1,0,0:0:0:0:
240,168,112137,2,0,P|292:176|360:152,2,112,2|2|0,0:0|0:0|0:0,0:0:0:0:
388,76,113337,2,0,P|448:64|508:88,1,112,8|0,0:0|0:0,0:0:0:0:
440,152,113937,1,0,0:0:0:0:
492,228,114137,6,0,P|432:240|372:216,1,112,2|0,0:0|0:0,0:0:0:0:
344,148,114737,1,2,0:0:0:0:
300,72,114937,2,0,P|256:128|256:168,1,112,8|2,0:0|0:0,0:0:0:0:
204,244,115537,2,0,P|172:248|124:240,1,56,0|0,0:0|0:0,0:0:0:0:
84,308,115937,2,0,L|72:180,1,112,2|0,0:0|0:0,0:0:0:0:
20,124,116537,2,0,P|76:108|140:132,1,112,8|0,0:0|0:0,0:0:0:0:
73,196,117137,1,0,0:0:0:0:
126,122,117337,6,0,L|112:4,1,112,2|0,0:0|0:0,0:0:0:0:
280,168,118137,2,0,L|265:49,1,112,8|0,0:0|0:0,0:0:0:0:
436,24,118937,6,0,B|464:84|436:140|436:140|484:128,1,167.999994873047,2|8,0:0|0:0,0:0:0:0:
472,212,119937,1,8,0:0:0:0:
388,200,120137,1,4,0:0:0:0:
388,200,120337,1,4,0:0:0:0:
356,84,120537,6,0,P|300:72|212:92,1,125.999996154785,6|0,0:0|0:0,0:0:0:0:
148,68,121137,2,0,L|136:-4,1,62.9999980773926,2|8,0:0|0:0,0:0:0:0:
252,192,121737,1,2,0:0:0:0:
176,152,121937,2,0,L|100:144,1,62.9999980773926,0|4,0:0|0:0,0:0:0:0:
128,260,122337,2,0,L|66:215,1,62.9999980773926,2|4,0:0|0:0,0:0:0:0:
40,340,122737,2,0,L|8:270,1,62.9999980773926,2|8,0:0|0:0,0:0:0:0:
176,152,123337,1,2,0:0:0:0:
324,300,123737,6,0,P|264:316|184:296,1,125.999996154785,4|0,0:0|0:0,0:0:0:0:
144,244,124337,2,0,L|136:168,1,62.9999980773926,2|8,0:0|0:0,0:0:0:0:
196,112,124737,1,0,0:0:0:0:
124,228,124937,2,0,L|116:152,1,62.9999980773926,2|0,0:0|0:0,0:0:0:0:
196,112,125337,2,0,P|256:96|336:116,2,125.999996154785,4|4|8,0:0|0:0|0:0,0:0:0:0:
376,180,126537,2,0,P|408:184|464:172,1,62.9999980773926,2|0,0:0|0:0,0:0:0:0:
496,120,126937,6,0,P|480:172|496:264,1,125.999996154785,4|0,0:0|0:0,0:0:0:0:
464,324,127537,2,0,P|436:332|392:328,1,62.9999980773926,2|8,0:0|0:0,0:0:0:0:
256,232,128137,1,4,0:0:0:0:
188,288,128337,2,0,P|124:300|48:280,1,125.999996154785,2|2,0:0|0:0,0:0:0:0:
4,348,128937,2,0,L|12:212,1,125.999996154785,4|8,0:0|0:0,0:0:0:0:
208,148,129737,2,0,L|200:80,1,62.9999980773926,2|0,0:0|0:0,0:0:0:0:
136,32,130137,6,0,P|196:44|272:24,1,125.999996154785,4|0,0:0|0:0,0:0:0:0:
344,40,130737,2,0,P|376:36|424:40,1,62.9999980773926,2|8,0:0|0:0,0:0:0:0:
492,20,131137,1,2,0:0:0:0:
472,104,131337,2,0,L|480:180,1,62.9999980773926,4|0,0:0|0:0,0:0:0:0:
396,268,131737,6,0,L|400:132,1,125.999996154785,4|4,0:0|0:0,0:0:0:0:
112,142,132537,2,0,L|116:268,1,125.999996154785,8|4,0:0|0:0,0:0:0:0:
184,316,133137,1,8,0:0:0:0:
184,316,133237,1,8,0:0:0:0:
184,316,133337,1,4,0:0:0:0:
184,316,133937,5,4,0:0:0:0:
184,316,134037,1,4,0:0:0:0:
184,316,134137,1,4,0:0:0:0:
220,240,134337,1,0,0:0:0:0:
300,264,134537,2,0,P|336:264|380:256,1,62.9999980773926,4|4,0:0|0:0,0:0:0:0:
378,256,134837,1,0,0:0:0:0:
392,252,134937,6,0,L|399:104,1,140,14|2,0:0|0:0,0:0:0:0:
476,60,135537,2,0,P|488:92|488:140,1,70,0|8,0:0|0:0,0:0:0:0:
308,124,136137,2,0,P|309:89|321:56,1,70,6|0,0:0|0:0,0:0:0:0:
344,200,136537,2,0,P|312:208|272:200,1,70,4|0,0:0|0:0,0:0:0:0:
164,80,136937,2,0,P|196:72|240:76,1,70,4|2,0:0|0:0,0:0:0:0:
120,160,137337,1,8,0:0:0:0:
36,144,137537,1,2,0:0:0:0:
36,144,137937,1,2,0:0:0:0:
120,160,138137,6,0,L|132:248,1,70,4|0,0:0|0:0,0:0:0:0:
204,176,138537,1,2,0:0:0:0:
80,152,138737,2,0,L|92:240,1,70,0|8,0:0|0:0,0:0:0:0:
204,176,139137,1,2,0:0:0:0:
36,144,139337,2,0,L|48:232,1,70,4|0,0:0|0:0,0:0:0:0:
204,176,139737,1,6,0:0:0:0:
16,140,140137,5,4,0:0:0:0:
204,176,140337,2,0,L|280:168,1,70,2|8,0:0|0:0,0:0:0:0:
344,112,140737,1,2,0:0:0:0:
204,176,140937,2,0,L|192:248,1,70,4|0,0:0|0:0,0:0:0:0:
96,180,141337,6,0,P|80:108|104:28,1,140,4|2,0:0|0:0,0:0:0:0:
180,28,141937,1,0,0:0:0:0:
264,44,142137,2,0,P|280:116|256:196,1,140,8|2,0:0|0:0,0:0:0:0:
216,248,142737,1,8,0:0:0:0:
352,240,142937,2,0,L|368:92,1,140,4|6,0:0|0:0,0:0:0:0:
436,48,143537,1,0,0:0:0:0:
464,200,143737,2,0,L|444:120,1,70,8|0,0:0|0:0,0:0:0:0:
350,33,144137,2,0,L|370:113,1,70,2|0,0:0|0:0,0:0:0:0:
264,60,144537,6,0,P|192:52|120:72,1,140,4|2,0:0|0:0,0:0:0:0:
92,152,145137,1,0,0:0:0:0:
40,76,145337,2,0,L|32:4,1,70,8|2,0:0|0:0,0:0:0:0:
92,152,145737,2,0,L|84:232,1,70,0|4,0:0|0:0,0:0:0:0:
80,244,146037,1,8,0:0:0:0:
76,268,146137,2,0,P|40:272|4:264,1,70,8|4,0:0|0:0,0:0:0:0:
156,288,146537,5,0,0:0:0:0:
176,144,146737,1,8,0:0:0:0:
176,144,146837,1,8,0:0:0:0:
176,144,146937,2,0,L|256:132,1,70,10|4,0:0|0:0,0:0:0:0:
384,44,147337,2,0,L|472:48,1,70,6|4,0:0|0:0,0:0:0:0:
472,48,147637,1,4,0:0:0:0:
488,48,147737,6,0,P|508:112|484:196,1,140,14|2,0:0|0:0,0:0:0:0:
372,112,148337,1,0,0:0:0:0:
472,204,148537,2,0,L|484:280,1,70,8|2,0:0|0:0,0:0:0:0:
416,344,148937,2,0,P|384:352|332:340,1,70,4|8,0:0|0:0,0:0:0:0:
224,368,149337,2,0,L|212:216,1,140,10|0,0:0|0:0,0:0:0:0:
252,144,149937,1,2,0:0:0:0:
372,216,150137,2,0,P|340:224|300:220,1,70,8|2,0:0|0:0,0:0:0:0:
303,220,150737,1,2,0:0:0:0:
252,144,150937,6,0,L|264:-4,1,140,10|0,0:0|0:0,0:0:0:0:
344,40,151537,2,0,L|352:124,1,70,2|10,0:0|0:0,0:0:0:0:
344,40,151937,1,0,0:0:0:0:
252,144,152137,2,0,P|220:148|164:136,1,70,6|0,0:0|0:0,0:0:0:0:
112,204,152537,2,0,P|92:132|128:68,2,140,10|6|8,0:0|0:0|0:0,0:0:0:0:
196,236,153537,1,0,0:0:0:0:
196,236,153737,2,0,P|204:200|192:160,1,70,2|0,0:0|0:0,0:0:0:0:
128,288,154137,6,0,P|168:316|224:316,1,97.9999970092774,6|2,0:0|0:0,0:0:0:0:
280,260,154737,2,0,L|332:256,1,48.9999985046387,0|8,0:0|0:0,0:0:0:0:
488,104,155337,2,0,L|436:100,1,48.9999985046387,6|0,0:0|0:0,0:0:0:0:
368,44,155737,2,0,P|348:96|376:164,1,112,6|2,0:0|0:0,0:0:0:0:
432,204,156337,2,0,L|424:264,1,56,0|8,0:0|0:0,0:0:0:0:
352,312,156737,1,0,0:0:0:0:
352,312,156837,1,0,0:0:0:0:
352,312,156937,2,0,P|324:316|276:308,1,56,6|8,0:0|0:0,0:0:0:0:
188,248,157337,6,0,P|220:240|256:244,1,62.9999980773926,6|0,0:0|0:0,0:0:0:0:
136,308,157737,2,0,L|148:172,1,125.999996154785,2|8,0:0|0:0,0:0:0:0:
376,128,158537,2,0,L|368:52,1,62.9999980773926,6|8,0:0|0:0,0:0:0:0:
288,44,158937,2,0,L|296:124,1,70,6|8,0:0|0:0,0:0:0:0:
240,180,159337,1,4,0:0:0:0:
240,180,159537,1,4,0:0:0:0:
212,100,159737,2,0,P|132:88|60:116,1,140,12|2,0:0|0:0,0:0:0:0:
32,32,160337,1,8,0:0:0:0:
77,106,160537,6,0,L|65:250,1,140,6|2,0:0|0:0,0:0:0:0:
100,328,161137,1,0,0:0:0:0:
152,252,161337,2,0,L|144:164,1,70,8|0,0:0|0:0,0:0:0:0:
100,328,161737,1,6,0:0:0:0:
192,336,161937,2,0,P|256:340|336:300,1,140,8|8,0:0|0:0,0:0:0:0:
400,360,162537,2,0,L|408:216,1,140,4|8,0:0|0:0,0:0:0:0:
456,32,163337,2,0,L|464:108,1,70,4|8,0:0|0:0,0:0:0:0:
376,72,163737,5,6,0:0:0:0:
376,72,164537,1,12,0:0:0:0:
376,72,164937,2,0,L|288:64,1,70,0|8,0:0|0:0,0:0:0:0:
244,136,165337,2,0,L|156:128,1,70,6|8,0:0|0:0,0:0:0:0:
100,180,165737,1,2,0:0:0:0:
96,88,165937,1,4,0:0:0:0:
96,88,166037,1,8,0:0:0:0:
96,88,166137,1,8,0:0:0:0:
176,40,166337,1,8,0:0:0:0:
100,180,166537,2,0,P|64:192|24:188,1,70,4|4,0:0|0:0,0:0:0:0:
174,129,166937,5,6,0:0:0:0:
196,136,167737,1,8,0:0:0:0:
196,136,168137,2,0,L|288:120,1,70,6|8,0:0|0:0,0:0:0:0:
336,180,168537,2,0,L|428:164,1,70,4|8,0:0|0:0,0:0:0:0:
456,96,168937,1,6,0:0:0:0:
396,32,169137,1,4,0:0:0:0:
456,96,169337,2,0,L|452:248,1,140,8|6,0:0|0:0,0:0:0:0:
256,324,170137,5,6,0:0:0:0:
232,316,170937,1,8,0:0:0:0:
232,316,171337,2,0,L|144:328,1,70,4|8,0:0|0:0,0:0:0:0:
100,260,171737,2,0,L|12:272,1,70,6|8,0:0|0:0,0:0:0:0:
156,192,172137,2,0,L|148:116,1,70,12|2,0:0|0:0,0:0:0:0:
244,160,172537,2,0,L|236:248,2,70,8|8|6,0:0|0:0|0:0,0:0:0:0:
444,60,173337,6,0,L|460:212,2,140,6|4|8,0:0|0:0|0:0,0:0:0:0:
444,60,174537,2,0,P|408:68|360:64,1,70,4|8,0:0|0:0,0:0:0:0:
292,32,174937,2,0,P|256:28|200:40,1,70,6|8,0:0|0:0,0:0:0:0:
160,96,175337,1,4,0:0:0:0:
72,80,175537,1,4,0:0:0:0:
100,168,175737,1,10,0:0:0:0:
160,96,175937,1,8,0:0:0:0:
72,80,176137,2,0,L|-4:92,1,70,4|8,0:0|0:0,0:0:0:0:
100,168,176537,6,0,P|152:188|236:148,2,140,6|4|8,0:0|0:0|0:0,0:0:0:0:
292,32,177737,1,2,0:0:0:0:
380,48,177937,1,8,0:0:0:0:
380,48,178037,1,8,0:0:0:0:
380,48,178137,1,8,0:0:0:0:
432,120,178337,1,8,0:0:0:0:
432,120,178437,1,8,0:0:0:0:
432,120,178537,1,8,0:0:0:0:
424,208,178737,1,4,0:0:0:0:
348,140,178937,5,8,0:0:0:0:
380,48,179137,1,8,0:0:0:0:
432,120,179337,1,4,0:0:0:0:
488,56,179537,1,4,0:0:0:0:
512,156,179737,6,0,L|500:312,1,140,6|8,0:0|0:0,0:0:0:0:
432,348,180337,1,4,0:0:0:0:
352,304,180537,2,0,P|300:292|200:312,1,140,8|6,0:0|0:0,0:0:0:0:
48,72,181737,1,6,0:0:0:0:
48,72,181937,1,10,0:0:0:0:
116,128,182137,1,8,0:0:0:0:
132,40,182337,2,0,L|208:36,1,70,2|8,0:0|0:0,0:0:0:0:
116,128,182737,1,8,0:0:0:0:
201,36,182937,6,0,L|352:40,1,140,6|8,0:0|0:0,0:0:0:0:
260,244,183737,2,0,L|391:172,1,140,4|12,0:0|0:0,0:0:0:0:
484,28,184737,1,10,0:0:0:0:
424,96,184937,1,8,0:0:0:0:
472,172,185137,1,10,0:0:0:0:
472,172,185237,1,8,0:0:0:0:
472,172,185337,1,10,0:0:0:0:
440,260,185537,1,8,0:0:0:0:
472,172,185737,1,4,0:0:0:0:
424,96,185937,1,4,0:0:0:0:
300,48,186137,6,0,L|136:60,1,140,6|0,0:0|0:0,0:0:0:0:
68,264,186937,1,10,0:0:0:0:
68,264,187337,2,0,L|288:284,1,210,6|8,0:0|0:0,0:0:0:0:
348,336,188137,2,0,P|412:344|492:312,1,140,4|8,0:0|0:0,0:0:0:0:
392,144,188937,2,0,L|400:72,1,70,4|8,0:0|0:0,0:0:0:0:
316,100,189337,6,0,P|244:88|172:104,1,140,6|4,0:0|0:0,0:0:0:0:
112,288,190137,2,0,P|184:300|256:284,1,140,10|4,0:0|0:0,0:0:0:0:
288,208,190737,1,8,0:0:0:0:
288,208,190837,1,2,0:0:0:0:
288,208,190937,1,2,0:0:0:0:
336,280,191137,1,10,0:0:0:0:
336,280,191237,1,8,0:0:0:0:
336,280,191337,1,6,0:0:0:0:
416,320,191537,1,10,0:0:0:0:
488,272,191737,6,0,L|492:200,1,70,8|6,0:0|0:0,0:0:0:0:
484,184,192037,1,6,0:0:0:0:
476,168,192137,1,4,0:0:0:0:
468,152,192237,1,4,0:0:0:0:
472,136,192337,1,4,0:0:0:0:
476,120,192437,1,4,0:0:0:0:
480,104,192537,6,0,P|416:112|340:88,1,140,6|2,0:0|0:0,0:0:0:0:
300,20,193137,1,0,0:0:0:0:
388,20,193337,1,8,0:0:0:0:
220,156,193737,2,0,P|180:160|120:148,1,70,6|0,0:0|0:0,0:0:0:0:
92,92,194137,2,0,P|108:156|96:236,2,140,2|4|8,0:0|0:0|0:0,0:0:0:0:
16,48,195137,1,6,0:0:0:0:
16,48,195537,1,6,0:0:0:0:
92,92,195737,6,0,P|160:100|244:84,1,140,4|4,0:0|0:0,0:0:0:0:
304,32,196337,2,0,P|336:24|384:36,1,70,2|8,0:0|0:0,0:0:0:0:
408,116,196737,2,0,P|376:124|328:112,1,70,0|6,0:0|0:0,0:0:0:0:
460,184,197137,2,0,P|468:256|444:332,1,140,10|0,0:0|0:0,0:0:0:0:
364,280,197737,2,0,L|372:192,1,70,4|2,0:0|0:0,0:0:0:0:
460,184,198137,1,8,0:0:0:0:
460,184,198537,2,0,L|468:96,1,70,4|10,0:0|0:0,0:0:0:0:
460,96,198837,1,8,0:0:0:0:
452,80,198937,6,0,P|380:96|308:72,1,140,4|0,0:0|0:0,0:0:0:0:
256,16,199537,1,2,0:0:0:0:
194,78,199737,2,0,P|127:96|60:80,1,140,8|4,0:0|0:0,0:0:0:0:
8,8,200337,1,2,0:0:0:0:
60,80,200537,2,0,L|55:159,1,70,4|8,0:0|0:0,0:0:0:0:
132,200,200937,2,0,L|127:279,1,70,6|4,0:0|0:0,0:0:0:0:
44,312,201337,2,0,L|48:232,1,70,8|0,0:0|0:0,0:0:0:0:
132,200,201737,2,0,L|136:120,1,70,2|8,0:0|0:0,0:0:0:0:
200,64,202137,5,4,0:0:0:0:
200,64,202337,2,0,P|232:56|284:56,1,70,2|0,0:0|0:0,0:0:0:0:
352,28,202737,1,2,0:0:0:0:
468,96,202937,2,0,P|436:108|384:104,1,70,8|0,0:0|0:0,0:0:0:0:
296,200,203337,2,0,P|301:166|331:123,1,70,4|2,0:0|0:0,0:0:0:0:
420,204,203737,5,4,0:0:0:0:
388,320,203937,1,8,0:0:0:0:
388,320,204037,1,8,0:0:0:0:
388,320,204137,1,8,0:0:0:0:
304,288,204337,1,0,0:0:0:0:
296,200,204537,2,0,P|301:166|331:123,1,70,8|2,0:0|0:0,0:0:0:0:
388,320,205137,1,4,0:0:0:0:
388,320,205237,1,0,0:0:0:0:
388,320,205337,6,0,B|396:291|392:270|392:270|440:288|480:248,1,140,6|2,0:0|0:0,0:0:0:0:
488,168,205937,2,0,L|480:88,1,70,0|8,0:0|0:0,0:0:0:0:
280,16,206537,2,0,L|272:96,1,70,6|8,0:0|0:0,0:0:0:0:
204,140,206937,2,0,L|196:220,1,70,4|8,0:0|0:0,0:0:0:0:
120,256,207337,2,0,L|112:176,1,70,6|4,0:0|0:0,0:0:0:0:
40,296,207737,2,0,L|28:144,1,140,8|6,0:0|0:0,0:0:0:0:
48,72,208337,1,8,0:0:0:0:
156,128,208537,6,0,P|224:136|300:116,1,140,4|2,0:0|0:0,0:0:0:0:
421,57,209137,2,0,P|386:51|351:56,1,70,0|8,0:0|0:0,0:0:0:0:
500,108,209537,2,0,L|508:32,1,70,2|6,0:0|0:0,0:0:0:0:
384,232,210137,2,0,L|392:308,1,70,6|8,0:0|0:0,0:0:0:0:
476,272,210537,2,0,L|468:196,1,70,6|4,0:0|0:0,0:0:0:0:
380,144,210937,2,0,P|312:164|240:152,1,140,8|2,0:0|0:0,0:0:0:0:
176,104,211537,1,8,0:0:0:0:
112,164,211737,6,0,L|36:156,1,70,4|2,0:0|0:0,0:0:0:0:
0,256,212137,2,0,L|76:248,1,70,0|2,0:0|0:0,0:0:0:0:
164,344,212537,2,0,L|12:340,1,140,8|6,0:0|0:0,0:0:0:0:
188,200,213337,2,0,P|256:184|324:200,1,140,4|6,0:0|0:0,0:0:0:0:
487,340,214137,2,0,L|348:344,1,140,8|6,0:0|0:0,0:0:0:0:
188,200,214937,6,0,L|192:120,1,70,4|2,0:0|0:0,0:0:0:0:
232,52,215337,1,0,0:0:0:0:
232,52,215537,2,0,P|264:44|312:48,1,70,2|8,0:0|0:0,0:0:0:0:
388,24,215937,1,2,0:0:0:0:
344,128,216137,2,0,P|312:136|264:132,1,70,4|2,0:0|0:0,0:0:0:0:
163,53,216537,6,0,P|211:49|247:57,1,70,4|0,0:0|0:0,0:0:0:0:
80,92,216937,2,0,P|76:44|84:8,1,70,2|0,0:0|0:0,0:0:0:0:
116,176,217337,2,0,P|68:180|32:172,1,70,8|0,0:0|0:0,0:0:0:0:
200,140,217737,2,0,P|204:188|196:224,1,70,6|0,0:0|0:0,0:0:0:0:
120,244,218137,6,0,P|112:204|124:156,1,70,4|0,0:0|0:0,0:0:0:0:
160,320,218537,2,0,P|120:328|72:315,1,70,6|0,0:0|0:0,0:0:0:0:
236,284,218937,2,0,P|244:324|231:371,1,70,8|0,0:0|0:0,0:0:0:0:
196,208,219337,2,0,P|236:199|283:212,1,70,6|0,0:0|0:0,0:0:0:0:
276,208,219637,1,0,0:0:0:0:
288,212,219737,1,6,0:0:0:0:
256,192,219937,12,0,222137,0:0:0:0:
376,140,235737,5,2,0:0:0:0:
316,204,235937,1,0,0:0:0:0:
292,120,236137,1,0,0:0:0:0:
376,140,236337,2,0,P|440:144|500:84,1,146.999995513916,2|2,0:0|0:0,0:0:0:0:
412,56,237137,1,0,0:0:0:0:
412,56,237237,1,0,0:0:0:0:
412,56,237337,2,0,L|344:48,1,48.9999985046387,2|0,0:0|0:0,0:0:0:0:
292,120,237737,1,0,0:0:0:0:
220,60,237937,2,0,L|152:52,1,48.9999985046387,2|0,0:0|0:0,0:0:0:0:
84,32,238337,2,0,L|92:92,1,48.9999985046387,0|2,0:0|0:0,0:0:0:0:
152,280,238937,6,0,P|96:292|40:284,1,97.9999970092774,2|0,0:0|0:0,0:0:0:0:
208,208,239737,2,0,P|264:196|320:204,1,97.9999970092774,2|0,0:0|0:0,0:0:0:0:
388,176,240337,1,0,0:0:0:0:
468,264,240537,6,0,P|443:263|419:255,1,48.9999985046387,2|0,0:0|0:0,0:0:0:0:
344,300,240937,1,0,0:0:0:0:
388,176,241137,1,2,0:0:0:0:
388,176,241337,2,0,L|392:108,1,48.9999985046387
456,64,241737,2,0,L|452:12,1,48.9999985046387,0|2,0:0|0:0,0:0:0:0:
368,48,242137,5,2,0:0:0:0:
288,80,242337,1,0,0:0:0:0:
304,168,242537,1,0,0:0:0:0:
388,176,242737,2,0,P|400:224|388:288,1,112,2|0,0:0|0:0,0:0:0:0:
308,316,243337,2,0,L|240:312,1,56,2|0,0:0|0:0,0:0:0:0:
176,356,243737,6,0,L|168:276,1,59.5000011348725,2|0,0:0|0:0,0:0:0:0:
192,212,244137,1,0,0:0:0:0:
80,280,244337,1,2,0:0:0:0:
80,280,244537,2,0,L|96:200,1,59.5000011348725,0|0,0:0|0:0,0:0:0:0:
92,136,244937,2,0,L|80:60,1,59.5000011348725,2|0,0:0|0:0,0:0:0:0:
176,136,245337,6,0,P|244:144|324:128,2,125.999996154785,4|0|8,0:0|0:0|0:0,0:0:0:0:
36,28,246537,1,2,0:0:0:0:
36,28,246737,5,8,0:0:0:0:
32,44,246837,1,8,0:0:0:0:
28,60,246937,2,0,L|36:140,1,62.9999980773926,8|0,0:0|0:0,0:0:0:0:
116,88,247337,1,8,0:0:0:0:
116,88,247537,5,8,0:0:0:0:
128,96,247637,1,8,0:0:0:0:
140,104,247737,2,0,L|220:92,1,62.9999980773926,8|8,0:0|0:0,0:0:0:0:
292,36,248137,2,0,L|372:52,1,62.9999980773926,4|4,0:0|0:0,0:0:0:0:
368,52,248437,1,4,0:0:0:0:
384,56,248537,6,0,B|440:64|488:40|488:40|484:100,1,140,14|2,0:0|0:0,0:0:0:0:
440,208,249137,2,0,L|432:136,1,70,0|8,0:0|0:0,0:0:0:0:
232,72,249737,2,0,L|224:144,1,70,4|8,0:0|0:0,0:0:0:0:
172,280,250137,2,0,P|164:240|168:188,1,70,4|8,0:0|0:0,0:0:0:0:
224,141,250537,1,4,0:0:0:0:
312,232,250737,2,0,L|304:320,1,70,2|8,0:0|0:0,0:0:0:0:
232,348,251137,1,0,0:0:0:0:
172,280,251337,1,0,0:0:0:0:
312,232,251537,1,8,0:0:0:0:
432,264,251737,6,0,L|424:352,1,70,6|0,0:0|0:0,0:0:0:0:
312,232,252137,1,0,0:0:0:0:
460,268,252337,2,0,L|452:356,1,70,2|8,0:0|0:0,0:0:0:0:
312,232,252737,1,0,0:0:0:0:
488,272,252937,2,0,L|480:360,1,70,2|8,0:0|0:0,0:0:0:0:
312,232,253337,1,4,0:0:0:0:
236,344,253537,1,8,0:0:0:0:
228,196,253737,1,4,0:0:0:0:
300,64,253937,6,0,L|376:68,1,70,2|8,0:0|0:0,0:0:0:0:
168,128,254537,2,0,L|92:124,1,70,2|0,0:0|0:0,0:0:0:0:
40,52,254937,6,0,P|112:32|184:44,1,140,4|2,0:0|0:0,0:0:0:0:
256,80,255537,1,0,0:0:0:0:
336,40,255737,2,0,P|405:32|472:52,1,140,8|6,0:0|0:0,0:0:0:0:
484,140,256337,1,8,0:0:0:0:
412,192,256537,2,0,L|396:112,1,70,4|8,0:0|0:0,0:0:0:0:
496,228,256937,2,0,L|482:296,1,70,4|4,0:0|0:0,0:0:0:0:
412,192,257337,2,0,P|324:184|264:208,1,140,8|4,0:0|0:0,0:0:0:0:
204,148,257937,1,8,0:0:0:0:
196,232,258137,6,0,P|128:248|36:224,1,140,4|0,0:0|0:0,0:0:0:0:
28,376,258737,2,0,L|20:292,1,70,2|8,0:0|0:0,0:0:0:0:
120,108,259337,2,0,L|128:24,1,70,2|8,0:0|0:0,0:0:0:0:
240,16,259737,5,6,0:0:0:0:
332,80,259937,1,4,0:0:0:0:
332,80,260337,1,4,0:0:0:0:
332,80,260437,1,4,0:0:0:0:
332,80,260537,2,0,L|424:64,1,70,8|8,0:0|0:0,0:0:0:0:
472,168,260937,2,0,L|380:152,1,70,0|4,0:0|0:0,0:0:0:0:
328,36,261337,6,0,P|408:12|488:36,1,140,14|2,0:0|0:0,0:0:0:0:
488,112,261937,2,0,L|476:200,1,70,0|8,0:0|0:0,0:0:0:0:
320,336,262537,2,0,L|308:248,1,70,0|8,0:0|0:0,0:0:0:0:
328,180,262937,2,0,P|360:172|408:180,1,70,4|8,0:0|0:0,0:0:0:0:
248,144,263337,2,0,P|208:152|156:144,1,70,4|2,0:0|0:0,0:0:0:0:
112,92,263737,1,8,0:0:0:0:
16,176,263937,2,0,L|32:324,1,140,2|2,0:0|0:0,0:0:0:0:
100,232,264537,6,0,L|112:84,1,140,4|2,0:0|0:0,0:0:0:0:
80,16,265137,2,0,P|116:12|160:24,1,70,0|8,0:0|0:0,0:0:0:0:
280,96,265537,2,0,P|240:100|196:92,1,70,2|4,0:0|0:0,0:0:0:0:
244,12,265937,1,8,0:0:0:0:
364,64,266137,2,0,L|360:220,1,140,2|4,0:0|0:0,0:0:0:0:
272,192,266737,1,4,0:0:0:0:
360,203,266937,2,0,L|376:352,1,140,8|2,0:0|0:0,0:0:0:0:
288,328,267537,1,8,0:0:0:0:
208,364,267737,6,0,P|136:372|60:352,1,140,6|2,0:0|0:0,0:0:0:0:
40,276,268337,2,0,L|44:116,1,140
72,48,268937,1,2,0:0:0:0:
164,72,269137,1,0,0:0:0:0:
252,32,269337,2,0,L|248:184,1,125.999996154785,6|2,0:0|0:0,0:0:0:0:
184,224,269937,2,0,L|192:360,1,125.999996154785,0|0,0:0|0:0,0:0:0:0:
280,372,270537,1,2,0:0:0:0:
260,288,270737,1,0,0:0:0:0:
304,204,270937,6,0,P|364:192|428:208,2,112,6|0|2,0:0|0:0|0:0,0:0:0:0:
128,308,272137,2,0,P|100:312|72:308,1,56,2|0,0:0|0:0,0:0:0:0:
0,356,272537,2,0,L|8:240,1,105.000004005432,6|0,0:0|0:0,0:0:0:0:
100,120,273137,2,0,L|104:244,1,105.000004005432,2|0,0:0|0:0,0:0:0:0:
16,172,273737,2,0,L|20:104,1,52.5000020027161,2|0,0:0|0:0,0:0:0:0:
100,120,274137,5,0,0:0:0:0:
180,64,274537,1,2,0:0:0:0:
268,108,274937,1,0,0:0:0:0:
352,60,275337,1,2,0:0:0:0:
440,104,275737,1,0,0:0:0:0:
440,104,276537,5,0,0:0:0:0:
352,60,276737,1,2,0:0:0:0:
268,108,276937,1,0,0:0:0:0:
180,64,277137,1,2,0:0:0:0:
100,120,277337,5,0,0:0:0:0:
180,64,277737,1,2,0:0:0:0:
204,180,278137,1,0,0:0:0:0:
292,100,278537,1,2,0:0:0:0:
312,216,278937,1,0,0:0:0:0:
312,216,279737,5,0,0:0:0:0:
292,100,279937,1,2,0:0:0:0:
204,180,280137,1,0,0:0:0:0:
180,64,280337,1,2,0:0:0:0:
292,100,280537,6,0,P|340:104|404:92,2,97.9999970092774,0|2|0,0:0|0:0|0:0,0:0:0:0:
116,28,282137,2,0,P|68:24|4:36,1,97.9999970092774,0|2,0:0|0:0,0:0:0:0:
72,124,282737,1,0,0:0:0:0:
72,124,282937,2,0,L|64:232,1,97.9999970092774,0|2,0:0|0:0,0:0:0:0:
152,284,283737,6,0,L|144:176,1,97.9999970092774,0|2,0:0|0:0,0:0:0:0:
232,132,284337,1,0,0:0:0:0:
232,132,284537,2,0,L|224:240,1,97.9999970092774,0|2,0:0|0:0,0:0:0:0:
320,176,285337,2,0,L|312:68,1,97.9999970092774,0|2,0:0|0:0,0:0:0:0:
392,28,285937,1,0,0:0:0:0:
468,76,286137,2,0,L|480:16,1,48.9999985046387
392,28,286537,1,2,0:0:0:0:
320,176,286937,6,0,L|328:280,2,97.9999970092774,0|2|0,0:0|0:0|0:0,0:0:0:0:
204,88,288137,1,2,0:0:0:0:
0,196,288537,2,0,P|60:212|192:172,1,195.999994018555,0|0,0:0|0:0,0:0:0:0:
204,88,289537,1,2,0:0:0:0:
276,156,289737,1,0,0:0:0:0:
296,64,289937,1,2,0:0:0:0:
372,132,290137,6,0,L|380:236,2,97.9999970092774,0|2|0,0:0|0:0|0:0,0:0:0:0:
204,88,291337,1,2,0:0:0:0:
0,196,291737,2,0,P|16:296|104:356,1,195.999994018555,0|0,0:0|0:0,0:0:0:0:
164,304,292737,1,2,0:0:0:0:
248,292,292937,1,0,0:0:0:0:
332,312,293137,1,2,0:0:0:0:
412,284,293337,6,0,L|420:172,1,97.9999970092774,0|2,0:0|0:0,0:0:0:0:
316,40,294158,2,0,L|324:152,1,97.9999970092774,0|2,0:0|0:0,0:0:0:0:
216,288,295015,1,0,0:0:0:0:
140,284,295229,6,0,P|80:224|76:152,1,146.999995513916,2|2,0:0|0:0,0:0:0:0:
316,40,296348,1,0,0:0:0:0:
316,40,296951,2,0,L|320:72,3,23.3333333333333,0|0|0|2,0:0|0:0|0:0|0:0,0:0:0:0:
