osu file format v13

[General]
AudioFilename: Susumu(kanade).mp3
AudioLeadIn: 1500
PreviewTime: 68537
Countdown: 0
SampleSet: Soft
StackLeniency: 0.7
Mode: 0
LetterboxInBreaks: 0
WidescreenStoryboard: 0

[Editor]
DistanceSpacing: 1.1
BeatDivisor: 4
GridSize: 4
TimelineZoom: 1.2

[Metadata]
Title:Kanade
TitleUnicode:奏(かなで)
Artist:Amamiya Sora
ArtistUnicode:雨宮天
Creator:Loneight
Version:Boss' Easy
Source:一週間フレンズ。
Tags:qoot8123 bossandy fujimiya kaori isshuukan Friends one week ending ed full version
BeatmapID:486169
BeatmapSetID:203688

[Difficulty]
HPDrainRate:3
CircleSize:3
OverallDifficulty:2
ApproachRate:3
SliderMultiplier:1.8
SliderTickRate:1

[Events]
//Background and Video events
0,0,"BG.jpg",0,0
Video,-220,"video.avi"
//Break Periods
2,95136,106297
2,167137,178297
2,222937,234297
//Storyboard Layer 0 (Background)
//Storyboard Layer 1 (Fail)
//Storyboard Layer 2 (Pass)
//Storyboard Layer 3 (Foreground)
//Storyboard Sound Samples
//Background Colour Transformations
3,100,163,162,255

[TimingPoints]
537,800,4,2,1,30,1,0
537,-166.666666666667,4,2,1,30,0,0
13337,-166.666666666667,4,2,3,30,0,0
13737,-166.666666666667,4,2,1,30,0,0
16537,-166.666666666667,4,2,3,30,0,0
16937,-166.666666666667,4,2,1,30,0,0
19737,-166.666666666667,4,2,3,30,0,0
20137,-166.666666666667,4,2,1,30,0,0
22937,-166.666666666667,4,2,3,30,0,0
23337,-166.666666666667,4,2,1,30,0,0
24937,-166.666666666667,4,2,1,50,0,0
26137,-100,4,2,3,50,0,0
26337,-100,4,2,1,50,0,0
37337,-100,4,2,1,60,0,0
38537,-100,4,2,3,60,0,0
40537,-100,4,2,1,60,0,0
41737,-100,4,2,1,30,0,0
42137,-125,4,2,2,40,0,0
54937,-111.111111111111,4,2,3,40,0,0
55137,-111.111111111111,4,2,2,40,0,0
66937,-111.111111111111,4,2,1,40,0,0
67737,-111.111111111111,4,2,1,50,0,0
68537,-111.111111111111,4,2,1,60,0,0
69337,800,4,2,3,80,1,1
69537,-100,4,2,1,60,0,1
80537,-100,4,2,3,60,0,1
80737,-100,4,2,1,60,0,1
81737,-100,4,2,1,60,0,0
82137,-100,4,2,3,80,0,1
82337,-100,4,2,1,60,0,1
83737,-100,4,2,3,60,0,1
83937,-100,4,2,1,60,0,1
85337,-100,4,2,3,60,0,1
85537,-100,4,2,1,60,0,1
86137,-100,4,2,4,60,0,1
86337,-100,4,2,1,60,0,1
86937,-100,4,2,3,70,0,1
87137,-100,4,2,1,60,0,1
88537,-100,4,2,3,60,0,1
88737,-100,4,2,1,60,0,1
90137,-100,4,2,3,60,0,1
90337,-100,4,2,1,60,0,1
91737,-100,4,2,3,60,0,1
91937,-100,4,2,1,60,0,1
93337,-100,4,2,3,60,0,1
93537,-100,4,2,1,60,0,1
94937,-142.857142857143,4,2,3,40,0,0
107737,-125,4,2,2,40,0,0
118937,-125,4,2,1,40,0,0
120537,-111.111111111111,4,2,3,40,0,0
120737,-111.111111111111,4,2,2,40,0,0
131737,-111.111111111111,4,2,1,40,0,0
133337,-111.111111111111,4,2,1,50,0,0
134137,-111.111111111111,4,2,1,60,0,0
134937,800,4,2,3,80,1,1
135137,-100,4,2,1,60,0,1
147337,-100,4,2,1,60,0,0
147737,-100,4,2,3,80,0,1
147937,-100,4,2,1,60,0,1
149337,-100,4,2,3,60,0,1
149537,-100,4,2,1,60,0,1
150937,-100,4,2,3,60,0,1
151137,-100,4,2,1,60,0,1
151737,-100,4,2,4,60,0,1
151937,-100,4,2,1,60,0,1
152537,-100,4,2,3,70,0,1
152737,-100,4,2,1,60,0,1
154137,-100,4,2,3,60,0,1
154337,-100,4,2,1,60,0,1
155737,-100,4,2,3,60,0,1
155937,-100,4,2,1,60,0,1
157337,-100,4,2,3,60,0,1
157537,-100,4,2,1,60,0,1
158937,-100,4,2,3,60,0,1
159137,-100,4,2,1,60,0,1
159737,-100,4,2,4,60,0,1
159937,-100,4,2,1,60,0,1
160537,-100,4,2,3,60,0,0
160737,-100,4,2,1,60,0,0
163737,-100,4,2,3,60,0,0
164537,-100,4,2,4,60,0,0
164937,-100,4,2,1,60,0,0
166937,-100,4,2,3,60,0,0
179937,-100,4,2,1,50,0,0
180937,-100,4,2,3,50,0,0
181737,-100,4,2,1,50,0,0
182937,-100,4,2,3,50,0,0
183337,-100,4,2,1,50,0,0
184137,-100,4,2,4,50,0,0
185337,-100,4,2,1,60,0,0
185537,-100,4,2,1,50,0,0
189337,-100,4,2,3,50,0,0
189537,-100,4,2,1,50,0,0
192537,-100,4,2,3,60,0,0
192737,-100,4,2,1,60,0,0
205337,-100,4,2,3,60,0,0
205537,-100,4,2,1,60,0,0
209737,-100,4,2,3,60,0,0
209937,-100,4,2,1,60,0,0
219737,-100,4,2,3,60,0,0
222937,-142.857142857143,4,2,1,40,0,0
242137,-125,4,2,1,45,0,0
243737,-117.647058823529,4,2,1,50,0,0
245337,-111.111111111111,4,2,1,55,0,0
248537,800,4,2,3,60,1,1
248737,-100,4,2,1,60,0,1
259737,-100,4,2,3,60,0,1
259937,-100,4,2,1,60,0,1
260937,-100,4,2,1,60,0,0
261337,-100,4,2,3,60,0,1
261537,-100,4,2,1,60,0,1
269337,-111.111111111111,4,2,1,60,0,1
270937,-125,4,2,1,50,0,1
272537,-133.333333333333,4,2,3,40,0,1
272737,-133.333333333333,4,2,1,40,0,1
274137,-142.857142857143,4,2,1,40,0,0
275737,-142.857142857143,4,2,1,25,0,0
275937,-142.857142857143,4,2,1,40,0,0
278937,-142.857142857143,4,2,1,25,0,0
279137,-142.857142857143,4,2,1,40,0,0
282137,-142.857142857143,4,2,1,25,0,0
282337,-142.857142857143,4,2,1,40,0,0
293337,821.917808219178,4,2,1,35,1,0
293337,-142.857142857143,4,2,1,35,0,0
294158,857.142857142857,4,2,1,30,1,0
294158,-142.857142857143,4,2,1,30,0,0
295872,952.380952380952,4,2,1,25,1,0
295872,-142.857142857143,4,2,1,25,0,0
296348,1034.48275862069,4,2,1,20,1,0
297123,-100,4,2,1,15,0,0

[Colours]
Combo1 : 255,128,128
Combo2 : 255,149,98

[HitObjects]
144,328,537,6,0,P|196:336|256:308,1,107.999996704102,0|2,0:0|0:0,0:0:0:0:
212,236,2137,2,0,B|192:188|192:188|204:132,1,107.999996704102,0|2,0:0|0:0,0:0:0:0:
152,64,3737,6,0,L|32:76,2,107.999996704102,0|2|0,0:0|0:0|0:0,0:0:0:0:
236,52,6137,1,2,0:0:0:0:
304,104,6937,6,0,P|352:120|408:120,1,107.999996704102,0|2,0:0|0:0,0:0:0:0:
476,172,8537,2,0,P|476:228|448:280,1,107.999996704102,0|2,0:0|0:0,0:0:0:0:
368,296,10137,6,0,B|304:304|272:260|272:260|217:284|168:244,1,215.999993408203
100,196,12537,2,0,P|72:200|44:216,2,53.9999983520508,2|0|8,0:0|0:0|0:0,0:0:0:0:
180,164,14137,6,0,P|217:109|216:68,1,107.999996704102,2|0,0:0|0:0,0:0:0:0:
132,92,15737,2,0,L|20:84,1,107.999996704102,2|8,0:0|0:0,0:0:0:0:
52,168,17337,6,0,L|164:176,1,107.999996704102,2|0,0:0|0:0,0:0:0:0:
188,256,18937,1,2,0:0:0:0:
260,304,19737,6,0,B|312:328|312:328|368:320,1,107.999996704102,8|2,0:0|0:0,0:0:0:0:
344,236,21337,2,0,L|456:220,1,107.999996704102,0|2,0:0|0:0,0:0:0:0:
456,136,22937,5,8,0:0:0:0:
392,76,23737,1,2,0:0:0:0:
312,112,24537,2,0,P|239:99|208:56,1,107.999996704102,0|8,0:0|0:0,0:0:0:0:
128,56,25737,1,4,0:0:0:0:
40,80,26137,6,0,P|12:144|44:264,1,180,6|8,0:0|0:0,0:0:0:0:
100,308,27337,1,4,0:0:0:0:
280,324,28137,1,4,0:0:0:0:
212,264,28537,2,0,B|244:272|244:272|276:264|276:264|396:312,1,180,8|4,0:0|0:0,0:0:0:0:
484,156,30137,5,8,0:0:0:0:
484,156,30537,2,0,P|444:212|352:176,1,180,4|4,0:0|0:0,0:0:0:0:
316,96,31737,2,0,P|288:68|240:48,1,90,8|4,0:0|0:0,0:0:0:0:
180,120,32537,6,0,L|-12:88,1,180,4|8,0:0|0:0,0:0:0:0:
24,176,33737,1,4,0:0:0:0:
72,348,34537,1,4,0:0:0:0:
76,260,34937,2,0,P|156:216|236:268,1,180,8|4,0:0|0:0,0:0:0:0:
388,168,36537,5,2,0:0:0:0:
292,320,37337,2,0,P|256:344|204:344,2,90,8|4|4,0:0|0:0|0:0,0:0:0:0:
228,256,38537,1,6,0:0:0:0:
48,136,40537,6,0,P|80:160|132:168,1,90,4|8,2:3|0:0,0:0:0:0:
120,80,41337,2,0,L|116:36,2,45,0|4|4,0:0|0:0|0:0,0:0:0:0:
200,108,42137,6,0,L|348:80,1,144,4|8,0:0|0:0,0:0:0:0:
420,120,43337,1,0,0:0:0:0:
352,176,43737,2,0,P|342:215|340:252,2,72,0|4|8,0:0|0:0|0:0,0:0:0:0:
432,208,44937,1,0,0:0:0:0:
420,292,45337,6,0,P|340:300|276:324,1,144,4|8,0:0|0:0,0:0:0:0:
204,284,46537,1,4,0:0:0:0:
120,312,46937,2,0,L|36:304,2,72,0|4|8,0:0|0:0|0:0,0:0:0:0:
204,284,48137,1,0,0:0:0:0:
280,240,48537,6,0,B|340:188|320:104,1,144,4|8,0:0|0:0,0:0:0:0:
264,44,49737,1,0,0:0:0:0:
180,60,50137,1,0,0:0:0:0:
204,144,50537,2,0,L|228:232,2,72,4|8|0,0:0|0:0|0:0,0:0:0:0:
120,116,51737,6,0,P|44:112|-16:148,1,144,4|8,0:0|0:0,0:0:0:0:
0,232,52937,1,4,0:0:0:0:
16,316,53337,2,0,P|92:320|152:284,1,144,4|4,0:0|0:0,0:0:0:0:
232,312,54537,1,4,0:0:0:0:
316,340,54937,6,8,B|392:360|392:360|472:324,1,161.999995056153,6|8,0:0|0:0,0:0:0:0:
440,240,56137,1,4,0:0:0:0:
416,152,56537,2,0,L|452:68,2,80.9999975280763,0|4|8,0:0|0:0|0:0,0:0:0:0:
340,200,57737,1,0,0:0:0:0:
296,124,58137,6,0,L|128:80,1,161.999995056153,4|8,0:0|0:0,0:0:0:0:
56,56,59337,1,4,0:0:0:0:
180,184,60137,1,4,0:0:0:0:
92,160,60537,2,0,P|52:248|80:308,1,161.999995056153,8|4,0:0|0:0,0:0:0:0:
256,232,62137,5,8,0:0:0:0:
288,148,62537,1,4,0:0:0:0:
220,312,63337,1,4,0:0:0:0:
296,356,63737,2,0,B|388:371|355:280|433:295,1,161.999995056153,8|4,0:0|0:0,0:0:0:0:
480,212,64937,6,0,P|480:168|472:104,1,80.9999975280763,0|8,0:0|0:0,0:0:0:0:
388,108,65737,2,0,P|388:60|396:0,2,80.9999975280763,4|4|4,0:0|0:0|0:0,0:0:0:0:
312,152,66937,1,8,0:0:0:0:
260,80,67337,2,0,P|260:58|262:40,2,40.4999987640381,4|8|8,0:0|0:0|0:0,0:0:0:0:
84,88,68537,6,0,L|82:128,2,40.4999987640381,8|4|4,0:0|0:0|0:0,0:0:0:0:
172,136,69337,6,0,B|160:216|80:220|80:220|56:256,1,180,14|8,0:0|0:0,0:0:0:0:
12,344,70537,1,4,0:0:0:0:
112,340,70937,2,0,P|164:340|208:344,1,90,4|4,0:0|0:0,0:0:0:0:
248,256,71737,2,0,P|300:256|344:252,1,90,8|0,0:0|0:0,0:0:0:0:
392,172,72537,6,0,P|384:268|444:340,1,180,4|8,0:0|0:0,0:0:0:0:
496,260,73737,1,4,0:0:0:0:
476,164,74137,1,4,0:0:0:0:
488,64,74537,1,4,0:0:0:0:
476,164,74937,2,0,P|392:172|304:96,1,180,8|4,0:0|0:0,0:0:0:0:
244,52,76137,6,0,P|200:47|148:56,2,90,0|8|4,0:0|0:0|0:0,0:0:0:0:
316,120,77337,2,0,P|341:84|360:34,2,90,4|4|8,0:0|0:0|0:0,0:0:0:0:
220,148,78537,1,0,0:0:0:0:
136,184,78937,6,0,P|55:136|50:55,1,180,4|8,0:0|0:0,0:0:0:0:
122,4,80137,1,4,0:0:0:0:
140,92,80537,1,6,0:0:0:0:
320,136,81337,2,0,P|376:104|388:68,1,90,8|4,0:0|0:0,0:0:0:0:
292,44,82137,6,0,L|484:44,1,180,14|8,0:0|0:0,0:0:0:0:
504,136,83337,1,4,0:0:0:0:
424,192,83737,2,0,P|412:244|432:284,1,90,10|4,0:0|0:0,0:0:0:0:
348,336,84537,2,0,L|260:320,1,90,8|0,0:0|0:0,0:0:0:0:
216,232,85337,6,0,L|32:256,2,180,8|10|10,0:0|0:0|0:0,0:0:0:0:
260,320,87337,1,4,0:0:0:0:
360,308,87737,1,8,0:0:0:0:
372,208,88137,1,0,0:0:0:0:
288,156,88537,6,0,P|296:48|392:112,1,270,6|4,0:0|0:0,0:0:0:0:
432,204,90137,2,0,P|424:312|328:244,1,270,6|4,0:0|0:0,0:0:0:0:
232,228,91737,6,0,P|140:324|52:244,1,270,6|4,0:0|0:0,0:0:0:0:
144,236,93337,1,6,0:0:0:0:
88,64,94137,1,0,0:0:0:0:
152,140,94537,2,0,L|256:152,1,89.9999999999999,0|2,0:0|0:0,0:0:0:0:
280,316,107737,6,0,P|356:326|440:296,1,144,0|8,0:0|0:0,0:0:0:0:
460,232,108937,1,0,0:0:0:0:
380,200,109337,2,0,P|371:164|372:128,1,72,0|0,0:0|0:0,0:0:0:0:
284,124,110137,2,0,P|284:88|275:53,1,72,8|0,0:0|0:0,0:0:0:0:
192,72,110937,6,0,L|40:64,1,144,0|8,0:0|0:0,0:0:0:0:
32,148,112137,1,0,0:0:0:0:
16,232,112537,2,0,L|168:240,1,144,0|8,0:0|0:0,0:0:0:0:
224,296,113737,1,0,0:0:0:0:
248,212,114137,6,0,P|228:176|192:152,1,72
128,116,114937,2,0,L|140:32,1,72,8|0,0:0|0:0,0:0:0:0:
224,60,115737,2,0,B|296:64|296:64|380:52,1,144,0|8,0:0|0:0,0:0:0:0:
444,208,117337,6,0,L|424:300,1,72,0|0,0:0|0:0,0:0:0:0:
344,284,118137,2,0,L|328:213,1,72,8|0,0:0|0:0,0:0:0:0:
248,252,118937,2,0,P|240:184|288:132,1,144,0|8,0:0|0:0,0:0:0:0:
320,52,120137,1,4,0:0:0:0:
232,56,120537,6,0,B|156:60|156:60|120:40|72:48,1,161.999995056153,6|8,0:0|0:0,0:0:0:0:
100,132,121737,2,0,B|120:144|144:148|162:148|180:148,2,80.9999975280763,0|4|4,0:0|0:0|0:0,0:0:0:0:
24,176,122937,1,8,0:0:0:0:
68,252,123337,1,0,0:0:0:0:
0,312,123737,6,0,P|88:316|148:356,1,161.999995056153,4|8,0:0|0:0,0:0:0:0:
216,296,124937,1,4,0:0:0:0:
280,232,125337,2,0,P|304:256|352:272,2,80.9999975280763,0|4|8,0:0|0:0|0:0,0:0:0:0:
356,184,126537,1,0,0:0:0:0:
408,112,126937,6,0,L|496:132,1,80.9999975280763,4|0,0:0|0:0,0:0:0:0:
500,40,127737,2,0,L|412:20,1,80.9999975280763,8|4,0:0|0:0,0:0:0:0:
336,0,128537,1,0,0:0:0:0:
264,52,128937,1,4,0:0:0:0:
176,28,129337,2,0,P|128:80|40:64,1,161.999995056153,8|4,0:0|0:0,0:0:0:0:
28,156,130537,6,0,L|16:236,1,80.9999975280763,0|8,0:0|0:0,0:0:0:0:
104,256,131337,2,0,L|116:336,1,80.9999975280763,4|4,0:0|0:0,0:0:0:0:
292,344,132537,5,8,0:0:0:0:
344,272,132937,2,0,P|345:237|340:188,1,80.9999975280762,4|4,0:0|0:0,0:0:0:0:
256,224,133737,2,0,P|215:236|176:240,2,80.9999975280762,4|4|4,0:0|0:0|0:0,0:0:0:0:
340,192,134937,6,0,P|364:116|288:76,1,180,14|8,0:0|0:0,0:0:0:0:
200,96,136137,1,4,0:0:0:0:
208,184,136537,2,0,P|164:177|128:148,1,90,4|4,0:0|0:0,0:0:0:0:
120,60,137337,1,8,0:0:0:0:
196,12,137737,1,0,0:0:0:0:
276,56,138137,6,0,P|352:72|448:36,1,180,4|8,0:0|0:0,0:0:0:0:
480,120,139337,1,4,0:0:0:0:
424,192,139737,1,4,0:0:0:0:
472,268,140137,1,4,0:0:0:0:
400,316,140537,2,0,L|308:304,1,90,8|4,0:0|0:0,0:0:0:0:
244,240,141337,6,0,L|154:251,2,90,4|0|8,0:0|0:0|0:0,0:0:0:0:
316,184,142537,1,4,0:0:0:0:
364,108,142937,2,0,P|400:144|408:184,1,90,4|4,0:0|0:0,0:0:0:0:
372,264,143737,1,8,0:0:0:0:
436,328,144137,1,0,0:0:0:0:
352,356,144537,6,0,B|256:372|289:281|194:298,1,180,4|8,0:0|0:0,0:0:0:0:
108,328,145737,1,4,0:0:0:0:
44,264,146137,1,8,0:0:0:0:
28,84,146937,1,8,0:0:0:0:
60,168,147337,1,4,0:0:0:0:
120,100,147737,6,0,P|196:56|284:76,1,180,14|8,0:0|0:0,0:0:0:0:
348,136,148937,1,4,0:0:0:0:
424,88,149337,2,0,P|443:44|452:-4,2,90,10|4|8,0:0|0:0|0:0,0:0:0:0:
348,136,150537,1,0,0:0:0:0:
264,172,150937,6,0,B|248:268|339:235|322:330,2,180,10|10|10,0:0|0:0|0:0,0:0:0:0:
280,84,152937,2,0,P|236:58|192:56,1,90,4|8,0:0|0:0,0:0:0:0:
116,92,153737,1,0,0:0:0:0:
40,140,154137,6,0,P|21:217|108:208,1,180,6|8,0:0|0:0,0:0:0:0:
172,168,155337,1,4,0:0:0:0:
252,124,155737,2,0,P|330:128|311:204,1,180,6|8,0:0|0:0,0:0:0:0:
232,248,156937,1,4,0:0:0:0:
152,288,157337,5,6,0:0:0:0:
320,352,158137,1,8,0:0:0:0:
408,344,158537,1,4,0:0:0:0:
356,264,158937,2,0,P|436:256|496:328,2,180,6|12|6,0:0|0:0|0:0,0:0:0:0:
236,128,161337,6,0,P|279:107|316:80,1,90,8|6,0:0|0:0,0:0:0:0:
336,44,161937,2,0,B|364:108|436:128,1,135,8|4,0:0|0:0,0:0:0:0:
488,56,162937,1,8,0:0:0:0:
436,228,163737,6,0,P|320:280|256:248,1,180,6|12,0:0|0:0,0:0:0:0:
228,188,164937,2,0,P|179:178|120:176,1,90,4|4,0:0|0:0,0:0:0:0:
112,92,165737,2,0,P|64:89|4:80,2,90,4|8|4,0:0|0:0|0:0,0:0:0:0:
196,64,166937,1,6,0:0:0:0:
68,316,179737,6,0,P|37:277|36:236,2,90,6|8|8,0:0|0:0|0:0,0:0:0:0:
128,248,180937,2,0,B|211:200|127:152|211:103,1,180,6|6,0:0|0:0,0:0:0:0:
256,180,182137,2,0,P|280:219|340:252,1,90,8|4,0:0|0:0,0:0:0:0:
404,260,182937,5,6,0:0:0:0:
488,224,183337,1,8,0:0:0:0:
512,136,183737,1,4,0:0:0:0:
480,52,184137,2,0,P|408:32|344:36,1,135,8|8,0:0|0:0,0:0:0:0:
232,104,185337,5,8,0:0:0:0:
144,80,185737,1,4,0:0:0:0:
56,96,186137,2,0,P|12:164|60:248,1,180,4|8,0:0|0:0,0:0:0:0:
140,268,187337,2,0,B|188:351|236:267|285:351,1,180,4|4,0:0|0:0,0:0:0:0:
376,360,188537,1,8,0:0:0:0:
412,276,188937,1,4,0:0:0:0:
488,328,189337,6,0,B|524:272|488:216|488:216|500:156,1,180,6|8,0:0|0:0,0:0:0:0:
444,84,190537,1,4,0:0:0:0:
356,92,190937,2,0,P|312:80|272:48,2,90,0|4|8,0:0|0:0|0:0,0:0:0:0:
400,172,192137,1,4,0:0:0:0:
312,184,192537,6,0,B|256:180|204:152|204:152|192:116|160:100,1,180,6|10,0:0|0:0,0:0:0:0:
116,180,193737,1,4,0:0:0:0:
72,100,194137,2,0,P|88:48|132:16,2,90,2|4|10,0:0|0:0|0:0,0:0:0:0:
116,180,195337,1,0,0:0:0:0:
160,100,195737,6,0,P|199:215|163:259,1,180,4|8,0:0|0:0,0:0:0:0:
80,256,196937,2,0,P|132:332|224:320,1,180,4|4,0:0|0:0,0:0:0:0:
280,268,198137,1,8,0:0:0:0:
316,184,198537,2,0,L|312:128,2,45,0|8|4,0:0|0:0|0:0,0:0:0:0:
368,260,199337,6,0,P|408:240|424:200,2,90,0|8|4,0:0|0:0|0:0,0:0:0:0:
280,268,200537,2,0,P|277:312|303:346,2,90,0|4|8,0:0|0:0|0:0,0:0:0:0:
316,184,201737,2,0,P|278:159|236:165,1,90,0|4,0:0|0:0,0:0:0:0:
144,320,202937,5,8,0:0:0:0:
56,304,203337,1,4,0:0:0:0:
112,236,203737,2,0,P|116:184|104:148,1,90,0|4,0:0|0:0,0:0:0:0:
28,96,204537,2,0,P|103:57|182:98,1,180,8|6,0:0|0:0,0:0:0:0:
32,200,206137,5,8,0:0:0:0:
120,208,206537,1,4,0:0:0:0:
176,280,206937,2,0,P|232:312|280:300,1,90,0|4,0:0|0:0,0:0:0:0:
324,248,207737,2,0,P|396:280|328:336,1,180,8|4,0:0|0:0,0:0:0:0:
256,184,209337,5,8,0:0:0:0:
256,184,209737,1,6,0:0:0:0:
80,140,210537,2,0,L|36:128,2,45,4|4|8,0:0|0:0|0:0,0:0:0:0:
168,160,211337,1,4,0:0:0:0:
224,92,211737,6,0,P|308:56|412:84,1,180,4|8,0:0|0:0,0:0:0:0:
460,132,212937,2,0,P|484:88|472:24,2,90,4|4|4,0:0|0:0|0:0,0:0:0:0:
380,176,214137,1,8,0:0:0:0:
348,260,214537,1,4,0:0:0:0:
260,284,214937,6,0,P|168:260|132:188,1,180,4|8,0:0|0:0,0:0:0:0:
156,104,216137,1,4,0:0:0:0:
256,192,216537,12,4,219737,0:0:0:0:
204,276,235737,6,0,P|168:223|168:156,1,125.999996154785,0|2,0:0|0:0,0:0:0:0:
76,160,237337,2,0,P|93:98|144:55,1,125.999996154785,0|2,0:0|0:0,0:0:0:0:
220,96,238937,5,0,0:0:0:0:
280,32,239737,1,2,0:0:0:0:
308,116,240537,2,0,P|356:148|436:124,2,125.999996154785,0|2|0,0:0|0:0|0:0,0:0:0:0:
380,56,242937,5,2,0:0:0:0:
292,80,243737,2,0,B|210:93|238:16|158:30,1,153.000002918243,0|2,0:0|0:0,0:0:0:0:
88,88,244937,1,0,0:0:0:0:
104,176,245337,6,0,L|132:344,1,161.999995056153,4|8,0:0|0:0,0:0:0:0:
272,176,246937,2,0,L|258:92,2,80.9999975280763,8|8|8,0:0|0:0|0:0,0:0:0:0:
288,268,248137,1,4,0:0:0:0:
372,236,248537,6,0,P|416:136|368:56,1,180,14|8,0:0|0:0,0:0:0:0:
452,12,249737,2,0,P|484:56|500:112,2,90,4|4|4,0:0|0:0|0:0,0:0:0:0:
392,76,250937,2,0,P|280:92|200:68,1,180,8|4,0:0|0:0,0:0:0:0:
124,36,252137,5,0,0:0:0:0:
60,112,252537,1,8,0:0:0:0:
32,212,252937,2,0,P|28:264|48:304,2,89.9999999999999,4|4|4,0:0|0:0|0:0,0:0:0:0:
124,244,254137,2,0,P|200:285|292:316,1,180,8|4,0:0|0:0,0:0:0:0:
388,320,255337,5,0,0:0:0:0:
424,228,255737,2,0,P|432:184|432:136,1,90,8|4,0:0|0:0,0:0:0:0:
372,72,256537,2,0,L|384:24,2,45,4|8|4,0:0|0:0|0:0,0:0:0:0:
296,120,257337,2,0,P|256:136|200:136,1,90,8|4,0:0|0:0,0:0:0:0:
144,76,258137,6,0,P|44:80|80:136,1,180,4|8,0:0|0:0,0:0:0:0:
108,188,259337,1,4,0:0:0:0:
48,256,259737,2,0,P|84:276|200:200,1,180,6|8,0:0|0:0,0:0:0:0:
280,252,260937,1,4,0:0:0:0:
268,164,261337,6,0,B|288:64|397:57,1,180,14|8,0:0|0:0,0:0:0:0:
456,128,262537,1,4,0:0:0:0:
404,200,262937,2,0,L|440:304,2,90,4|4|8,0:0|0:0|0:0,0:0:0:0:
340,136,264137,1,0,0:0:0:0:
260,92,264537,6,0,P|205:89|160:108,1,90,4|0,0:0|0:0,0:0:0:0:
132,184,265337,2,0,P|186:186|232:168,2,90,8|4|4,0:0|0:0|0:0,0:0:0:0:
64,124,266537,1,4,0:0:0:0:
48,212,266937,1,8,0:0:0:0:
132,184,267337,1,0,0:0:0:0:
112,272,267737,6,0,P|184:332|284:196,1,270,4|4,0:0|0:0,0:0:0:0:
224,168,269337,2,0,P|296:108|408:180,1,242.999992584229,4|4,0:0|0:0,0:0:0:0:
404,268,270937,6,0,P|308:312|220:257,1,216,4|4,0:0|0:0,0:0:0:0:
132,212,272537,2,0,L|40:164,2,101.250003862381,6|0|0,0:0|0:0|0:0,0:0:0:0:
172,292,274137,5,0,0:0:0:0:
260,292,274937,1,0,0:0:0:0:
348,288,275737,1,2,0:0:0:0:
436,280,276537,6,0,P|459:300|496:320,2,62.9999980773926,0|0|0,0:0|0:0|0:0,0:0:0:0:
468,196,278137,1,0,0:0:0:0:
436,112,278937,1,2,0:0:0:0:
344,96,279737,6,0,P|330:58|328:32,2,62.9999980773926,0|0|0,0:0|0:0|0:0,0:0:0:0:
260,128,281337,1,0,0:0:0:0:
172,112,282137,1,2,0:0:0:0:
96,160,282937,5,0,0:0:0:0:
96,248,283737,2,0,P|132:288|204:284,1,125.999996154785
236,260,284937,1,0,0:0:0:0:
268,228,285337,2,0,P|328:223|372:266,1,125.999996154785,2|0,0:0|0:0,0:0:0:0:
512,292,286937,5,0,0:0:0:0:
464,216,287737,1,0,0:0:0:0:
376,236,288537,1,2,0:0:0:0:
324,160,289337,6,0,L|328:96,2,62.9999980773926,0|0|0,0:0|0:0|0:0,0:0:0:0:
248,208,290937,1,0,0:0:0:0:
212,124,291737,1,2,0:0:0:0:
132,172,292537,6,0,L|128:236,2,62.9999980773926,0|0|0,0:0|0:0|0:0,0:0:0:0:
56,100,294158,1,0,0:0:0:0:
44,188,295015,1,2,0:0:0:0:
32,276,295872,5,2,0:0:0:0:
32,276,296348,2,0,P|76:304|164:312,1,135,0|2,0:0|0:0,0:0:0:0:
