osu file format v13

[General]
AudioFilename: 1913.mp3
AudioLeadIn: 0
PreviewTime: 51643
Countdown: 0
SampleSet: Soft
StackLeniency: 0.7
Mode: 0
LetterboxInBreaks: 0
WidescreenStoryboard: 0

[Editor]
DistanceSpacing: 2
BeatDivisor: 4
GridSize: 4
TimelineZoom: 1

[Metadata]
Title:Ikitoshi Ikeru Mono
TitleUnicode:生きとし生けるもの
Artist:Amamiya Erika
ArtistUnicode:天宮エリカ
Creator:Kawaiwkyik
Version:Insane
Source:美少女万華鏡 -呪われし伝説の少女-
Tags:ending ed Awaken wkyik
BeatmapID:502475
BeatmapSetID:213792

[Difficulty]
HPDrainRate:6
CircleSize:4
OverallDifficulty:7
ApproachRate:8
SliderMultiplier:1.6
SliderTickRate:1

[Events]
//Background and Video events
0,0,"bg.jpg",0,0
//Break Periods
//Storyboard Layer 0 (Background)
//Storyboard Layer 1 (Fail)
//Storyboard Layer 2 (Pass)
//Storyboard Layer 3 (Foreground)
//Storyboard Sound Samples

[TimingPoints]
2350,689.417442261289,4,2,1,40,1,0
52008,689.417442261289,4,2,1,40,1,0
52008,-55.5555555555556,4,2,1,60,0,1
80274,-55.5555555555556,4,2,1,50,0,1
82342,-55.5555555555556,4,2,1,5,0,0

[Colours]
Combo1 : 64,0,128
Combo2 : 255,0,0
Combo3 : 255,128,0
Combo4 : 128,0,0

[HitObjects]
92,136,2005,5,0,0:0:0:0:
92,136,2177,1,0,0:0:0:0:
92,136,2350,2,0,P|131:138|168:124,1,80,2|0,0:0|0:0,0:0:0:0:
252,156,3039,2,0,P|289:142|328:144,1,80,2|0,0:0|0:0,0:0:0:0:
400,196,3728,2,0,L|420:292,1,80,2|0,0:0|0:0,0:0:0:0:
360,340,4418,1,2,0:0:0:0:
360,340,4590,1,0,0:0:0:0:
360,340,4762,1,0,0:0:0:0:
292,284,5107,6,0,P|244:276|156:372,1,160,2|0,0:0|0:0,0:0:0:0:
76,360,6141,1,0,0:0:0:0:
24,288,6486,2,0,L|32:204,1,80,2|0,0:0|0:0,0:0:0:0:
112,172,7175,2,0,L|104:88,1,80,2|0,0:0|0:0,0:0:0:0:
152,192,7692,1,0,0:0:0:0:
152,192,7865,6,0,P|200:204|276:156,1,120,2|0,0:0|0:0,0:0:0:0:
304,168,8554,2,0,L|328:264,1,80,2|0,0:0|0:0,0:0:0:0:
336,288,9071,1,0,0:0:0:0:
336,288,9244,1,2,0:0:0:0:
272,348,9588,1,0,0:0:0:0:
192,308,9933,1,2,0:0:0:0:
120,356,10278,1,0,0:0:0:0:
56,296,10623,5,2,0:0:0:0:
96,220,10967,2,0,L|104:124,2,80,0|2|0,0:0|0:0|0:0,0:0:0:0:
164,276,12001,2,0,L|252:264,1,80,2|0,0:0|0:0,0:0:0:0:
316,216,12691,1,2,0:0:0:0:
392,256,13035,1,0,0:0:0:0:
392,256,13208,1,0,0:0:0:0:
392,256,13380,6,0,P|404:200|332:128,1,160,2|2,0:0|0:0,0:0:0:0:
316,216,14414,1,0,0:0:0:0:
316,216,14587,1,0,0:0:0:0:
316,216,14759,2,0,P|280:248|168:224,1,160,2|2,0:0|0:0,0:0:0:0:
96,200,15793,1,0,0:0:0:0:
96,200,15965,1,0,0:0:0:0:
96,200,16138,6,0,L|104:296,1,80,2|0,0:0|0:0,0:0:0:0:
156,352,16827,2,0,L|244:332,1,80,2|0,0:0|0:0,0:0:0:0:
320,312,17517,1,2,0:0:0:0:
408,328,17861,1,0,0:0:0:0:
460,260,18206,2,0,L|468:164,1,80,2|0,0:0|0:0,0:0:0:0:
444,144,18723,1,0,0:0:0:0:
444,144,18896,6,0,L|460:56,1,80,2|0,0:0|0:0,0:0:0:0:
360,176,19585,1,2,0:0:0:0:
272,160,19930,1,0,0:0:0:0:
272,160,20102,1,0,0:0:0:0:
272,160,20274,2,0,P|232:152|184:160,1,80,2|0,0:0|0:0,0:0:0:0:
116,200,20964,1,2,0:0:0:0:
100,240,21136,1,0,0:0:0:0:
108,284,21308,1,0,0:0:0:0:
176,340,21653,5,2,0:0:0:0:
256,304,21998,2,0,L|348:300,2,80,0|2|0,0:0|0:0|0:0,0:0:0:0:
184,252,23032,2,0,L|196:172,1,80,2|0,0:0|0:0,0:0:0:0:
264,116,23721,2,0,L|256:48,1,40,2|0,0:0|0:0,0:0:0:0:
264,116,24066,1,0,0:0:0:0:
392,144,24411,6,0,L|384:216,1,40,6|0,0:0|0:0,0:0:0:0:
316,220,24756,2,0,L|328:288,1,40
424,328,25100,2,0,L|372:320,1,40,8|0,0:0|0:0,0:0:0:0:
304,368,25445,1,0,0:0:0:0:
304,368,25617,1,0,0:0:0:0:
240,320,25790,6,0,L|188:312,1,40,2|0,0:0|0:0,0:0:0:0:
117,337,26134,2,0,L|108:376,1,40
160,248,26479,2,0,L|150:209,1,40,8|0,0:0|0:0,0:0:0:0:
88,156,26824,1,0,0:0:0:0:
88,156,26996,1,0,0:0:0:0:
152,64,27169,6,0,L|256:56,1,80,2|0,0:0|0:0,0:0:0:0:
312,52,27686,1,0,0:0:0:0:
312,52,27858,1,10,0:0:0:0:
428,160,28203,1,0,0:0:0:0:
304,264,28547,6,0,P|264:248|172:264,1,120,2|2,0:0|0:0,0:0:0:0:
136,316,29237,2,0,L|76:308,1,40,8|0,0:0|0:0,0:0:0:0:
216,328,29581,1,0,0:0:0:0:
232,332,29926,6,0,L|296:320,1,40,2|0,0:0|0:0,0:0:0:0:
348,348,30271,2,0,L|412:336,1,40,0|0,0:0|0:0,0:0:0:0:
432,248,30616,2,0,L|420:184,1,40,8|0,0:0|0:0,0:0:0:0:
356,140,30960,1,0,0:0:0:0:
356,140,31133,1,0,0:0:0:0:
260,220,31305,6,0,L|324:216,1,40,2|0,0:0|0:0,0:0:0:0:
220,312,31650,2,0,L|284:308,1,40,0|2,0:0|0:0,0:0:0:0:
332,344,31994,1,8,0:0:0:0:
332,344,32167,1,0,0:0:0:0:
400,300,32339,1,2,0:0:0:0:
400,300,32512,1,0,0:0:0:0:
476,328,32684,6,0,L|496:192,1,120,2|2,0:0|0:0,0:0:0:0:
472,132,33373,2,0,P|424:144|340:80,1,160,8|2,0:0|0:0,0:0:0:0:
240,148,34407,1,0,0:0:0:0:
240,148,34580,1,2,0:0:0:0:
240,148,34752,2,0,P|248:200|244:252,1,80,8|0,0:0|0:0,0:0:0:0:
176,324,35442,5,2,0:0:0:0:
176,324,35614,1,0,0:0:0:0:
108,280,35786,2,0,L|92:332,1,40
32,188,36131,2,0,L|48:240,1,40,8|0,0:0|0:0,0:0:0:0:
132,128,36476,2,0,L|78:115,1,40,0|0,0:0|0:0,0:0:0:0:
132,240,36820,6,8,L|169:200,1,40,2|0,0:0|0:0,0:0:0:0:
236,184,37165,1,0,0:0:0:0:
236,184,37337,1,0,0:0:0:0:
280,248,37510,2,0,L|292:308,1,40,8|0,0:0|0:0,0:0:0:0:
356,328,37854,2,0,L|344:388,1,40,0|0,0:0|0:0,0:0:0:0:
424,272,38199,6,0,P|460:280|512:216,1,120,2|2,0:0|0:0,0:0:0:0:
468,156,38889,2,0,L|476:72,1,80,8|0,0:0|0:0,0:0:0:0:
348,28,39578,1,2,0:0:0:0:
276,144,39923,1,0,0:0:0:0:
388,220,40267,1,8,0:0:0:0:
460,104,40612,1,0,0:0:0:0:
460,104,40785,1,0,0:0:0:0:
388,136,40957,6,0,L|328:128,1,40,2|0,0:0|0:0,0:0:0:0:
276,164,41302,2,0,L|216:156,1,40
264,56,41646,2,0,L|204:48,1,40,8|0,0:0|0:0,0:0:0:0:
152,84,41991,2,0,L|92:76,1,40
44,124,42336,5,2,0:0:0:0:
12,196,42508,1,0,0:0:0:0:
20,276,42680,1,0,0:0:0:0:
76,336,42853,1,0,0:0:0:0:
152,360,43025,2,0,L|212:352,1,40,8|0,0:0|0:0,0:0:0:0:
264,320,43370,1,0,0:0:0:0:
344,336,43542,1,0,0:0:0:0:
416,300,43715,6,0,L|424:192,1,80,2|0,0:0|0:0,0:0:0:0:
300,156,44404,2,0,L|308:48,1,80,8|0,0:0|0:0,0:0:0:0:
208,216,45093,2,0,P|164:236|76:220,1,120,2|2,0:0|0:0,0:0:0:0:
52,168,45783,2,0,L|8:176,1,40,8|0,0:0|0:0,0:0:0:0:
104,108,46128,2,0,P|112:64|108:24,1,80,0|2,0:0|0:0,0:0:0:0:
224,100,46817,5,0,0:0:0:0:
224,100,46989,1,0,0:0:0:0:
288,52,47162,2,0,L|340:56,1,40,8|0,0:0|0:0,0:0:0:0:
296,128,47506,2,0,L|348:132,1,40
464,104,47851,5,2,0:0:0:0:
508,172,48023,1,0,0:0:0:0:
500,252,48196,1,0,0:0:0:0:
452,316,48368,1,0,0:0:0:0:
336,336,48540,6,0,L|344:280,1,40,10|0,0:0|0:0,0:0:0:0:
300,200,48885,2,0,L|308:144,1,40
184,40,49230,5,2,0:0:0:0:
108,60,49402,1,0,0:0:0:0:
56,120,49575,1,0,0:0:0:0:
36,196,49747,1,0,0:0:0:0:
107,330,49919,5,8,0:0:0:0:
127,254,50091,1,0,0:0:0:0:
112,176,50264,1,0,0:0:0:0:
56,120,50436,1,2,0:0:0:0:
128,184,51643,6,0,L|124:128,1,40
124,304,52008,6,0,P|172:336|264:308,1,143.999995605469,6|0,0:0|0:0,0:0:0:0:
304,248,52525,1,0,0:0:0:0:
360,312,52697,2,0,L|452:320,1,71.9999978027344,8|0,0:0|0:0,0:0:0:0:
448,200,53042,2,0,L|356:192,1,71.9999978027344,0|0,0:0|0:0,0:0:0:0:
303,248,53386,6,0,P|278:273|244:285,1,71.9999978027344,2|0,0:0|0:0,0:0:0:0:
236,124,53731,2,0,P|270:133|297:156,1,71.9999978027344,0|0,0:0|0:0,0:0:0:0:
164,288,54076,1,8,0:0:0:0:
84,260,54248,1,0,0:0:0:0:
60,176,54420,1,0,0:0:0:0:
104,100,54593,1,0,0:0:0:0:
188,108,54765,6,0,P|264:140|340:104,1,143.999995605469,2|0,0:0|0:0,0:0:0:0:
388,68,55282,1,0,0:0:0:0:
388,68,55455,2,0,L|408:176,1,71.9999978027344,8|0,0:0|0:0,0:0:0:0:
472,188,55799,2,0,L|452:296,1,71.9999978027344
392,316,56144,6,0,P|332:304|264:356,1,143.999995605469,2|0,0:0|0:0,0:0:0:0:
196,300,56661,1,0,0:0:0:0:
196,300,56833,2,0,L|108:292,1,71.9999978027344,8|0,0:0|0:0,0:0:0:0:
40,316,57178,1,0,0:0:0:0:
8,184,57350,1,0,0:0:0:0:
140,148,57523,6,0,P|196:184|292:164,1,143.999995605469,6|0,0:0|0:0,0:0:0:0:
336,120,58040,2,0,P|356:160|356:196,1,71.9999978027344,0|8,0:0|0:0,0:0:0:0:
288,332,58385,2,0,P|290:287|308:256,1,71.9999978027344
440,216,58729,1,0,0:0:0:0:
388,288,58902,6,0,L|208:272,1,143.999995605469,2|0,0:0|0:0,0:0:0:0:
180,332,59419,1,0,0:0:0:0:
124,268,59591,2,0,L|136:184,1,71.9999978027344,8|0,0:0|0:0,0:0:0:0:
200,140,59936,2,0,L|188:56,1,71.9999978027344
280,200,60281,5,6,0:0:0:0:
416,228,60453,1,0,0:0:0:0:
376,140,60625,1,0,0:0:0:0:
300,284,60798,1,0,0:0:0:0:
200,140,60970,1,8,0:0:0:0:
200,140,61142,1,0,0:0:0:0:
280,200,61315,1,0,0:0:0:0:
172,276,61487,1,0,0:0:0:0:
140,76,61659,6,0,P|192:56|280:104,1,143.999995605469,2|0,0:0|0:0,0:0:0:0:
280,200,62176,1,0,0:0:0:0:
208,248,62349,2,0,P|200:296|208:360,1,71.9999978027344,8|0,0:0|0:0,0:0:0:0:
284,292,62693,1,0,0:0:0:0:
200,160,62866,1,0,0:0:0:0:
128,288,63038,6,0,P|96:320|0:312,1,143.999995605469,6|0,0:0|0:0,0:0:0:0:
62,173,63555,2,0,P|64:209|55:244,1,71.9999978027344,0|8,0:0|0:0,0:0:0:0:
0,120,63900,2,0,P|29:100|64:90,1,71.9999978027344,0|0,0:0|0:0,0:0:0:0:
200,160,64245,1,0,0:0:0:0:
156,232,64417,6,0,L|12:224,1,143.999995605469,2|0,0:0|0:0,0:0:0:0:
36,308,64934,1,0,0:0:0:0:
36,308,65106,2,0,L|124:312,1,71.9999978027344,8|0,0:0|0:0,0:0:0:0:
184,352,65451,2,0,L|255:348,1,71.9999978027344
340,368,65796,6,0,P|404:372|452:288,1,143.999995605469,2|0,0:0|0:0,0:0:0:0:
440,228,66313,1,0,0:0:0:0:
332,280,66485,2,0,L|240:272,1,71.9999978027344,8|0,0:0|0:0,0:0:0:0:
184,312,66830,2,0,P|180:256|192:224,1,71.9999978027344
168,64,67175,5,2,0:0:0:0:
232,168,67347,1,0,0:0:0:0:
252,84,67519,1,0,0:0:0:0:
144,148,67692,2,0,P|96:152|60:176,1,71.9999978027344,0|8,0:0|0:0,0:0:0:0:
24,232,68036,1,0,0:0:0:0:
100,272,68209,2,0,P|148:268|184:244,1,71.9999978027344
216,332,68554,6,0,P|268:304|368:316,1,143.999995605469,6|0,0:0|0:0,0:0:0:0:
424,352,69071,1,0,0:0:0:0:
488,296,69243,2,0,L|496:144,1,143.999995605469,8|0,0:0|0:0,0:0:0:0:
356,52,69932,6,0,L|368:140,1,71.9999978027344,2|0,0:0|0:0,0:0:0:0:
316,192,70277,2,0,L|240:176,1,71.9999978027344,0|0,0:0|0:0,0:0:0:0:
160,196,70622,1,8,0:0:0:0:
80,160,70794,1,0,0:0:0:0:
88,244,70966,1,0,0:0:0:0:
232,144,71139,1,0,0:0:0:0:
144,52,71311,6,0,L|-4:64,1,143.999995605469,6|0,0:0|0:0,0:0:0:0:
36,144,71828,1,2,0:0:0:0:
108,192,72001,2,0,P|116:232|104:288,1,71.9999978027344,8|2,0:0|0:0,0:0:0:0:
76,340,72345,1,0,0:0:0:0:
200,376,72518,1,0,0:0:0:0:
304,300,72690,5,2,0:0:0:0:
220,276,72862,1,0,0:0:0:0:
296,380,73035,1,0,0:0:0:0:
376,228,73207,1,0,0:0:0:0:
220,276,73379,1,10,0:0:0:0:
392,328,73552,1,0,0:0:0:0:
220,276,73724,1,0,0:0:0:0:
376,228,73897,1,2,0:0:0:0:
196,268,74069,6,0,P|176:244|192:124,1,143.999995605469,6|0,0:0|0:0,0:0:0:0:
240,76,74586,1,0,0:0:0:0:
308,128,74758,2,0,L|404:120,1,71.9999978027344,8|0,0:0|0:0,0:0:0:0:
447,234,75103,2,0,L|351:226,1,71.9999978027344
312,288,75448,6,0,P|272:280|184:360,1,143.999995605469,2|0,0:0|0:0,0:0:0:0:
112,304,75965,1,0,0:0:0:0:
168,240,76137,2,0,L|172:136,1,71.9999978027344,8|0,0:0|0:0,0:0:0:0:
124,96,76482,1,0,0:0:0:0:
256,32,76654,1,0,0:0:0:0:
388,96,76827,6,0,L|468:88,1,71.9999978027344,2|0,0:0|0:0,0:0:0:0:
504,172,77171,2,0,L|424:180,1,71.9999978027344
364,232,77516,1,8,0:0:0:0:
232,136,77688,1,0,0:0:0:0:
272,264,77861,1,0,0:0:0:0:
424,184,78033,1,0,0:0:0:0:
368,356,78205,6,0,L|288:348,1,71.9999978027344,2|0,0:0|0:0,0:0:0:0:
212,372,78550,2,0,P|176:380|140:379,1,71.9999978027344
60,352,78895,1,10,0:0:0:0:
60,216,79067,1,0,0:0:0:0:
168,300,79239,1,0,0:0:0:0:
236,176,79412,1,0,0:0:0:0:
236,176,79498,1,0,0:0:0:0:
236,176,79584,1,2,0:0:0:0:
256,192,79757,12,0,82342,0:0:0:0:
