osu file format v14

[General]
AudioFilename: amairo.mp3
AudioLeadIn: 0
PreviewTime: 82648
Countdown: 0
SampleSet: Soft
StackLeniency: 0.3
Mode: 0
LetterboxInBreaks: 0
WidescreenStoryboard: 0

[Editor]
DistanceSpacing: 1.3
BeatDivisor: 4
GridSize: 32
TimelineZoom: 1

[Metadata]
Title:Amairo
TitleUnicode:天色
Artist:Amairo*Quartet
ArtistUnicode:あまいろ*カルテット
Creator:Momochikun
Version:Hard
Source:天色*アイルノーツ
Tags:Amairo*Islenauts ending Kitami Rikka Toyota Sera Natsuno Koori Kiritani Hana cut ver
BeatmapID:739293
BeatmapSetID:334128

[Difficulty]
HPDrainRate:5.5
CircleSize:4
OverallDifficulty:5.5
ApproachRate:6.5
SliderMultiplier:1.4
SliderTickRate:1

[Events]
//Background and Video events
0,0,"BG.jpg",0,0
//Break Periods
//Storyboard Layer 0 (Background)
//Storyboard Layer 1 (Fail)
//Storyboard Layer 2 (Pass)
//Storyboard Layer 3 (Foreground)
//Storyboard Sound Samples

[TimingPoints]
4000,405.405405405405,4,2,1,40,1,0
4000,-100,4,2,1,40,0,0
8662,-100,4,2,1,20,0,0
10486,-100,4,2,1,55,0,0
16972,-100,4,2,1,20,0,0
21027,-100,4,2,1,60,0,0
21635,-100,4,2,1,80,0,1
21736,-100,4,2,1,80,0,0
57513,-111.111111111111,4,2,1,70,0,0
70081,-100,4,2,1,80,0,0
83256,-100,4,2,1,90,0,1
96128,-100,4,2,1,90,0,0
96229,-100,4,2,1,90,0,1
105959,-100,4,2,1,80,0,0
109202,-100,4,2,1,90,0,1
109304,-100,4,2,1,80,0,0
122378,-100,4,2,1,80,0,1
122479,-100,4,2,1,80,0,0

[Colours]
Combo1 : 255,128,128
Combo2 : 0,128,192
Combo3 : 255,255,128
Combo4 : 0,255,128
Combo5 : 128,255,255

[HitObjects]
103,244,4000,6,0,P|155:252|227:198,1,140,2|0,0:0|0:0,0:0:0:0:
301,156,4608,2,0,P|323:193|326:233,1,70,0|0,0:0|0:0,0:0:0:0:
410,256,5013,2,0,P|429:227|436:192,1,70,0|0,0:0|0:0,0:0:0:0:
385,117,5418,1,0,0:0:0:0:
301,156,5621,2,0,P|249:164|177:110,1,140
137,36,6229,1,0,0:0:0:0:
57,200,6635,2,0,L|70:282,1,70,0|0,0:0|0:0,0:0:0:0:
147,313,7040,6,0,B|208:299|208:299|232:302|232:302|287:288,1,140,0|0,0:0|0:0,0:0:0:0:
364,330,7648,2,0,P|404:328|436:310,1,70,0|0,0:0|0:0,0:0:0:0:
437,223,8054,2,0,P|397:225|365:243,2,70,0|0|0,0:0|0:0|0:0,0:0:0:0:
256,192,8662,12,0,10081,0:0:0:0:
185,301,10486,6,0,P|127:312|50:260,1,140,2|0,0:0|0:0,0:0:0:0:
34,186,11094,2,0,P|92:175|169:227,1,140,2|2,0:0|0:0,0:0:0:0:
247,239,11702,1,0,0:0:0:0:
283,155,11905,2,0,B|328:131|328:131|378:144|441:118,1,140,2|0,0:0|0:0,0:0:0:0:
479,61,12513,1,2,0:0:0:0:
479,61,12918,1,0,0:0:0:0:
448,240,13324,2,0,P|437:285|433:316,1,70,2|0,0:0|0:0,0:0:0:0:
349,343,13729,6,0,P|343:308|334:274,1,70,2|0,0:0|0:0,0:0:0:0:
285,197,14135,1,0,0:0:0:0:
201,231,14337,2,0,P|145:232|95:155,1,140,2|2,0:0|0:0,0:0:0:0:
146,94,14945,1,0,0:0:0:0:
228,131,15148,2,0,P|297:120|365:106,1,140,2|0,0:0|0:0,0:0:0:0:
427,39,15756,2,0,P|414:105|401:190,2,140,2|0|0,0:0|0:0|0:0,0:0:0:0:
256,192,16972,12,2,20216,0:0:0:0:
30,293,21027,6,0,L|36:329,2,35,2|8|0,0:0|0:0|0:0,0:0:0:0:
15,203,21432,1,8,0:0:0:0:
74,134,21635,6,0,P|138:117|207:168,1,140,4|0,0:0|0:0,0:0:0:0:
263,216,22243,2,0,P|327:233|396:182,1,140,10|2,0:0|0:0,0:0:0:0:
387,197,22851,2,0,L|373:280,1,70,0|8,0:0|0:0,0:0:0:0:
364,356,23256,1,4,0:0:0:0:
496,230,23662,6,0,L|506:160,1,70,0|8,0:0|0:0,0:0:0:0:
443,95,24067,1,0,0:0:0:0:
359,130,24270,2,0,P|317:130|286:114,1,70,0|2,0:0|0:0,0:0:0:0:
242,42,24675,2,0,P|209:28|175:30,1,70,8|2,0:0|0:0,0:0:0:0:
91,67,25081,6,0,P|50:120|61:206,1,140,4|10,0:0|0:0,0:0:0:0:
93,271,25689,2,0,L|82:313,2,35,0|8|2,0:0|0:0|0:0,0:0:0:0:
171,224,26094,2,0,P|205:222|237:235,1,70,0|10,0:0|0:0,0:0:0:0:
283,314,26499,6,0,L|440:283,1,140,4|0,0:0|0:0,0:0:0:0:
483,220,27108,2,0,B|497:168|470:122|470:122|490:70,1,140,8|0,0:0|0:0,0:0:0:0:
409,35,27716,2,0,L|394:66,4,35,2|0|8|0|2,0:0|0:0|0:0|0:0|0:0,0:0:0:0:
337,137,28324,6,0,P|289:137|246:112,1,70,4|2,0:0|0:0,0:0:0:0:
193,77,28729,1,8,0:0:0:0:
140,151,28932,2,0,B|112:235|112:235|128:265|128:303,1,140,4|2,0:0|0:0,0:0:0:0:
67,353,29540,1,8,0:0:0:0:
156,370,29743,6,0,P|220:350|313:342,1,140,4|2,0:0|0:0,0:0:0:0:
362,283,30351,1,8,0:0:0:0:
262,247,30554,2,0,P|198:227|105:219,1,140,4|0,0:0|0:0,0:0:0:0:
40,186,31162,2,0,L|1:198,2,35,8|8|0,0:0|0:0|0:0,0:0:0:0:
110,127,31567,5,4,0:0:0:0:
197,102,31770,2,0,P|209:67|206:28,2,70,0|8|0,0:0|0:0|0:0,0:0:0:0:
166,186,32378,1,2,0:0:0:0:
253,211,32581,2,0,P|294:199|328:189,1,70,0|8,0:0|0:0,0:0:0:0:
393,137,32986,22,0,P|372:196|367:283,1,140,2|0,0:0|0:0,0:0:0:0:
421,345,33594,2,0,P|383:316|290:320,1,140,8|0,0:0|0:0,0:0:0:0:
216,358,34202,1,0,0:0:0:0:
162,281,34405,2,0,P|148:240|151:211,1,70,8|0,0:0|0:0,0:0:0:0:
63,186,34810,38,0,P|82:147|104:128,1,70,2|0,0:0|0:0,0:0:0:0:
188,101,35216,1,8,0:0:0:0:
188,101,35418,2,0,L|296:79,1,105,2|8,0:0|0:0,0:0:0:0:
324,80,35824,2,0,P|314:122|305:160,1,70,0|8,0:0|0:0,0:0:0:0:
312,239,36229,22,0,P|368:204|454:216,1,140,2|2,0:0|0:0,0:0:0:0:
461,297,36837,1,8,0:0:0:0:
461,297,37040,2,0,P|405:332|319:320,1,140,2|2,0:0|0:0,0:0:0:0:
245,302,37648,2,0,P|234:339|228:374,1,70,8|0,0:0|0:0,0:0:0:0:
172,253,38054,38,0,P|165:218|155:185,1,70,4|0,0:0|0:0,0:0:0:0:
191,101,38459,2,0,P|259:95|318:131,1,140,8|2,0:0|0:0,0:0:0:0:
374,202,39067,1,0,0:0:0:0:
391,291,39270,1,8,0:0:0:0:
303,273,39472,22,0,P|234:267|175:303,1,140,2|0,0:0|0:0,0:0:0:0:
86,325,40081,2,0,L|72:253,1,70,8|0,0:0|0:0,0:0:0:0:
2,197,40486,2,0,L|16:125,2,70,2|0|8,0:0|0:0|0:0,0:0:0:0:
72,256,41094,1,0,0:0:0:0:
158,226,41297,38,0,B|231:226|232:246|316:238,1,140,4|8,0:0|0:0,0:0:0:0:
419,272,41905,2,0,P|447:218|437:130,1,140,4|2,0:0|0:0,0:0:0:0:
399,59,42513,1,8,0:0:0:0:
319,108,42716,22,0,P|291:162|301:250,1,140,4|2,0:0|0:0,0:0:0:0:
343,316,43324,1,8,0:0:0:0:
257,347,43527,2,0,P|194:349|119:316,1,140,4|0,0:0|0:0,0:0:0:0:
58,255,44135,2,0,L|14:267,2,35,8|8|0,0:0|0:0|0:0,0:0:0:0:
121,186,44540,54,0,P|135:150|138:112,1,70,4|2,0:0|0:0,0:0:0:0:
218,75,44945,2,0,P|254:89|292:92,1,70,8|2,0:0|0:0,0:0:0:0:
370,58,45351,1,0,0:0:0:0:
371,149,45554,2,0,L|361:223,1,70,0|8,0:0|0:0,0:0:0:0:
289,274,45959,6,0,P|357:258|422:304,1,140,2|2,0:0|0:0,0:0:0:0:
508,260,46567,2,0,L|498:334,1,70,8|2,0:0|0:0,0:0:0:0:
418,377,46972,1,0,0:0:0:0:
418,377,47074,1,8,0:0:0:0:
418,377,47175,1,0,0:0:0:0:
326,330,47378,2,0,P|297:300|288:266,1,70,8|0,0:0|0:0,0:0:0:0:
237,197,47783,54,0,B|201:192|148:212|148:212|119:198|115:177,1,140,2|8,0:0|0:0,0:0:0:0:
37,130,48391,1,2,0:0:0:0:
99,60,48594,2,0,L|90:13,2,35,0|8|0,0:0|0:0|0:0,0:0:0:0:
176,108,48999,1,8,0:0:0:0:
115,178,49202,6,0,B|95:273|95:273|105:324,1,140,2|0,0:0|0:0,0:0:0:0:
182,360,49810,1,8,0:0:0:0:
269,335,50013,2,0,P|352:321|402:312,1,105,2|8,0:0|0:0,0:0:0:0:
403,312,50418,2,0,P|393:275|404:232,1,70,0|8,0:0|0:0,0:0:0:0:
448,167,50824,53,0,0:0:0:0:
448,167,51027,2,0,B|461:116|416:87|416:87|370:105,1,140,4|8,0:0|0:0,0:0:0:0:
231,219,51837,1,0,0:0:0:0:
231,219,51939,1,8,0:0:0:0:
231,219,52040,1,0,0:0:0:0:
142,195,52243,1,8,0:0:0:0:
53,174,52445,6,0,L|73:314,1,140,2|2,0:0|0:0,0:0:0:0:
150,360,53054,2,0,P|189:360|220:346,1,70,8|2,0:0|0:0,0:0:0:0:
294,299,53459,2,0,P|333:299|364:313,1,70,2|0,0:0|0:0,0:0:0:0:
439,357,53864,1,8,0:0:0:0:
340,172,54270,54,0,P|270:166|194:202,1,140,4|8,0:0|0:0,0:0:0:0:
164,272,54878,2,0,P|171:211|123:143,1,140,2|2,0:0|0:0,0:0:0:0:
45,112,55486,1,8,0:0:0:0:
116,56,55689,6,0,P|186:50|262:86,1,140,4|2,0:0|0:0,0:0:0:0:
314,139,56297,2,0,L|397:123,1,70,8|0,0:0|0:0,0:0:0:0:
465,163,56702,22,0,L|455:211,1,35,4|8,0:0|0:0,0:0:0:0:
375,236,57006,2,0,L|365:284,1,35,8|8,0:0|0:0,0:0:0:0:
342,357,57310,1,0,0:0:0:0:
262,336,57513,2,0,P|194:322|118:319,1,125.999996154785,4|0,0:0|0:0,0:0:0:0:
64,281,58121,37,0,0:0:0:0:
64,281,58324,2,0,P|35:232|52:162,1,125.999996154785,8|0,0:0|0:0,0:0:0:0:
95,99,58932,1,2,0:0:0:0:
257,118,59337,2,0,L|243:183,1,62.9999980773926,8|0,0:0|0:0,0:0:0:0:
301,238,59743,1,0,0:0:0:0:
301,238,59945,2,0,P|368:224|443:212,1,125.999996154785,10|8,0:0|0:0,0:0:0:0:
340,355,60756,22,0,P|277:365|216:378,1,125.999996154785,2|0,0:0|0:0,0:0:0:0:
142,343,61364,1,0,0:0:0:0:
142,343,61567,2,0,P|116:292|126:215,1,125.999996154785,8|0,0:0|0:0,0:0:0:0:
165,156,62175,1,2,0:0:0:0:
312,84,62581,2,0,P|254:83|191:37,1,125.999996154785,8|0,0:0|0:0,0:0:0:0:
118,64,63189,2,0,L|55:51,1,62.9999980773926,8|0,0:0|0:0,0:0:0:0:
47,132,63594,2,0,L|60:195,1,62.9999980773926,8|8,0:0|0:0,0:0:0:0:
106,261,63999,38,0,B|142:240|142:240|183:267|248:247,1,125.999996154785,4|0,0:0|0:0,0:0:0:0:
293,210,64608,1,0,0:0:0:0:
225,163,64810,2,0,P|204:108|220:35,1,125.999996154785,8|8,0:0|0:0,0:0:0:0:
294,64,65418,2,0,L|419:40,1,125.999996154785,2|8,0:0|0:0,0:0:0:0:
464,107,66027,2,0,L|340:130,2,125.999996154785,2|8|2,0:0|0:0|0:0,0:0:0:0:
509,264,67243,21,4,0:0:0:0:
349,298,67648,1,2,0:0:0:0:
268,315,67851,1,4,0:0:0:0:
188,335,68054,2,0,P|132:343|79:282,1,125.999996154785,8|0,0:0|0:0,0:0:0:0:
46,225,68662,2,0,P|102:217|155:278,1,125.999996154785,4|8,0:0|0:0,0:0:0:0:
349,298,69472,2,0,B|363:209|363:209|344:169,1,125.999996154785,4|2,0:0|0:0,0:0:0:0:
292,103,70081,54,0,P|260:88|222:85,1,70,8|8,0:0|0:0,0:0:0:0:
205,90,70385,1,8,0:0:0:0:
187,100,70486,2,0,P|127:136|51:126,1,140,4|8,0:0|0:0,0:0:0:0:
23,312,71297,2,0,P|28:362|34:386,2,70,2|0|8,0:0|0:0|0:0,0:0:0:0:
88,247,71905,54,0,P|148:211|224:221,1,140,2|0,0:0|0:0,0:0:0:0:
291,267,72513,1,8,0:0:0:0:
399,120,72918,2,0,L|383:47,1,70,2|0,0:0|0:0,0:0:0:0:
502,87,73324,2,0,L|487:155,1,70,8|0,0:0|0:0,0:0:0:0:
465,243,73729,5,4,0:0:0:0:
328,363,74135,1,8,0:0:0:0:
150,325,74540,2,0,L|109:333,2,35,2|8|0,0:0|0:0|0:0,0:0:0:0:
236,297,74945,1,8,0:0:0:0:
172,232,75148,54,0,P|105:239|55:179,1,140,4|2,0:0|0:0,0:0:0:0:
102,106,75756,1,8,0:0:0:0:
223,138,75959,2,0,P|290:145|340:85,1,140,4|2,0:0|0:0,0:0:0:0:
425,73,76567,38,0,P|412:137|402:160,1,70,8|8,0:0|0:0,0:0:0:0:
360,217,76972,2,0,P|373:281|383:304,1,70,4|2,0:0|0:0,0:0:0:0:
454,329,77378,1,8,0:0:0:0:
328,363,77581,2,0,B|272:346|272:346|251:351|251:351|193:334,1,140,4|10,0:0|0:0,0:0:0:0:
108,305,78189,1,8,0:0:0:0:
170,239,78391,6,0,P|158:170|138:103,1,140,4|10,0:0|0:0,0:0:0:0:
94,23,78999,1,8,0:0:0:0:
203,36,79202,2,0,P|223:103|234:171,1,140,4|10,0:0|0:0,0:0:0:0:
316,220,79810,1,8,0:0:0:0:
268,297,80013,22,0,P|320:258|393:269,1,140,4|2,0:0|0:0,0:0:0:0:
316,364,80621,2,0,P|248:374|193:334,1,140,8|8,0:0|0:0,0:0:0:0:
132,266,81229,2,0,L|64:286,1,70,2|8,0:0|0:0,0:0:0:0:
98,179,81635,2,0,L|238:137,1,140,4|8,0:0|0:0,0:0:0:0:
318,111,82243,1,4,0:0:0:0:
318,111,82851,22,0,P|337:153|342:189,1,70,2|0,0:0|0:0,0:0:0:0:
417,215,83257,2,0,P|350:208|303:258,1,140,4|0,0:0|0:0,0:0:0:0:
241,323,83864,1,8,0:0:0:0:
151,305,84067,1,2,0:0:0:0:
151,305,84270,2,0,L|76:321,1,70,0|2,0:0|0:0,0:0:0:0:
11,262,84675,1,8,0:0:0:0:
70,193,84878,6,0,P|89:133|70:53,1,140,4|2,0:0|0:0,0:0:0:0:
160,31,85486,1,8,0:0:0:0:
206,109,85689,2,0,B|274:113|273:88|353:95,1,140,2|0,0:0|0:0,0:0:0:0:
431,121,86297,1,8,0:0:0:0:
361,179,86499,6,0,B|340:282|340:282|351:331,1,140,4|2,0:0|0:0,0:0:0:0:
431,353,87108,2,0,L|506:338,1,70,8|2,0:0|0:0,0:0:0:0:
509,248,87513,2,0,L|440:261,1,70,0|2,0:0|0:0,0:0:0:0:
352,285,87918,1,8,0:0:0:0:
263,306,88121,6,0,P|205:301|168:228,1,140,4|2,0:0|0:0,0:0:0:0:
219,159,88729,2,0,P|233:124|229:85,1,70,8|0,0:0|0:0,0:0:0:0:
282,218,89135,2,0,L|351:203,1,70,8|0,0:0|0:0,0:0:0:0:
263,306,89540,1,8,0:0:0:0:
176,269,89743,6,0,P|124:244|30:248,1,140,4|2,0:0|0:0,0:0:0:0:
4,161,90351,2,0,P|40:149|77:130,1,70,8|2,0:0|0:0,0:0:0:0:
110,54,90756,2,0,L|102:12,2,35,0|8|0,0:0|0:0|0:0,0:0:0:0:
181,111,91162,1,8,0:0:0:0:
249,170,91364,6,0,P|314:152|405:136,1,140,4|0,0:0|0:0,0:0:0:0:
443,208,91972,2,0,P|374:220|306:239,1,140,8|2,0:0|0:0,0:0:0:0:
231,292,92581,2,0,P|242:326|251:367,1,70,0|8,0:0|0:0,0:0:0:0:
338,379,92986,1,4,0:0:0:0:
157,354,93391,5,2,0:0:0:0:
66,342,93594,2,0,L|25:349,4,35,8|0|2|8|0,0:0|0:0|0:0|0:0|0:0,0:0:0:0:
126,273,94202,2,0,L|140:200,1,70,2|8,0:0|0:0,0:0:0:0:
176,116,94608,6,0,B|222:101|222:101|260:123|332:103,1,140,4|4,0:0|0:0,0:0:0:0:
395,142,95216,1,8,0:0:0:0:
326,206,95418,2,0,P|305:159|311:108,1,105,4|8,0:0|0:0,0:0:0:0:
334,69,95824,2,0,L|325:26,2,35,0|8|8,0:0|0:0|0:0,0:0:0:0:
265,164,96229,6,0,B|211:181|167:184|167:184|128:172,1,140,4|2,0:0|0:0,0:0:0:0:
40,152,96837,2,0,P|25:192|14:225,1,70,8|2,0:0|0:0,0:0:0:0:
93,266,97243,2,0,P|108:306|119:339,1,70,0|2,0:0|0:0,0:0:0:0:
200,366,97648,1,8,0:0:0:0:
263,301,97851,6,0,P|321:292|409:244,1,140,4|2,0:0|0:0,0:0:0:0:
415,167,98459,1,8,0:0:0:0:
339,115,98662,2,0,P|281:124|193:172,1,140,2|0,0:0|0:0,0:0:0:0:
143,223,99270,1,8,0:0:0:0:
55,200,99472,1,4,0:0:0:0:
67,18,99878,5,2,0:0:0:0:
158,34,100081,2,0,B|217:47|260:20|260:20|300:47,1,140,8|2,0:0|0:0,0:0:0:0:
339,114,100689,1,0,0:0:0:0:
424,84,100891,1,8,0:0:0:0:
484,152,101094,1,4,0:0:0:0:
375,298,101499,6,0,P|335:292|295:284,1,70,4|8,0:0|0:0,0:0:0:0:
223,327,101905,2,0,P|155:315|100:305,1,105,4|8,0:0|0:0,0:0:0:0:
80,303,102310,2,0,P|65:259|70:227,1,70,0|8,0:0|0:0,0:0:0:0:
110,153,102716,1,8,0:0:0:0:
199,168,102918,6,0,P|214:212|209:244,2,70,4|2|8,0:0|0:0|0:0,0:0:0:0:
165,82,103527,2,0,B|198:49|234:43|234:43|265:67|313:70,1,140,4|0,0:0|0:0,0:0:0:0:
376,40,104135,1,8,0:0:0:0:
438,105,104337,6,0,P|426:194|416:257,1,140,4|2,0:0|0:0,0:0:0:0:
337,200,104945,1,8,0:0:0:0:
337,200,105148,2,0,P|349:289|359:352,1,140,4|0,0:0|0:0,0:0:0:0:
268,362,105756,1,8,0:0:0:0:
188,317,105959,6,0,B|133:311|96:331|96:331|56:306,1,140,4|2,0:0|0:0,0:0:0:0:
14,226,106567,2,0,P|1:187|4:147,1,70
62,90,106972,2,0,P|125:89|197:139,1,140,8|2,0:0|0:0,0:0:0:0:
231,209,107581,1,4,0:0:0:0:
370,92,107986,5,8,0:0:0:0:
288,50,108189,2,0,P|243:37|216:30,1,70,2|0,0:0|0:0,0:0:0:0:
137,68,108594,2,0,L|92:77,4,35,10|8|2|8|0,0:0|0:0|0:0|0:0|0:0,0:0:0:0:
208,124,109202,6,0,L|348:165,1,140,4|0,0:0|0:0,0:0:0:0:
384,244,109810,2,0,P|426:186|410:113,1,140,10|2,0:0|0:0,0:0:0:0:
359,50,110418,2,0,P|392:31|440:32,1,70,0|8,0:0|0:0,0:0:0:0:
423,28,110824,6,0,L|269:12,1,140,4|0,0:0|0:0,0:0:0:0:
197,42,111432,1,8,0:0:0:0:
116,84,111635,1,0,0:0:0:0:
116,84,111736,1,8,0:0:0:0:
116,84,111837,2,0,P|91:113|78:143,1,70,0|2,0:0|0:0,0:0:0:0:
119,223,112243,2,0,P|144:252|157:282,1,70,8|2,0:0|0:0,0:0:0:0:
204,358,112648,6,0,P|260:365|322:306,1,140,4|10,0:0|0:0,0:0:0:0:
350,227,113256,1,0,0:0:0:0:
350,227,113459,2,0,P|397:178|465:182,1,140,2|8,0:0|0:0,0:0:0:0:
512,252,114067,6,0,L|492:102,1,140,4|0,0:0|0:0,0:0:0:0:
413,69,114675,2,0,P|374:56|337:56,1,70,8|0,0:0|0:0,0:0:0:0:
269,106,115081,2,0,P|230:119|193:119,1,70,0|2,0:0|0:0,0:0:0:0:
111,102,115486,2,0,L|55:93,3,35,8|0|0|8,0:0|0:0|0:0|0:0,0:0:0:0:
31,93,115891,6,0,L|42:163,1,70,4|0,0:0|0:0,0:0:0:0:
54,252,116297,1,8,0:0:0:0:
134,293,116499,2,0,B|179:282|179:282|204:290|204:290|231:279|271:283,1,140,4|2,0:0|0:0,0:0:0:0:
355,316,117108,1,8,0:0:0:0:
399,236,117310,6,0,B|416:197|416:197|386:151|402:86,1,140,4|2,0:0|0:0,0:0:0:0:
328,44,117918,1,8,0:0:0:0:
288,125,118121,2,0,P|240:129|184:58,1,140,4|0,0:0|0:0,0:0:0:0:
95,44,118729,2,0,P|67:95|70:196,1,140,8|4,0:0|0:0,0:0:0:0:
110,253,119337,5,2,0:0:0:0:
195,285,119540,1,8,0:0:0:0:
124,342,119743,2,0,L|50:328,1,70,4|0,0:0|0:0,0:0:0:0:
110,253,120148,1,2,0:0:0:0:
110,253,120351,1,8,0:0:0:0:
177,191,120554,6,0,B|273:164|273:164|327:170,1,140,4|2,0:0|0:0,0:0:0:0:
392,214,121162,1,8,0:0:0:0:
459,153,121364,2,0,P|469:118|458:68,1,70,4|0,0:0|0:0,0:0:0:0:
394,26,121770,2,0,L|403:-10,2,35,8|0|8,0:0|0:0|0:0,0:0:0:0:
305,45,122175,1,0,0:0:0:0:
216,66,122378,6,0,P|160:72|73:37,1,140,4|8,0:0|0:0,0:0:0:0:
16,137,122986,2,0,P|72:131|159:166,1,140,4|0,0:0|0:0,0:0:0:0:
212,224,123594,1,8,0:0:0:0:
299,199,123797,1,4,0:0:0:0:
