osu file format v9

[General]
AudioFilename: Alyssa - Superstar (Dj Satomi Happy Trance) -02-01.mp3
AudioLeadIn: 0
PreviewTime: 8059
Countdown: 0
SampleSet: Normal
StackLeniency: 0.7
Mode: 0
LetterboxInBreaks: 0

[Editor]
Bookmarks: 8045,20931,33817,46703,59589,74086,88582,104690
DistanceSpacing: 1
BeatDivisor: 4
GridSize: 8

[Metadata]
Title:Superstar (Dj Satomi Happy Mix)
Artist:Alyssa
Creator:ztrot
Version:Collabstar!
Source:
Tags:jericho2442 osuplayer111

[Difficulty]
HPDrainRate:8
CircleSize:4
OverallDifficulty:9
ApproachRate:8
SliderMultiplier:2.19999990463257
SliderTickRate:2

[Events]
//Background and Video events
0,0,"BGcollab.jpg"
//Break Periods
//Storyboard Layer 0 (Background)
Sprite,Background,Centre,"BGcollab.jpg",320,240 S,0,0,,0.8 F,0,1603,3213,1,0
Sprite,Background,Centre,"SB\white flow.png",320,240 L,20931,12 M,0,0,3222,60,640,60,-200 L,95025,7 M,0,0,3222,60,640,60,-200 L,27374,9 C,0,0,403,0,0,255,255,255,255 L,33817,29 C,0,0,403,0,0,255,255,255,255 L,46703,7 C,0,0,403,0,0,255,255,255,255 C,0,403,806,0,255,0,255,255,255 C,0,806,1209,255,0,0,255,255,255 C,0,1209,1612,255,255,0,255,255,255 L,95428,4 C,0,0,806,100,100,255,255,255,255 L,98247,12 C,0,0,201,100,100,255,255,255,255 L,104690,8 C,0,0,403,0,0,255,255,255,255 C,0,403,806,0,255,0,255,255,255 C,0,806,1209,255,0,0,255,255,255 C,0,1209,1612,255,255,0,255,255,255 C,0,20931,,255,255,255 C,0,101871,103079,255,255,255,0,0,255 C,0,103079,104690,0,0,255,255,255,255
Sprite,Background,Centre,"SB\white flow.png",320,240 L,20931,12 M,0,0,3222,560,640,560,-200 L,95025,7 M,0,0,3222,560,640,560,-200 L,27374,9 C,0,0,403,0,0,255,255,255,255 L,33817,29 C,0,0,403,0,0,255,255,255,255 L,46703,7 C,0,0,403,0,0,255,255,255,255 C,0,403,806,0,255,0,255,255,255 C,0,806,1209,255,0,0,255,255,255 C,0,1209,1612,255,255,0,255,255,255 L,95428,4 C,0,0,806,100,100,255,255,255,255 L,98247,12 C,0,0,201,100,100,255,255,255,255 L,104690,8 C,0,0,403,0,0,255,255,255,255 C,0,403,806,0,255,0,255,255,255 C,0,806,1209,255,0,0,255,255,255 C,0,1209,1612,255,255,0,255,255,255 C,0,20931,,255,255,255 C,0,101871,103079,255,255,255,0,0,255 C,0,103079,104690,0,0,255,255,255,255
Sprite,Background,Centre,"SB\white flow.png",320,240 L,22542,12 M,0,0,3222,60,640,60,-200 L,96636,6 M,0,0,3222,60,640,60,-200 L,27374,9 C,0,0,403,0,0,255,255,255,255 L,33817,29 C,0,0,403,0,0,255,255,255,255 L,46703,7 C,0,0,403,0,0,255,255,255,255 C,0,403,806,0,255,0,255,255,255 C,0,806,1209,255,0,0,255,255,255 C,0,1209,1612,255,255,0,255,255,255 L,95428,4 C,0,0,806,100,100,255,255,255,255 L,98247,12 C,0,0,201,100,100,255,255,255,255 L,104690,8 C,0,0,403,0,0,255,255,255,255 C,0,403,806,0,255,0,255,255,255 C,0,806,1209,255,0,0,255,255,255 C,0,1209,1612,255,255,0,255,255,255 C,0,22542,,255,255,255 C,0,101871,103079,255,255,255,0,0,255 C,0,103079,104690,0,0,255,255,255,255
Sprite,Background,Centre,"SB\white flow.png",320,240 L,22542,12 M,0,0,3222,560,640,560,-200 L,96636,6 M,0,0,3222,560,640,560,-200 L,27374,9 C,0,0,403,0,0,255,255,255,255 L,33817,29 C,0,0,403,0,0,255,255,255,255 L,46703,7 C,0,0,403,0,0,255,255,255,255 C,0,403,806,0,255,0,255,255,255 C,0,806,1209,255,0,0,255,255,255 C,0,1209,1612,255,255,0,255,255,255 L,95428,4 C,0,0,806,100,100,255,255,255,255 L,98247,12 C,0,0,201,100,100,255,255,255,255 L,104690,8 C,0,0,403,0,0,255,255,255,255 C,0,403,806,0,255,0,255,255,255 C,0,806,1209,255,0,0,255,255,255 C,0,1209,1612,255,255,0,255,255,255 C,0,22542,,255,255,255 C,0,101871,103079,255,255,255,0,0,255 C,0,103079,104690,0,0,255,255,255,255
Sprite,Background,Centre,"SB\white flow2.png",320,240 L,33817,32 M,0,0,403,190,40,450,40 M,0,403,806,450,40,190,40 L,33817,29 C,0,0,403,0,0,255,255,255,255 L,46703,7 C,0,0,403,0,0,255,255,255,255 C,0,403,806,0,255,0,255,255,255 C,0,806,1209,255,0,0,255,255,255 C,0,1209,1612,255,255,0,255,255,255 L,88582,36 M,0,0,403,190,40,450,40 M,0,403,806,450,40,190,40 L,88985,12 C,0,0,806,100,100,255,255,255,255 L,98247,12 C,0,0,201,100,100,255,255,255,255 L,104690,8 C,0,0,403,0,0,255,255,255,255 C,0,403,806,0,255,0,255,255,255 C,0,806,1209,255,0,0,255,255,255 C,0,1209,1612,255,255,0,255,255,255 F,0,33817,,1 F,0,59186,59589,1,0 F,0,59589,,0 F,0,88582,,1 F,0,101066,101468,1,0 C,0,101871,103079,255,255,255,0,0,255 C,0,103079,104690,0,0,255,255,255,255 F,0,104690,,1
Sprite,Background,Centre,"SB\white flow2.png",320,240 L,40260,24 M,0,0,403,450,440,190,440 M,0,403,806,190,440,450,440 L,40260,13 C,0,0,403,0,0,255,255,255,255 L,46703,7 C,0,0,403,0,0,255,255,255,255 C,0,403,806,0,255,0,255,255,255 C,0,806,1209,255,0,0,255,255,255 C,0,1209,1612,255,255,0,255,255,255 L,88582,36 M,0,0,403,450,440,190,440 M,0,403,806,190,440,450,440 L,88985,12 C,0,0,806,100,100,255,255,255,255 L,98247,12 C,0,0,201,100,100,255,255,255,255 L,104690,8 C,0,0,403,0,0,255,255,255,255 C,0,403,806,0,255,0,255,255,255 C,0,806,1209,255,0,0,255,255,255 C,0,1209,1612,255,255,0,255,255,255 F,0,40260,,1 F,0,59186,59589,1,0 F,0,59589,,0 F,0,88582,,1 F,0,101066,101468,1,0 C,0,101871,103079,255,255,255,0,0,255 C,0,103079,104690,0,0,255,255,255,255 F,0,104690,,1
Sprite,Background,Centre,"SB\white flow3.png",320,240 L,61200,15 M,0,0,1611,-150,70,800,70 L,61602,30 C,0,0,806,100,100,255,255,255,255 C,0,61200,,255,255,255
Sprite,Background,Centre,"SB\white flow3.png",320,240 L,61200,15 M,0,0,1611,800,410,-150,410 L,61602,30 C,0,0,806,100,100,255,255,255,255 C,0,61200,,255,255,255
Sprite,Background,Centre,"SB\black base 1.png",320,240 F,0,20931,,1 F,0,61200,,0 F,0,88582,,1 F,0,117576,,0
Sprite,Background,Centre,"SB\BG2.png",320,240 L,61602,30 C,0,0,806,100,100,255,255,255,255 F,0,61200,,1 S,0,61200,,0.8 C,0,61200,,255,255,255 F,0,86972,88582,1,0 F,0,117576,,0
//Storyboard Layer 1 (Fail)
//Storyboard Layer 2 (Pass)
//Storyboard Layer 3 (Foreground)
Sprite,Foreground,Centre,"SB\blue strobe.png",320,240 L,8045,28 F,0,0,403,1,0.5 S,0,0,403,0.8,0.4 F,0,403,806,1 S,0,403,806,0.8 F,0,4824,8045,0,1 S,0,4824,8045,0,0.8 F,0,30596,32207,1,0
Sprite,Foreground,Centre,"SB\middle strobe.png",320,240 L,8045,28 S,0,0,403,0.8,1 F,0,403,806,1 M,0,1603,,320,240 F,0,1603,4824,0,1 S,0,1603,4824,0,0.8 S,0,4824,8045,0.8 F,0,30596,32207,1,0
Sprite,Foreground,Centre,"SB\star.png",320,170 L,33817,9 R,0,0,3222,0,5 L,33817,29 C,0,0,403,0,0,255,255,255,255 L,46703,7 C,0,0,403,0,0,255,255,255,255 C,0,403,806,0,255,0,255,255,255 C,0,806,1209,255,0,0,255,255,255 C,0,1209,1612,255,255,0,255,255,255 L,104690,4 R,0,0,3222,0,5 L,104690,8 C,0,0,403,0,0,255,255,255,255 C,0,403,806,0,255,0,255,255,255 C,0,806,1209,255,0,0,255,255,255 C,0,1209,1612,255,255,0,255,255,255 F,0,33817,,0.7 S,0,33817,,0.5 F,0,33817,34623,0,1 F,0,59589,60394,1,0 F,0,104287,104690,0,1
Sprite,Foreground,Centre,"SB\ztrot.png",320,320 L,8045,16 C,0,0,806,100,100,255,255,255,255 L,46703,7 C,0,0,403,0,0,255,255,255,255 C,0,403,806,0,255,0,255,255,255 C,0,806,1209,255,0,0,255,255,255 C,0,1209,1612,255,255,0,255,255,255 L,88985,12 C,0,0,806,100,100,255,255,255,255 L,98247,12 C,0,0,201,100,100,255,255,255,255 M,0,8045,20931,800,420,-100,420 F,0,8045,20931,1 F,0,20931,,0 F,0,45898,46703,0,1 M,0,45898,59589,320,320 F,0,58784,59589,1,0 F,0,88582,89388,0,1 F,0,101871,102676,1,0
Sprite,Foreground,Centre,"SB\jericho.png",320,320 L,1603,8 C,0,0,806,100,100,255,255,255,255 L,33817,29 C,0,0,403,0,0,255,255,255,255 L,74488,15 C,0,0,806,100,100,255,255,255,255 M,0,1603,8045,-100,60,800,60 F,0,1603,8045,1 F,0,8045,,0 F,0,33817,34623,0,1 M,0,33817,46703,320,320 F,0,45898,46703,1,0 F,0,74086,,1 M,0,74086,74891,-150,360,150,360 M,0,86166,87374,150,360,-150,360 F,0,87777,,0
Sprite,Foreground,Centre,"SB\andrea.png",320,320 L,20931,8 C,0,0,806,100,100,255,255,255,255 L,27374,9 C,0,0,403,100,100,255,255,255,255 L,61602,15 C,0,0,806,100,100,255,255,255,255 L,104690,8 C,0,0,403,0,0,255,255,255,255 C,0,403,806,0,255,0,255,255,255 C,0,806,1209,255,0,0,255,255,255 C,0,1209,1612,255,255,0,255,255,255 M,0,20529,21334,320,640,320,380 F,0,21334,33012,1 F,0,33012,33817,1,0 F,0,61200,,1 M,0,61200,62005,800,140,450,140 M,0,72878,73683,450,140,800,140 F,0,74086,,0 M,0,104287,,320,320 F,0,104287,104690,0,1 F,0,117576,,0
Sprite,Foreground,Centre,"SB\white.jpg",320,240 F,0,61200,62005,1,0 F,0,117576,118381,1,0
//Storyboard Sound Samples
//Background Colour Transformations
3,100,0,0,0

[TimingPoints]
8,402.711591381972,4,1,2,70,1,0
7844,-100,4,1,1,69,0,0
33616,-100,4,1,2,69,0,0
72374,-100,4,1,2,40,0,0
73784,-100,4,1,2,70,0,0
86166,-100,4,1,2,0,0,0
88381,-100,4,1,2,56,0,0
116871,-200,4,1,2,56,0,0
117072,-200,4,1,2,0,0,0
117475,-100,4,1,2,56,0,0

[HitObjects]
256,24,1618,2,0,B|392:24|408:160|408:160,1,219.999990463257,2|8
408,264,2222,1,0
312,208,2424,2,0,B|248:208|224:272|224:272,1,109.999995231628,0|2
144,368,2826,2,0,B|208:368|224:304|224:304,1,109.999995231628,8|0
144,232,3229,6,0,B|48:136|120:32|120:32,1,219.999990463257,2|8
176,128,3833,1,0
288,128,4035,2,0,B|352:120|376:192|376:192,1,109.999995231628,0|2
464,280,4437,2,0,B|400:288|376:216|376:216,1,109.999995231628,8|0
288,288,4840,6,0,B|184:360|80:288|80:288,1,219.999990463257,2|8
80,176,5444,1,0
192,176,5645,2,0,B|264:176|272:112|272:112,1,109.999995231628,0|2
368,16,6048,2,0,B|296:16|288:80|288:80,1,109.999995231628,8|0
376,152,6451,5,0
432,152,6552,1,0
472,192,6652,1,10
480,248,6753,1,0
456,296,6854,1,0
256,208,7256,1,2
256,208,7357,1,2
256,376,7659,1,4
136,192,8062,5,0
256,296,8263,1,0
376,192,8464,1,8
256,88,8666,1,0
256,88,8766,2,0,B|88:88,1,164.999992847443,2|0
48,192,9270,1,8
256,296,9673,5,2
376,192,9874,1,0
256,88,10075,1,8
144,248,10277,1,0
144,248,10377,1,2
368,248,10679,2,0,B|400:336|288:392|232:320,1,219.999990463257
256,216,11283,5,0
192,120,11485,1,0
320,120,11686,1,8
256,336,11988,1,2
256,56,12290,1,2
256,56,12492,1,8
88,192,12894,6,0,B|88:328|232:328,1,219.999990463257,2|8
256,224,13498,1,0
256,224,13599,1,2
200,72,13901,2,0,B|320:72,1,109.999995231628,2|8
416,264,14505,5,2
256,112,14908,1,8
96,264,15210,1,0
312,304,15512,1,2
200,304,15713,1,8
256,40,16116,6,0,B|392:8|440:136,1,219.999990463257,2|8
440,232,16720,1,0
440,232,16821,1,2
320,344,17123,1,0
256,256,17324,1,8
192,344,17525,1,0
384,256,17727,5,2
128,256,18130,1,8
256,152,18432,2,0,B|224:48|344:16,1,164.999992847443,2|0
360,128,18935,1,8
256,352,19338,1,2
112,192,19740,1,8
256,88,20042,1,2
400,192,20344,1,2
400,192,20546,1,8
440,64,20949,6,0,B|320:56|240:152,1,219.999990463257,4|8
176,216,21553,1,0
176,216,21653,1,0
120,136,21855,1,0
120,136,21955,1,0
32,184,22157,1,8
88,264,22358,5,0
88,264,22459,1,0
88,264,22559,2,0,B|128:320|192:320,1,109.999995231628
280,320,22962,1,8
328,304,23063,1,0
368,272,23163,1,0
392,224,23264,1,0
392,72,23566,2,0,B|328:176|176:160,1,219.999990463257
112,128,24170,6,0,B|176:24|328:40,1,219.999990463257,0|8
392,72,24774,1,0
392,72,24875,1,0
472,128,25076,1,0
472,128,25177,1,0
416,208,25378,6,0,B|352:304,1,109.999995231628,8|0
256,328,25781,1,0
157,299,25982,1,0
157,299,26083,1,0
157,299,26184,2,0,B|96:208,1,109.999995231628,8|0
95,207,26486,1,0
88,56,26788,5,0
256,168,27191,1,0
256,264,27392,1,4
424,56,27795,1,0
36,263,28197,2,0,B|268:263,1,219.999990463257
476,263,29003,2,0,B|244:263,1,219.999990463257
256,56,29808,5,0
32,264,30211,1,0
256,192,30614,1,0
480,264,31016,1,0
112,120,31419,1,0
400,120,31822,1,0
176,272,32224,5,0
208,312,32325,1,0
256,328,32426,1,0
304,312,32526,1,0
336,272,32627,1,0
256,96,33030,1,0
256,96,33131,1,0
256,96,33231,1,0
256,192,33433,1,0
40,192,33835,5,6
32,248,33936,1,0
64,296,34037,1,2
160,352,34238,2,0,B|224:392|264:352|264:352,1,109.999995231628,8|0
320,360,34540,1,2
432,360,34741,1,0
480,328,34842,1,2
376,296,35043,2,0,B|376:184|376:184,1,109.999995231628,8|2
376,72,35446,5,2
376,72,35547,1,0
376,72,35647,1,2
264,72,35849,2,0,B|192:72|176:136|176:136,1,109.999995231628,8|0
136,280,36151,2,0,B|243:248|212:140|212:140,1,164.999992847443,2|0
328,152,36654,2,0,B|328:224|376:256|376:256,1,109.999995231628,8|2
256,352,37057,5,6
256,352,37158,1,0
256,352,37258,1,2
144,352,37460,2,0,B|64:352|64:280|64:280,1,109.999995231628,8|0
64,232,37762,1,2
64,120,37963,1,0
64,176,38064,1,2
64,64,38265,2,0,B|136:72|152:8|152:8,1,109.999995231628,8|2
264,16,38668,5,2
264,72,38768,1,0
272,128,38869,1,2
304,168,38970,1,0
360,184,39071,1,8
360,296,39272,1,0
304,296,39373,1,2
192,296,39574,1,0
248,296,39675,1,2
136,296,39876,2,0,B|56:296|64:216|64:216,1,109.999995231628,8|2
64,120,40279,6,0,B|64:40|144:48|144:48,1,109.999995231628,6|2
184,48,40581,1,0
240,48,40681,1,8
240,160,40883,1,2
336,104,41084,1,0
336,104,41185,1,2
432,160,41386,1,0
432,160,41487,1,10
336,216,41688,1,0
336,328,41890,6,0,B|336:256|336:256,2,54.9999976158142,2|0|2
224,328,42292,1,8
112,328,42494,1,0
168,328,42594,1,0
192,280,42695,1,2
248,280,42796,1,0
224,232,42896,2,0,B|224:112|224:112,1,109.999995231628,2|8
224,16,43299,1,2
336,16,43500,6,0,B|464:16|488:152|488:152,1,219.999990463257,6|8
488,264,44104,1,0
488,320,44205,1,2
392,264,44406,1,0
392,208,44507,1,2
296,264,44708,2,0,B|288:368|176:360|176:360,1,164.999992847443,8|2
128,360,45111,5,0
40,296,45313,1,0
40,184,45514,1,10
40,184,45615,1,0
40,72,45816,1,0
40,72,45917,2,0,B|104:72|128:128|128:128,1,109.999995231628,2|0
240,112,46319,1,10
280,216,46521,1,0
192,280,46722,6,0,B|128:248,2,54.9999976158142,0|2|0
256,192,47125,1,8
256,192,47326,1,0
320,104,47527,2,0,B|384:136,2,54.9999976158142,0|2|0
256,24,47930,1,8
256,24,48132,1,0
192,104,48333,6,0,B|80:104,2,109.999995231628,0|0|8
192,152,48836,2,0,B|64:152,1,109.999995231628,8|0
184,256,49340,1,2
256,320,49541,1,8
328,256,49742,1,0
384,176,49944,5,0
416,208,50044,1,0
408,256,50145,1,2
256,224,50346,1,8
256,224,50548,1,0
128,176,50749,1,0
96,208,50850,1,0
104,256,50951,1,2
200,328,51152,1,8
312,328,51353,1,0
200,240,51555,6,0,B|320:240,2,109.999995231628,0|2|0
200,184,52058,2,0,B|320:184,1,109.999995231628,2|0
336,32,52561,1,2
336,32,52662,1,0
176,32,52863,1,0
176,32,52964,1,2
256,120,53165,6,0,B|384:120|432:240,1,219.999990463257,0|8
408,344,53769,1,0
408,344,53870,1,2
256,288,54172,1,0
256,176,54374,1,8
168,248,54575,1,0
344,248,54776,1,2
256,176,54978,1,0
312,64,55179,1,0
312,64,55280,1,2
200,64,55481,2,0,B|80:64|80:152,1,164.999992847443,2|2
256,352,56186,5,0
256,352,56387,2,0,B|376:352|424:232,1,219.999990463257,0|8
424,120,56991,1,0
424,120,57092,2,0,B|288:136|272:272|80:144,1,329.999985694885
80,64,57897,1,0
80,64,57998,2,0,B|128:32|128:96|200:56,2,109.999995231628
80,64,58501,2,0,B|80:136|0:144,1,109.999995231628
128,320,59005,5,0
256,344,59206,1,0
384,320,59407,1,0
256,264,59609,1,8
256,40,60012,5,8
256,264,60414,1,2
256,264,60515,1,2
256,40,60817,1,2
88,56,61220,5,4
88,56,61421,1,0
88,56,61622,2,0,B|144:160|288:128,1,219.999990463257,8|0
312,224,62226,1,0
232,288,62428,2,0,B|176:184|32:216,1,219.999990463257,8|0
16,312,63032,1,0
112,296,63233,1,8
184,368,63435,1,0
312,224,63837,1,0
312,224,64039,1,8
432,64,64441,6,0,B|320:64,1,109.999995231628
256,136,64844,1,8
80,64,65247,2,0,B|192:64,1,109.999995231628
256,136,65649,1,8
312,224,65851,1,0
200,224,66052,1,0
368,336,66455,5,8
144,336,66858,1,0
192,248,67059,1,0
256,328,67260,1,8
320,248,67462,1,0
368,336,67663,1,0
432,152,68066,5,8
432,152,68267,1,0
432,152,68468,2,0,B|312:152|248:40,1,219.999990463257,0|8
72,128,69274,1,0
152,192,69475,1,0
72,256,69677,2,0,B|144:344,1,109.999995231628,8|0
240,344,70079,2,0,B|360:344|440:248,1,219.999990463257,0|8
256,192,70885,5,0
312,112,71086,1,0
256,32,71287,2,0,B|136:24|48:120,2,219.999990463257,8|0|8
200,112,72294,1,0
256,192,72496,6,0,B|256:240,12,27.4999988079071
256,320,73301,2,0,B|256:280,8,27.4999988079071
120,144,74106,5,0
120,256,74308,1,0
216,208,74509,1,10
104,200,74711,1,0
200,144,74912,1,0
200,256,75113,1,2
296,208,75315,1,8
296,320,75516,1,2
392,264,75717,5,0
496,232,75919,1,0
392,184,76120,1,10
496,152,76321,1,0
392,112,76523,1,0
496,72,76724,1,2
392,40,76925,1,8
288,80,77127,1,2
184,40,77328,5,0
72,40,77529,1,0
232,112,77731,1,10
24,112,77932,1,0
184,184,78134,1,0
72,184,78335,1,2
232,256,78536,1,8
24,256,78738,1,2
184,336,78939,6,0,B|240:368|296:328|296:328,1,109.999995231628
432,336,79342,2,0,B|376:368|320:328|320:328,1,109.999995231628,10|0
296,200,79744,1,0
296,88,79946,1,2
296,88,80046,1,0
296,88,80147,1,8
392,144,80348,1,2
296,88,80550,5,0
184,88,80751,1,0
88,144,80953,2,0,B|-8:232|32:352|32:352,2,219.999990463257,10|0|8
184,192,81959,1,0
256,272,82161,5,0
328,352,82362,1,2
328,352,82463,1,8
408,272,82664,1,0
408,272,82765,1,2
328,200,82966,1,0
328,88,83167,1,0
416,152,83369,1,10
416,40,83570,1,0
328,88,83772,5,0
232,40,83973,1,2
232,40,84074,1,8
136,88,84275,1,0
136,88,84376,1,2
24,88,84577,2,0,B|24:144|80:184|80:184,1,109.999995231628
72,288,84980,2,0,B|144:296|176:224|176:224,1,109.999995231628,8|2
256,184,85382,1,4
424,184,85684,5,2
424,296,85886,1,2
328,240,86087,1,2
256,192,86188,12,0,88201
200,328,88604,6,0,B|256:352|312:328,2,109.999995231629,0|0|8
160,240,89208,1,0
160,240,89309,2,0,B|48:240,1,109.999995231629,2|0
48,168,89611,2,0,B|160:168,1,109.999995231629,2|10
256,248,90014,5,0
352,248,90215,1,0
448,248,90416,2,0,B|512:248,2,54.9999976158143,0|0|10
400,160,90819,1,0
400,160,90920,2,0,B|288:160,1,109.999995231629,2|0
288,88,91222,2,0,B|400:88,1,109.999995231629,2|10
496,120,91624,1,2
448,336,91826,5,0
352,336,92027,1,0
256,336,92228,1,10
176,272,92430,1,0
176,232,92530,2,0,B|56:232,1,109.999995231629,2|0
64,160,92833,2,0,B|184:160,1,109.999995231629,2|10
256,280,93235,5,0
328,136,93437,1,0
184,136,93638,1,0
344,232,93839,1,10
168,232,94041,1,0
168,232,94141,1,2
256,88,94343,1,0
256,88,94443,1,2
256,192,94645,5,8
256,192,94745,1,0
256,192,94846,1,0
256,192,94947,1,0
208,160,95047,5,0
304,160,95249,1,0
256,248,95450,1,10
328,328,95652,1,0
328,328,95752,1,2
184,328,95954,1,2
184,328,96054,1,0
256,248,96256,1,10
160,240,96457,5,0
168,144,96658,1,0
256,96,96860,1,0
344,144,97061,2,0,B|408:168|408:240,1,109.999995231628,10|0
407,225,97363,2,0,B|408:288|360:320,1,109.999995231628,2|2
360,319,97665,2,0,B|304:336|240:328,1,109.999995231628,0|8
240,328,97967,1,0
232,328,98068,1,0
224,328,98168,1,0
216,328,98269,5,4
136,192,98470,1,0
256,64,98672,1,8
376,192,98873,1,0
256,328,99075,1,4
168,112,99276,1,0
344,112,99477,1,8
168,272,99679,1,0
344,272,99880,1,4
256,192,100081,5,0
256,192,100283,1,4
256,192,100484,1,0
256,192,100685,1,4
256,192,100887,1,0
256,192,101088,1,4
256,192,101289,12,0,104511
146,40,104713,6,0,B|370:40,1,219.999990463257,4|8
464,40,105317,1,0
464,40,105417,2,0,B|464:128|392:192,1,164.999992847443
336,264,105921,1,8
336,264,106021,1,0
248,216,106223,1,0
248,216,106323,1,0
296,128,106525,1,0
200,128,106726,5,8
152,152,106827,1,0
128,192,106927,1,0
152,232,107028,1,0
256,336,107330,2,0,B|376:336|440:192,1,219.999990463257
427,217,107934,1,0
256,120,108337,5,8
192,40,108538,1,0
192,40,108639,2,0,B|80:40,1,109.999995231628
82,40,108941,1,0
24,120,109142,1,8
64,312,109545,1,0
144,256,109746,1,0
192,344,109948,5,8
232,312,110048,1,0
280,312,110149,1,0
320,344,110250,1,0
448,272,110552,1,0
448,72,110955,5,0
448,72,111156,2,0,B|408:184|264:208,1,219.999990463257,0|8
256,112,111760,1,0
256,112,111861,1,0
112,72,112163,2,0,B|24:152,1,109.999995231628,0|8
30,238,112565,1,0
30,238,112666,1,0
30,238,112767,2,0,B|112:312,1,109.999995231628
208,328,113169,5,8
256,352,113270,1,0
296,328,113371,1,0
256,304,113471,2,0,B|256:120,1,164.999992847443
152,72,114176,5,0
152,72,114378,2,0,B|256:8|366:72,1,219.999990463257,0|8
448,120,114982,1,0
448,120,115082,1,0
376,248,115384,5,0
320,328,115586,2,0,B|296:272,1,54.9999976158142,8|0
192,328,115888,2,0,B|216:272,1,54.9999976158142
136,248,116190,1,0
208,184,116391,1,8
208,184,116492,1,0
304,184,116693,1,0
256,64,116995,6,0,B|256:128,2,54.9999976158142
256,64,117599,1,4
