osu file format v4

[General]
AudioFilename: alvin and the chipmunks - uptown girl.mp3
AudioLeadIn: 0
AudioHash: 69c4ac1e475745a9ccad001bbc8bb435
PreviewTime: -1
SampleSet: Normal

[Metadata]
Title:Uptown Girl
Artist:Alvin and the Chipmunks
Creator:nintendoto
Version:

[Difficulty]
HPDrainRate:2
CircleSize:5
OverallDifficulty:5
SliderMultiplier: 1.4
SliderTickRate: 1

[Events]
0,0,"Alvin and the Chipmunks.jpg"
3,0,163,162,255

[TimingPoints]
1253,415.874498991232,4,1,0

[HitObjects]
256,192,1253,1,0,
256,192,1668,1,0,
256,192,2084,1,0,
256,192,2448,1,0,
256,192,2864,1,0,
256,192,3280,1,0,
256,192,3748,1,0,
256,192,4164,1,0,
256,192,4579,5,0,
256,192,4995,1,0,
256,192,5411,1,0,
256,192,5827,1,0,
256,192,6243,1,0,
256,192,6659,1,0,
256,192,7075,1,0,
256,192,7543,5,0,
256,192,7958,1,0,
256,192,8374,1,0,
256,192,9466,5,0,
256,192,9674,1,0,
256,192,9882,1,0,
256,192,10090,1,0,
256,192,10298,1,0,
256,192,10454,1,0,
256,192,10662,1,0,
256,192,10870,1,0,
256,192,11233,1,0,
256,192,11649,1,0,
256,192,12689,5,0,
256,192,12897,1,0,
256,192,13105,1,0,
256,192,13261,1,0,
256,192,13469,1,0,
256,192,13677,1,0,
256,192,13833,1,0,
256,192,14041,1,0,
256,192,14560,5,0,
256,192,14976,1,0,
256,192,16016,5,0,
256,192,16224,1,0,
256,192,16432,1,0,
256,192,16640,1,0,
256,192,16796,1,0,
256,192,17004,1,0,
256,192,17264,1,0,
256,192,17472,1,0,
256,192,17991,5,0,
256,192,18407,1,0,
256,192,19343,5,0,
256,192,19603,1,0,
256,192,19811,1,0,
256,192,20019,1,0,
256,192,21059,5,0,
256,192,21266,1,0,
256,192,21422,1,0,
256,192,21630,1,0,
256,192,22878,1,0,
256,192,23034,1,0,
256,192,23190,1,0,
256,192,23450,1,0,
256,192,23658,1,0,
256,192,23866,1,0,
256,192,24022,1,0,
256,192,24230,1,0,
256,192,24593,1,0,
256,192,25009,1,0,
256,192,26153,5,0,
256,192,26309,1,0,
256,192,26517,1,0,
256,192,26725,1,0,
256,192,26933,1,0,
256,192,27141,1,0,
256,192,27349,1,0,
256,192,27557,1,0,
256,192,27972,1,0,
256,192,28284,1,0,
256,192,29532,5,0,
256,192,29740,1,0,
256,192,29896,1,0,
256,192,30104,1,0,
256,192,30312,1,0,
256,192,30520,1,0,
256,192,30728,1,0,
256,192,30936,1,0,
256,192,31299,1,0,
256,192,31663,1,0,
256,192,32807,5,0,
256,192,33015,1,0,
256,192,33171,1,0,
256,192,33379,1,0,
256,192,34574,5,0,
256,192,34990,1,0,
256,192,35458,1,0,
256,192,35874,1,0,
256,192,36706,1,0,
256,192,37122,1,0,
256,192,37486,1,0,
256,192,38317,1,0,
256,192,38837,1,0,
256,192,39305,5,0,
256,192,39513,1,0,
256,192,39669,1,0,
256,192,39877,1,0,
256,192,40085,1,0,
256,192,41280,5,0,
256,192,41644,1,0,
256,192,42060,1,0,
256,192,42476,1,0,
256,192,43308,1,0,
256,192,43776,1,0,
256,192,44192,1,0,
256,192,45075,1,0,
256,192,45543,1,0,
256,192,45907,5,0,
256,192,46115,1,0,
256,192,46323,1,0,
256,192,46531,1,0,
256,192,46739,1,0,
256,192,48038,5,0,
256,192,48402,1,0,
256,192,48818,1,0,
256,192,49286,1,0,
256,192,49702,1,0,
256,192,50118,1,0,
256,192,51261,1,0,
256,192,51521,1,0,
256,192,51885,1,0,
256,192,52665,1,0,
256,192,53029,1,0,
256,192,53393,1,0,
256,192,54276,5,0,
256,192,54484,1,0,
256,192,54848,1,0,
256,192,55108,1,0,
256,192,56200,1,0,
256,192,56408,1,0,
256,192,56616,1,0,
256,192,56772,1,0,
256,192,56980,1,0,
256,192,57188,1,0,
256,192,57396,1,0,
256,192,57655,5,0,
256,192,58019,1,0,
256,192,58383,1,0,
256,192,59423,5,0,
256,192,59631,1,0,
256,192,59787,1,0,
256,192,59995,1,0,
256,192,60203,1,0,
256,192,60463,1,0,
256,192,60619,1,0,
256,192,60982,5,0,
256,192,61346,1,0,
256,192,61710,1,0,
256,192,62906,5,0,
256,192,63166,1,0,
256,192,63322,1,0,
256,192,63530,1,0,
256,192,63738,1,0,
256,192,63946,1,0,
256,192,64309,5,0,
256,192,64673,1,0,
256,192,65037,1,0,
256,192,66233,5,0,
256,192,66389,1,0,
256,192,66649,1,0,
256,192,66805,1,0,
256,192,67948,5,0,
256,192,68364,1,0,
256,192,68780,1,0,
256,192,69248,1,0,
256,192,69612,1,0,
256,192,70028,1,0,
256,192,70496,1,0,
256,192,70859,1,0,
256,192,71327,5,0,
256,192,71743,1,0,
256,192,72159,1,0,
256,192,72627,1,0,
256,192,72991,1,0,
256,192,73407,5,0,
256,192,73875,1,0,
256,192,74290,1,0,
256,192,74758,5,0,
256,192,75174,1,0,
256,192,75590,1,0,
256,192,76058,1,0,
256,192,76422,1,0,
256,192,76890,5,0,
256,192,77254,1,0,
256,192,77617,1,0,
256,192,78033,1,0,
256,192,78449,1,0,
256,192,78865,5,0,
256,192,79281,1,0,
256,192,79697,1,0,
256,192,80113,1,0,
256,192,80581,1,0,
256,192,81048,5,0,
256,192,81412,1,0,
256,192,81828,1,0,
256,192,83076,5,0,
256,192,83232,1,0,
256,192,83440,1,0,
256,192,83700,1,0,
256,192,84012,1,0,
256,192,84687,5,0,
256,192,84895,1,0,
256,192,85103,1,0,
256,192,85363,1,0,
256,192,85623,1,0,
256,192,85831,1,0,
256,192,86039,1,0,
256,192,86455,5,0,
256,192,86871,1,0,
256,192,88014,5,0,
256,192,88170,1,0,
256,192,88326,1,0,
256,192,88586,1,0,
256,192,88794,1,0,
256,192,89054,1,0,
256,192,89262,1,0,
256,192,89418,1,0,
256,192,89782,1,0,
256,192,90146,1,0,
256,192,91237,5,0,
256,192,91393,1,0,
256,192,91601,1,0,
256,192,91861,1,0,
256,192,92069,1,0,
256,192,93005,5,0,
256,192,93421,1,0,
256,192,93837,1,0,
256,192,94304,1,0,
256,192,95084,1,0,
256,192,95552,1,0,
256,192,95968,1,0,
256,192,96748,1,0,
256,192,97683,5,0,
256,192,97891,1,0,
256,192,98151,1,0,
256,192,98359,1,0,
256,192,98567,1,0,
256,192,99711,5,0,
256,192,100127,1,0,
256,192,100543,1,0,
256,192,100906,1,0,
256,192,101738,1,0,
256,192,102206,1,0,
256,192,102674,1,0,
256,192,103506,1,0,
256,192,103974,1,0,
256,192,104337,5,0,
256,192,104545,1,0,
256,192,104805,1,0,
256,192,105013,1,0,
256,192,105221,1,0,
256,192,106365,5,0,
256,192,106781,1,0,
256,192,107249,1,0,
256,192,107664,1,0,
256,192,108080,1,0,
256,192,108496,1,0,
256,192,109640,5,0,
256,192,109952,1,0,
256,192,110264,1,0,
256,192,110991,1,0,
256,192,111407,1,0,
256,192,111823,1,0,
256,192,112343,5,0,
256,192,112655,1,0,
256,192,112811,1,0,
256,192,113175,1,0,
256,192,113487,1,0,
256,192,114682,5,0,
256,192,114890,1,0,
256,192,115046,1,0,
256,192,115254,1,0,
256,192,115514,1,0,
256,192,115722,1,0,
256,192,115982,1,0,
256,192,116398,1,0,
256,192,116762,1,0,
256,192,117853,5,0,
256,192,118113,1,0,
256,192,118321,1,0,
256,192,118529,1,0,
256,192,118789,1,0,
256,192,118997,1,0,
256,192,119153,1,0,
256,192,119413,1,0,
256,192,119777,1,0,
256,192,120193,1,0,
256,192,121232,5,0,
256,192,121440,1,0,
256,192,121648,1,0,
256,192,121908,1,0,
256,192,122116,1,0,
256,192,122324,1,0,
256,192,122532,1,0,
256,192,122740,1,0,
256,192,123104,1,0,
256,192,123468,1,0,
256,192,124559,5,0,
256,192,124767,1,0,
256,192,124975,1,0,
256,192,125183,1,0,
256,192,126431,5,0,
256,192,126847,1,0,
256,192,127262,1,0,
256,192,127678,1,0,
256,192,128042,1,0,
256,192,128458,1,0,
256,192,128926,1,0,
256,192,129342,1,0,
256,192,129810,5,0,
256,192,130226,1,0,
256,192,130589,1,0,
256,192,131005,1,0,
256,192,131421,1,0,
256,192,131889,5,0,
256,192,132253,1,0,
256,192,132669,1,0,
256,192,133345,5,0,
256,192,133709,1,0,
256,192,133968,1,0,
256,192,134332,1,0,
256,192,134748,1,0,
256,192,135216,5,0,
256,192,135632,1,0,
256,192,136048,1,0,
256,192,136412,5,0,
256,192,136880,1,0,
256,192,137347,5,0,
256,192,137711,5,0,
256,192,138075,5,0,
256,192,138595,5,0,
256,192,139011,5,0,
256,192,139427,1,0,
256,192,139895,1,0,
256,192,140259,1,0,
256,192,141194,5,0,
256,192,141402,1,0,
256,192,141610,1,0,
256,192,141818,1,0,
256,192,142026,1,0,
256,192,142286,1,0,
256,192,142442,1,0,
256,192,142650,1,0,
256,192,143066,1,0,
256,192,143482,1,0,
256,192,144573,5,0,
256,192,144937,1,0,
256,192,145353,1,0,
256,192,145717,1,0,
256,192,146081,1,0,
256,192,146445,1,0,
256,192,146861,1,0,
256,192,147484,5,0,
256,192,147744,1,0,
256,192,148056,1,0,
256,192,148264,1,0,
256,192,148472,1,0,
256,192,148732,1,0,
256,192,148992,1,0,
256,192,149356,1,0,
256,192,149824,1,0,
256,192,150188,1,0,
256,192,150603,1,0,
256,192,151279,1,0,
256,192,151643,5,0,
256,192,151903,1,0,
256,192,152735,1,0,
256,192,153099,1,0,
256,192,153515,1,0,
256,192,154034,1,0,
256,192,154710,5,0,
256,192,154918,1,0,
256,192,155178,1,0,
256,192,155594,1,0,
256,192,156062,1,0,
256,192,156530,1,0,
256,192,157101,1,0,
256,192,158141,1,0,
256,192,158609,1,0,
256,192,158973,1,0,
256,192,159441,1,0,
256,192,159805,1,0,
256,192,160221,1,0,
256,192,161260,5,0,
256,192,161468,1,0,
256,192,161936,1,0,
256,192,162768,1,0,
256,192,163236,1,0,
256,192,163651,1,0,
256,192,163807,1,0,
