osu file format v9

[General]
AudioFilename: 05 - Stygian.mp3
AudioLeadIn: 0
PreviewTime: 192000
Countdown: 1
SampleSet: Soft
StackLeniency: 0.7
Mode: 0
LetterboxInBreaks: 1
EpilepsyWarning: 1

[Editor]
DistanceSpacing: 1.1
BeatDivisor: 4
GridSize: 4

[Metadata]
Title:Stygian
Artist:Alstroemeria Records
Creator:palinus
Version:Hard+
Source:Touhou
Tags:ALiCE'S EMOTiON REDALiCE Komachi higan retour ~ riverside view

[Difficulty]
HPDrainRate:5
CircleSize:4
OverallDifficulty:5
ApproachRate:8
SliderMultiplier:1.4
SliderTickRate:2

[Events]
//Background and Video events
0,0,"komachibg.jpg"
//Break Periods
2,88815,102634
2,177430,191250
//Storyboard Layer 0 (Background)
//Storyboard Layer 1 (Fail)
//Storyboard Layer 2 (Pass)
//Storyboard Layer 3 (Foreground)
//Storyboard Sound Samples
//Background Colour Transformations
3,100,163,162,255

[TimingPoints]
0,461.538461538462,4,2,0,65,1,0
40730,-50,4,2,0,65,0,0
41538,-100,4,2,0,65,0,0
44307,-50,4,2,0,65,0,0
59076,-50,4,2,0,65,0,1
75692,-100,4,2,0,65,0,1
79269,-50,4,2,0,65,0,1
88615,-50,4,2,0,65,0,0
110884,-100,4,2,0,65,0,0
115269,-50,4,2,0,65,0,0
117346,-100,4,2,0,65,0,0
129230,-50,4,2,0,65,0,0
147576,-50,4,2,0,65,0,1
149423,-100,4,2,0,65,0,1
153000,-50,4,2,0,65,0,1
177461,-50,4,2,0,65,0,0
206192,-50,4,2,0,65,0,1
236538,-50,4,2,0,65,0,0

[Colours]
Combo1 : 200,0,0
Combo2 : 255,255,255
Combo3 : 255,0,0
Combo4 : 200,0,200
Combo5 : 255,70,70

[HitObjects]
128,120,14769,1,0
200,120,14999,1,0
240,64,15230,2,0,B|232:128|248:184|304:192|368:184|384:152|376:176,1,210
368,104,16153,1,0
312,232,16615,5,0
269,289,16846,1,0
224,344,17076,1,0
198,278,17307,1,0
169,212,17538,1,0
72,256,17769,5,0
72,256,17884,1,0
256,128,18115,1,0
256,128,18230,1,0
352,296,18692,5,0
320,252,18807,1,0
288,208,18923,1,0
252,164,19038,1,0
224,120,19153,1,0
128,184,19384,2,0,B|96:264|144:336,1,140
133,319,20076,1,0
288,280,20538,5,0
216,208,20769,1,0
272,120,21000,1,0
208,40,21230,1,0
152,128,21461,5,0
152,128,21576,1,0
368,192,21807,1,0
368,192,21923,1,0
144,264,22384,5,0
184,152,22615,2,0,B|176:72,1,70
184,152,23076,1,0
344,152,23307,2,0,B|408:88,1,70
393,102,23653,1,0
393,102,23769,1,0
408,232,24230,5,0
320,288,24461,1,0
264,208,24692,1,0
345,153,24923,1,0
200,288,25153,5,0
200,288,25269,1,0
352,184,25500,1,0
352,184,25615,1,0
160,128,26076,6,0,B|112:56,2,70
272,176,26769,1,0
368,112,27000,1,0
376,232,27230,1,0
272,176,27461,1,0
176,288,27923,5,0
336,224,28153,1,0
176,160,28384,1,0
336,96,28615,1,0
176,216,28846,6,0,B|192:176,2,35
320,184,29192,6,0,B|336:224,2,35
384,272,29769,2,0,B|432:184|368:120,1,140
384,139,30461,1,0
136,136,30692,1,0
136,136,30807,1,0
208,296,31153,1,0
288,64,31615,6,0,B|376:72|368:168,1,140
288,64,32307,1,0
256,192,32538,1,0
256,192,32653,1,0
104,96,33000,1,0
224,304,33461,5,0
328,248,33692,1,0
400,152,33923,1,0
280,144,34153,1,0
184,72,34384,1,0
184,72,34500,1,0
136,240,34846,5,0
352,120,35307,2,0,B|416:80,2,70
376,288,36000,2,0,B|424:224|376:160,1,140
376,288,36923,5,0
256,264,37153,1,0
256,264,37269,1,0
256,264,37384,1,0
96,192,37615,5,0
128,128,37846,1,0
160,64,38076,1,0
208,120,38307,1,0
256,176,38538,1,0
96,192,39000,2,0,B|88:256|88:256|176:304,1,140
154,292,39692,1,0
368,160,39923,5,0
368,160,40038,1,0
152,72,40384,1,0
184,216,40846,2,0,B|328:160,2,140
312,216,41538,1,0
184,168,41769,1,0
184,168,41884,1,0
376,136,42230,5,0
200,312,42692,5,0
192,288,42807,1,0
184,264,42923,1,0
176,240,43038,1,0
168,216,43153,1,0
160,192,43269,1,0
312,72,43615,5,0
320,96,43730,1,0
328,120,43846,1,0
336,144,43961,1,0
344,168,44076,1,0
352,192,44192,1,0
328,192,44307,6,0,B|160:192,3,140
264,80,45461,1,0
392,128,45692,1,0
432,264,45923,1,0
152,277,46384,2,0,B|160:192|228:171,2,140
152,64,47076,2,0,B|160:152|256:184,1,140
228,171,47538,1,0
88,168,47769,1,0
344,288,48230,5,0
448,192,48461,1,0
344,288,48692,1,0
168,104,49153,1,0
56,192,49384,1,0
168,104,49615,1,0
192,296,49846,6,0,B|272:360|344:264,1,140
352,192,50307,1,0
320,96,50538,6,0,B|240:32|168:120,1,140
160,192,51000,1,0
360,64,51923,6,0,B|392:128|392:128|336:224,1,140
357,187,52384,1,0
296,120,52846,6,0,B|328:184|328:184|272:280,1,140
293,243,53307,1,0
224,192,53769,6,0,B|192:256|192:256|248:352,2,140
224,192,54461,1,0
128,192,54692,6,0,B|160:128|160:128|104:32,2,140
128,192,55384,1,0
384,192,56307,1,0
256,192,57230,1,0
256,192,57346,1,0
256,192,57461,12,0,58153
184,192,58615,5,0
328,192,58846,1,0
256,120,59076,2,0,B|256:312,1,140
256,260,59538,1,0
104,232,60000,6,0,B|136:56|344:64,1,280
296,64,60692,1,0
408,144,60923,6,0,B|376:320|168:312,2,280
152,144,62076,1,0
152,144,62192,1,0
368,240,62423,5,0
368,240,62538,1,0
256,192,62769,1,0
144,64,63000,6,0,B|64:80|64:176,3,140
104,240,63923,2,0,B|160:312|296:296|320:240|344:168,1,280
112,112,64730,1,0
352,64,65076,1,0
400,288,65423,1,0
152,328,65769,1,0
256,192,66115,5,0
128,192,66461,1,0
160,120,66692,1,0
192,48,66923,1,0
248,104,67153,1,0
304,160,67384,1,0
360,216,67615,6,0,B|456:192|440:80,1,140
440,120,67961,1,0
408,288,68307,1,0
344,320,68538,1,0
280,352,68769,1,0
280,280,69000,1,0
280,208,69230,1,0
136,248,69461,5,0
136,248,69576,1,0
280,72,69807,1,0
280,72,69923,1,0
136,64,70153,5,0
376,136,70500,1,0
136,160,70846,1,0
376,224,71192,1,0
136,248,71538,1,0
376,312,71884,1,0
256,264,72230,6,0,B|256:120,1,140
368,64,72692,1,0
456,152,72923,2,0,B|400:224|280:168,2,140
368,64,73615,5,0
320,184,73846,2,0,B|336:352|136:368|48:304|72:144,1,420
200,176,74769,2,0,B|184:8|384:-8|472:56|448:216,1,420
296,224,75692,2,0,B|256:312|152:296|128:224,1,210
216,160,76615,2,0,B|256:72|360:88|384:160,1,210
380,150,77538,5,0
368,304,77884,1,0
248,216,78230,1,0
380,150,78576,2,0,B|456:240|368:320,1,175
320,224,79384,2,0,B|224:328|112:200,4,210
312,96,80999,1,0
192,64,81230,1,0
192,64,81461,1,0
112,208,82153,5,0
160,264,82384,1,0
224,296,82615,1,0
296,296,82846,1,0
160,264,83076,1,0
192,200,83307,5,0
248,152,83538,1,0
192,200,83769,1,0
256,232,83999,1,0
400,168,84230,5,0
400,168,84346,1,0
160,72,84576,1,0
160,72,84692,2,0,B|88:136|160:224,1,140
120,304,85153,1,0
312,320,85384,1,0
360,272,85499,1,0
344,104,85730,1,0
136,152,86076,5,0
184,304,86538,2,0,B|104:192|104:192|192:64,1,280
328,72,87230,2,0,B|408:184|408:184|320:312,1,280
256,192,87923,12,0,88615
256,192,103384,5,0
280,124,103615,1,0
308,56,103846,1,0
364,104,104076,1,0
412,156,104307,1,0
388,228,104538,1,0
360,296,104769,1,0
360,296,104884,1,0
68,184,105461,5,0
264,144,105692,2,0,B|144:276,1,140
368,204,106153,1,0
216,56,106384,1,0
216,56,106499,1,0
172,288,106730,5,0
172,288,106846,1,0
288,128,107307,2,0,B|388:128|408:240,1,140
304,216,107769,2,0,B|248:288|148:256,1,140
208,184,108230,2,0,B|164:92|240:44,1,140
223,56,108576,1,0
428,140,109153,5,0
452,280,109384,1,0
324,224,109615,1,0
300,84,109846,1,0
388,256,110076,1,0
388,256,110192,1,0
148,308,110423,5,0
148,308,110538,1,0
364,164,110999,2,0,B|412:228,1,70
364,164,111461,1,0
212,244,111692,2,0,B|172:304,1,70
212,244,112153,1,0
212,244,112269,1,0
68,140,112846,5,0
112,84,113076,1,0
160,32,113307,1,0
188,96,113538,1,0
212,164,113769,1,0
212,164,113884,1,0
68,140,114115,5,0
68,140,114230,1,0
256,324,114692,1,0
380,268,114923,1,0
380,120,115153,1,0
256,64,115384,2,0,B|128:124,1,140
128,268,115846,1,0
128,268,115961,5,0
128,268,116076,1,0
352,88,116538,1,0
152,156,116769,1,0
356,236,116999,5,0
148,292,117230,1,0
352,192,117461,2,0,B|392:236,2,35
160,192,117807,2,0,B|116:144,2,35
220,128,118384,5,0
336,196,118615,1,0
212,260,118846,1,0
260,196,119076,1,0
376,136,119307,1,0
376,136,119423,1,0
304,296,119769,1,0
224,64,120230,6,0,B|136:72|144:168,1,140
224,64,120923,1,0
256,192,121153,1,0
256,192,121269,1,0
408,96,121615,1,0
288,304,122076,5,0
184,248,122307,1,0
112,152,122538,1,0
232,144,122769,1,0
328,72,122999,1,0
328,72,123115,1,0
376,240,123461,5,0
160,120,123923,2,0,B|96:80,2,70
136,288,124615,2,0,B|88:224|136:160,1,140
136,288,125538,5,0
256,264,125769,1,0
256,264,125884,1,0
256,264,125999,1,0
416,192,126230,5,0
384,128,126461,1,0
352,64,126692,1,0
304,120,126923,1,0
256,176,127153,1,0
416,192,127615,2,0,B|424:256|424:256|336:304,1,140
358,292,128307,1,0
144,160,128538,5,0
144,160,128653,1,0
360,72,128999,1,0
328,216,129461,2,0,B|184:160,2,140
200,216,130153,1,0
328,168,130384,1,0
328,168,130499,1,0
136,136,130846,5,0
312,312,131307,5,0
320,288,131423,1,0
328,264,131538,1,0
336,240,131653,1,0
344,216,131769,1,0
352,192,131884,1,0
200,72,132230,5,0
192,96,132346,1,0
184,120,132461,1,0
176,144,132576,1,0
168,168,132692,1,0
160,192,132807,1,0
184,192,132923,6,0,B|352:192,3,140
248,304,134076,1,0
120,256,134307,1,0
80,120,134538,1,0
360,104,134999,2,0,B|352:192|256:224,2,140
360,320,135692,2,0,B|352:232|256:200,1,140
284,213,136153,1,0
424,216,136384,1,0
196,212,136846,5,0
64,192,137076,1,0
104,72,137307,1,0
320,164,137769,1,0
456,192,137999,1,0
432,316,138230,1,0
316,308,138461,6,0,B|236:244|164:340,1,140
160,192,138923,1,0
192,72,139153,6,0,B|272:136|344:48,1,140
352,192,139615,1,0
152,320,140538,6,0,B|120:256|120:256|176:160,1,140
155,197,140999,1,0
156,196,141461,6,0,B|124:132|124:132|180:36,1,140
219,141,141923,1,0
288,192,142384,6,0,B|320:128|320:128|264:32,2,140
384,192,143076,1,0
384,192,143307,6,0,B|352:256|352:256|408:352,2,140
384,100,143999,1,0
128,192,144923,1,0
256,192,145846,1,0
256,192,145961,1,0
256,192,146076,12,0,146769
312,184,147230,5,0
72,176,147461,1,0
192,184,147692,2,0,B|176:352|376:368|464:304|440:144,1,420
312,176,148615,2,0,B|328:8|128:-8|40:56|64:216,1,420
216,224,149538,2,0,B|256:312|360:296|384:224,1,210
296,160,150461,2,0,B|256:72|152:88|128:160,1,210
132,150,151384,5,0
130,307,151730,1,0
264,216,152076,1,0
132,150,152423,2,0,B|56:240|144:320,1,175
192,224,153230,2,0,B|288:328|400:200,4,210
200,96,154846,1,0
320,64,155076,1,0
320,64,155307,1,0
400,208,155999,5,0
352,264,156230,1,0
288,296,156461,1,0
216,296,156692,1,0
352,264,156923,1,0
320,200,157153,5,0
264,152,157384,1,0
320,200,157615,1,0
256,232,157846,1,0
112,168,158076,5,0
112,168,158192,1,0
352,72,158423,1,0
352,72,158538,2,0,B|424:136|352:224,1,140
392,304,158999,1,0
200,320,159230,1,0
152,272,159346,1,0
168,104,159576,1,0
376,152,159923,5,0
160,308,160384,2,0,B|240:196|240:196|152:68,1,280
352,76,161076,2,0,B|272:188|272:188|360:316,1,280
328,192,161999,5,0
184,192,162230,1,0
256,264,162461,2,0,B|256:72,1,140
256,124,162923,1,0
408,152,163384,6,0,B|376:328|168:320,1,280
216,320,164076,1,0
104,240,164307,6,0,B|136:64|344:72,2,280
360,240,165461,1,0
360,240,165576,1,0
144,144,165807,5,0
144,144,165923,1,0
256,192,166153,1,0
368,320,166384,6,0,B|448:304|448:208,3,140
408,144,167307,2,0,B|352:72|216:88|192:144|168:216,1,280
400,272,168115,1,0
160,320,168461,1,0
112,96,168807,1,0
360,56,169153,1,0
256,192,169500,5,0
384,192,169846,1,0
352,264,170076,1,0
320,336,170307,1,0
264,280,170538,1,0
208,224,170769,1,0
152,168,171000,6,0,B|56:192|72:304,1,140
73,272,171346,1,0
104,96,171692,1,0
168,64,171923,1,0
232,32,172153,1,0
232,104,172384,1,0
232,176,172615,1,0
376,136,172846,5,0
376,136,172961,1,0
232,312,173192,1,0
232,312,173307,1,0
376,320,173538,5,0
136,248,173884,1,0
376,224,174230,1,0
136,160,174576,1,0
376,136,174923,1,0
136,72,175269,1,0
256,120,175615,6,0,B|256:264,1,140
144,320,176076,1,0
200,216,176307,2,0,B|256:144|376:200,2,140
132,144,176923,5,0
256,60,177076,1,0
380,144,177230,1,0
328,192,192000,6,0,B|160:192,3,140
264,304,193153,1,0
392,256,193384,1,0
432,120,193615,1,0
268,96,194076,2,0,B|276:184|372:216,1,140
344,204,194538,5,0
240,280,194769,2,0,B|232:192|136:160,1,140
164,172,195230,1,0
88,216,195461,1,0
344,96,195923,5,0
256,188,196153,1,0
344,96,196384,1,0
168,280,196846,1,0
256,188,197076,1,0
168,280,197307,1,0
192,88,197538,6,0,B|272:24|344:120,1,140
352,192,198000,1,0
320,288,198230,6,0,B|240:352|168:264,1,140
160,192,198692,1,0
360,320,199615,6,0,B|392:256|392:256|336:160,1,140
357,197,200076,1,0
296,264,200538,6,0,B|328:200|328:200|272:104,1,140
293,141,201000,1,0
224,192,201461,6,0,B|192:128|192:128|248:32,2,140
224,192,202153,1,0
128,192,202384,6,0,B|160:256|160:256|104:352,2,140
128,192,203076,1,0
384,192,204000,1,0
256,192,204923,1,0
256,192,205038,1,0
256,192,205153,12,0,205846
328,192,206307,5,0
184,192,206538,1,0
256,120,206769,2,0,B|256:312,1,140
256,260,207230,1,0
408,232,207692,6,0,B|376:56|168:64,1,280
216,64,208384,1,0
104,144,208615,6,0,B|136:320|344:312,2,280
360,144,209769,1,0
360,144,209884,1,0
144,240,210115,5,0
144,240,210230,1,0
256,192,210461,1,0
368,64,210692,6,0,B|448:80|448:176,3,140
408,240,211615,2,0,B|352:312|216:296|192:240|168:168,1,280
400,112,212423,1,0
160,64,212769,1,0
112,288,213115,1,0
360,328,213461,1,0
256,192,213807,5,0
384,192,214153,1,0
352,120,214384,1,0
320,48,214615,1,0
264,104,214846,1,0
208,160,215076,1,0
152,216,215307,6,0,B|56:192|72:80,1,140
72,120,215653,1,0
104,288,216000,1,0
168,320,216230,1,0
232,352,216461,1,0
232,280,216692,1,0
232,208,216923,1,0
376,248,217153,5,0
376,248,217269,1,0
232,72,217500,1,0
232,72,217615,1,0
376,64,217846,5,0
136,136,218192,1,0
376,160,218538,1,0
136,224,218884,1,0
376,248,219230,1,0
136,312,219576,1,0
256,264,219923,6,0,B|256:120,1,140
360,60,220384,5,0
156,60,220615,1,0
184,192,221076,5,0
328,192,221307,1,0
256,264,221538,2,0,B|256:72,1,140
256,124,222000,1,0
104,152,222461,6,0,B|136:328|344:320,1,280
296,320,223153,1,0
408,240,223384,6,0,B|376:64|168:72,2,280
152,240,224538,1,0
152,240,224653,1,0
368,144,224884,5,0
368,144,225000,1,0
256,192,225230,1,0
144,320,225461,6,0,B|64:304|64:208,3,140
104,144,226384,2,0,B|160:72|296:88|320:144|344:216,1,280
112,272,227192,1,0
352,320,227538,1,0
400,96,227884,1,0
152,56,228230,1,0
256,192,228576,5,0
128,192,228923,1,0
160,264,229153,1,0
192,336,229384,1,0
248,280,229615,1,0
304,224,229846,1,0
360,168,230076,6,0,B|456:192|440:304,1,140
440,264,230423,1,0
408,96,230769,1,0
344,64,231000,1,0
280,32,231230,1,0
280,104,231461,1,0
280,176,231692,1,0
136,136,231923,5,0
136,136,232038,1,0
280,312,232269,1,0
280,312,232384,1,0
136,320,232615,5,0
376,248,232961,1,0
136,224,233307,1,0
376,160,233653,1,0
136,136,234000,1,0
376,72,234346,1,0
256,120,234692,6,0,B|256:264,1,140
368,320,235153,1,0
420,220,235384,1,0
136,272,235846,5,0
116,132,236000,1,0
244,188,236153,1,0
168,200,236307,5,0
256,76,236538,5,0
328,100,236769,1,0
400,128,237000,1,0
384,200,237230,1,0
364,272,237461,1,0
112,276,237692,1,0
112,276,237807,5,0
112,276,237923,1,0
208,92,238153,2,0,B|228:160|228:160|324:212,2,140
324,52,238846,1,0
288,192,239076,1,0
208,320,239307,1,0
208,320,239423,1,0
432,212,239653,5,0
432,212,239769,1,0
120,240,240230,1,0
200,336,240461,2,0,B|256:292|256:292|224:200,1,140
172,120,240923,1,0
280,76,241153,2,0,B|348:100|348:100|376:164,1,140
376,164,241500,1,0
184,260,242076,5,0
200,120,242307,1,0
340,140,242538,1,0
324,280,242769,1,0
104,224,243000,1,0
104,224,243115,1,0
424,160,243346,1,0
424,160,243461,1,0
316,72,243923,6,0,B|416:104|392:212,1,140
340,300,244384,1,0
200,300,244615,2,0,B|104:256|132:164,1,140
176,60,245076,1,0
176,60,245192,1,0
352,108,245769,5,0
312,240,246000,2,0,B|196:136,1,140
164,280,246461,1,0
220,104,246692,1,0
220,104,246807,1,0
288,280,247038,1,0
288,280,247153,1,0
156,176,247615,6,0,B|228:160|228:160|252:84,1,140
360,204,248076,2,0,B|288:220|288:220|264:296,1,140
128,300,248538,1,0
72,172,248769,1,0
104,116,248884,1,0
156,76,249000,1,0
348,96,249461,5,0
168,160,249692,1,0
348,224,249923,1,0
168,288,250153,1,0
116,192,250384,1,0
116,192,250500,1,0
396,192,250730,1,0
396,192,250846,1,0
