osu file format v6

[General]
AudioFilename: Alstroemeria Records - Bad Apple (REDALiCE Remix).mp3
AudioLeadIn: 0
PreviewTime: -1
Countdown: 1
SampleSet: Soft
StackLeniency: 0.7
Mode: 1
LetterboxInBreaks: 1

[Editor]
DistanceSpacing: 0.800000011920929
BeatDivisor: 4
GridSize: 16

[Metadata]
Title:Bad Apple (REDALiCE Remix)
Artist:Alstroemeria Records
Creator:climbb65588
Version:Taiko Oni
Source:
Tags:

[Difficulty]
HPDrainRate:5
CircleSize:5
OverallDifficulty:6
SliderMultiplier:1.7
SliderTickRate:1

[Events]
//Background and Video events
0,0,"Bad Apple_BG.png"
//Break Periods
//Storyboard Layer 0 (Background)
//Storyboard Layer 1 (Fail)
//Storyboard Layer 2 (Pass)
//Storyboard Layer 3 (Foreground)
//Storyboard Sound Samples
//Background Colour Transformations
3,100,163,162,255

[TimingPoints]
93,352.941176470588,4,2,0,100,1,0
26209,-100,4,2,0,80,0,0
26387,-100,4,2,0,60,0,0
26562,-100,4,2,0,40,0,0
36269,-100,4,2,0,60,0,0
40857,-100,4,2,0,80,0,0
44563,-100,4,2,0,100,0,0
90445,-100,4,2,0,100,0,0
91151,-100,4,2,0,80,0,0
101387,-100,4,2,0,80,0,0

[HitObjects]
208,208,20563,1,0
208,208,20739,1,0
208,208,20916,1,8
208,208,21092,1,0
208,208,21269,1,12
232,240,21622,1,0
272,304,21798,1,0
272,304,21975,1,12
256,176,22328,1,4
256,176,22681,1,8
256,176,22857,1,0
256,176,23034,1,0
256,176,23210,1,0
256,176,23387,1,8
256,176,23916,1,8
256,176,24445,1,8
256,208,24798,12,0,27622
160,136,28328,5,8
160,136,28504,1,0
160,136,28681,1,0
160,136,28857,1,0
160,136,29034,1,8
248,176,29387,1,0
248,176,29563,1,8
248,176,29740,1,0
248,176,30092,1,8
248,176,30269,1,0
248,176,30445,1,0
248,176,30622,1,8
248,176,30798,1,0
248,176,30975,1,8
256,208,31328,12,0,33622
224,168,33975,5,8
224,168,34151,1,0
224,168,34328,1,0
224,168,34504,1,0
224,168,34681,1,8
224,168,35034,1,0
224,168,35210,1,8
224,168,35387,1,0
224,168,35740,1,8
224,168,36092,1,0
224,168,36269,1,8
224,168,36445,1,0
224,168,36622,1,8
224,168,36798,1,0
224,168,36975,1,8
224,168,37151,1,8
224,168,37328,1,8
224,168,37504,1,0
224,168,37681,1,8
224,168,37857,1,8
224,168,38034,1,8
224,168,38210,1,0
224,168,38563,1,8
224,168,38916,1,8
224,168,39269,1,8
224,168,39622,1,8
224,168,39798,1,0
224,168,39975,1,0
224,168,40151,1,0
224,168,40328,1,8
224,168,40857,1,8
224,168,41387,1,8
224,168,41740,1,8
224,168,42092,1,8
224,168,42445,1,8
224,168,42534,1,0
224,168,42622,1,0
224,168,42798,1,8
224,168,42887,1,0
224,168,42975,1,0
224,168,43151,1,8
224,168,43240,1,0
224,168,43328,1,0
224,168,43416,1,8
224,168,43504,1,8
224,168,43681,1,12
224,168,43857,1,4
224,168,44210,1,12
224,168,44563,1,12
224,168,44916,1,4
224,168,45269,1,0
240,224,45445,1,8
240,224,45534,1,0
240,224,45710,1,8
240,224,45798,1,0
240,224,45975,1,0
240,224,46151,1,8
240,224,46328,1,0
240,224,46504,1,8
240,224,46681,1,0
240,224,46857,1,8
240,224,46945,1,0
240,224,47122,1,8
240,224,47210,1,0
240,224,47387,1,0
240,224,47563,1,8
240,224,47651,1,8
240,224,47740,1,0
240,224,47828,1,0
240,224,47916,1,8
240,224,48092,1,0
240,224,48269,1,8
240,224,48357,1,0
240,224,48534,1,8
240,224,48622,1,0
240,224,48798,1,0
240,224,48975,1,8
240,224,49151,1,0
240,224,49328,1,8
240,224,49504,1,0
240,224,49681,1,8
240,224,49769,1,0
240,224,49945,1,8
248,256,50034,1,0
248,256,50210,1,8
248,256,50387,1,0
248,256,50475,1,8
248,256,50563,1,0
240,224,50916,1,4
272,224,51181,1,8
272,224,51445,1,8
272,224,51622,1,4
272,224,51887,1,8
272,224,52151,1,8
272,224,52328,1,4
272,224,52592,1,8
272,224,52857,1,8
272,224,53034,1,0
272,224,53210,1,8
272,224,53298,1,8
272,224,53387,1,8
272,224,53563,1,8
272,224,53740,1,4
272,224,53916,1,0
272,224,54092,1,0
272,224,54181,1,0
272,224,54269,1,8
272,224,54357,1,0
272,224,54445,1,8
272,224,54622,1,0
272,224,54798,1,0
272,224,54887,1,0
272,224,54975,1,8
272,224,55063,1,0
272,224,55151,1,8
272,224,55328,1,0
272,224,55504,1,8
272,224,55681,1,0
272,224,55857,1,8
272,224,56034,1,0
272,224,56122,1,8
272,224,56210,1,8
256,208,56563,12,8,57269
112,176,57622,5,8
112,176,57798,1,0
112,176,57975,1,8
112,176,58063,1,8
112,176,58151,1,8
112,176,58328,1,8
112,176,58504,1,0
112,176,58681,1,8
160,216,58769,1,8
112,176,58857,1,0
112,176,58945,1,0
112,176,59034,1,8
112,176,59210,1,0
112,176,59387,1,8
112,176,59563,1,0
112,176,59651,1,0
112,176,59740,1,8
112,176,59916,1,0
176,192,60092,1,8
176,192,60269,1,0
176,192,60357,1,0
176,192,60445,1,8
176,192,60622,1,0
176,192,60798,1,8
176,192,60975,1,8
176,192,61063,1,0
176,192,61151,1,8
176,192,61328,1,0
176,192,61504,1,8
176,192,61592,1,8
176,192,61681,1,0
200,208,61769,1,0
200,208,61857,1,8
176,192,62210,1,8
176,192,62387,1,0
176,192,62563,1,0
176,192,62740,1,0
176,192,62916,1,8
176,192,63092,1,8
176,192,63269,1,0
200,208,63445,1,0
176,192,63622,1,8
176,192,63798,1,0
176,192,63975,1,0
176,192,64151,1,0
176,192,64328,1,8
176,192,64504,1,8
176,192,64681,1,0
176,192,64857,1,8
200,208,65034,1,8
176,192,65122,1,0
176,192,65210,1,0
176,192,65298,1,0
176,192,65387,1,8
176,192,65475,1,0
176,192,65563,1,0
176,192,65651,1,0
176,192,65740,1,8
176,192,65828,1,0
176,192,65916,1,8
176,192,66092,1,12
176,192,66269,1,4
176,192,66445,1,12
176,192,67151,1,4
208,208,67504,1,4
208,208,67857,1,8
208,208,68034,1,0
208,208,68210,1,8
208,208,68387,1,0
208,208,68563,1,0
240,224,68651,1,0
240,224,68740,1,0
240,224,68916,1,8
240,224,69092,1,0
240,224,69269,1,12
240,224,69622,1,4
240,224,69975,1,8
240,224,70151,1,0
240,224,70328,1,8
240,224,70504,1,0
240,224,70681,1,0
240,224,70857,1,0
240,224,70945,1,0
240,224,71034,1,8
240,224,71210,1,0
240,224,71387,1,8
240,224,71740,1,8
240,224,71916,1,0
240,224,72092,1,8
240,224,72269,1,0
240,224,72445,1,8
240,224,72622,1,8
240,224,72798,1,8
240,224,72975,1,0
240,224,73063,1,0
240,224,73151,1,8
240,224,73328,1,8
224,192,73504,1,8
240,224,73681,1,0
240,224,73858,1,0
240,224,74034,1,8
224,192,74210,1,8
272,232,74563,1,8
272,232,74740,1,8
272,232,74916,1,12
272,232,75269,1,4
272,232,75622,1,8
272,232,75798,1,0
272,232,75975,1,0
272,232,76151,1,0
272,232,76328,1,8
272,232,76504,1,0
272,232,76592,1,0
272,232,76681,1,0
272,232,76857,1,0
272,232,77034,1,8
256,200,77387,1,8
256,200,77563,1,0
256,200,77740,1,12
240,240,78092,1,12
240,240,78445,1,8
240,240,78622,1,0
240,240,78710,1,0
240,240,78798,1,0
240,240,78975,1,0
240,240,79151,1,8
240,240,79328,1,8
240,240,79504,1,8
240,240,79681,1,0
240,240,79857,1,8
240,240,80210,1,8
240,240,80387,1,0
240,240,80475,1,0
240,240,80563,1,8
240,240,80740,1,0
240,240,80916,1,8
240,240,81092,1,8
240,240,81269,1,8
240,240,81445,1,8
240,240,81622,1,0
240,240,81798,1,8
240,240,81887,1,8
240,240,81975,1,0
240,240,82151,1,8
240,240,82328,1,0
240,240,82504,1,8
240,240,82681,1,8
240,240,83034,1,8
240,240,83210,1,0
240,240,83387,1,8
240,240,83563,1,8
240,240,83651,1,8
240,240,83740,1,8
240,240,83916,1,0
240,240,84092,1,8
240,240,84269,1,8
240,240,84445,1,8
240,240,84622,1,0
240,240,84798,1,8
240,240,84975,1,8
240,240,85151,1,8
240,240,85328,1,0
240,240,85504,1,12
240,240,85857,1,8
240,240,85945,1,8
240,240,86034,1,8
240,240,86210,1,8
240,240,86298,1,8
240,240,86387,1,8
240,240,86563,1,0
240,240,86740,1,0
240,240,86916,1,8
240,240,87092,1,0
240,240,87269,1,8
240,240,87445,1,0
240,240,87622,1,8
240,240,87798,1,0
240,240,87887,1,0
240,240,87975,1,8
240,240,88151,1,8
240,240,88328,1,8
240,240,88681,1,8
240,240,88857,1,0
240,240,89034,1,8
240,240,89387,1,8
240,240,89740,1,8
240,240,89828,1,0
240,240,89916,1,0
240,240,90004,1,8
240,240,90092,1,0
240,240,90181,1,0
240,240,90269,1,8
240,240,90445,1,12
240,240,90622,1,0
240,240,90798,1,0
240,240,90975,1,0
240,240,91151,1,12
208,248,91504,1,8
208,248,91681,1,8
208,248,91857,1,4
208,248,92034,1,8
208,248,92210,1,8
208,248,92387,1,0
208,248,92563,1,12
208,248,92916,1,8
208,248,93092,1,8
208,248,93269,1,4
208,248,93445,1,8
208,248,93622,1,8
208,248,93798,1,0
208,248,93975,1,12
208,248,94328,1,8
208,248,94504,1,0
208,248,94681,1,12
208,248,94857,1,0
208,248,95034,1,8
208,248,95210,1,8
208,248,95387,1,12
208,248,95563,1,8
208,248,95740,1,0
208,248,95916,1,0
208,248,96092,1,8
208,248,96269,1,0
208,248,96445,1,0
208,248,96622,1,0
208,248,96798,1,8
208,248,96975,1,8
208,248,97063,1,8
208,248,97151,1,0
208,248,97328,1,0
208,248,97504,1,8
208,248,97681,1,0
208,248,97857,1,0
208,248,98034,1,0
208,248,98210,1,8
208,248,98387,1,8
208,248,98475,1,8
208,248,98563,1,0
208,248,98740,1,0
208,248,98916,1,8
208,248,99092,1,0
208,248,99269,1,8
208,248,99445,1,0
208,248,99622,1,8
208,248,99798,1,8
208,248,99975,1,0
208,248,100151,1,0
208,248,100328,1,8
208,248,100504,1,0
208,248,100681,1,8
208,248,100858,1,8
208,248,101034,1,12
208,248,101387,1,8
208,248,101475,1,0
208,248,101563,1,0
208,248,101651,1,0
208,248,101740,1,0
224,272,101916,1,0
224,272,102092,1,8
224,272,102269,1,8
224,272,102445,1,8
224,272,102534,1,0
224,272,102622,1,0
208,248,102798,1,8
208,248,102975,1,0
208,248,103151,1,0
208,248,103328,1,0
224,272,103504,1,8
224,272,103680,1,8
224,272,103857,1,0
224,272,103945,1,0
224,272,104034,1,0
224,272,104210,1,8
224,272,104387,1,8
224,272,104563,1,8
224,272,104740,1,0
224,272,104916,1,8
224,272,105092,1,0
224,272,105269,1,8
224,272,105357,1,0
224,272,105445,1,0
224,272,105534,1,0
224,272,105622,1,0
224,272,105798,1,0
224,272,105975,1,8
224,272,106151,1,8
224,272,106240,1,8
224,272,106328,1,0
224,272,106504,1,0
224,272,106681,1,8
224,272,106857,1,8
256,288,107034,1,0
256,288,107210,1,0
256,288,107298,1,0
256,288,107387,1,8
256,288,107563,1,0
256,288,107740,1,8
256,288,107828,1,0
256,288,107916,1,8
256,288,108092,1,8
256,288,108269,1,0
256,288,108445,1,0
304,240,108622,1,8
208,224,108798,1,8
240,208,108887,1,0
256,288,108975,1,8
256,288,109063,1,0
224,272,109151,1,8
256,288,109328,1,8
256,288,109504,1,8
256,288,109681,1,0
256,288,109857,1,8
256,288,110034,1,8
256,288,110210,1,8
256,288,110387,1,8
256,288,110563,1,8
256,288,110740,1,8
256,288,110916,1,8
256,288,111092,1,8
256,288,111269,1,4
256,288,111445,1,8
256,208,111622,12,4,112328
160,192,112681,5,12
160,192,113034,1,0
160,192,113210,1,8
160,192,113387,1,0
160,192,113563,1,8
160,192,113740,1,0
160,192,113828,1,0
160,192,113916,1,8
160,192,114004,1,0
176,240,114092,1,0
176,240,114269,1,8
176,240,114445,1,0
176,240,114534,1,8
176,240,114622,1,0
176,240,114798,1,0
176,240,114975,1,8
176,240,115063,1,0
176,240,115240,1,0
176,240,115328,1,8
176,240,115504,1,4
176,240,115681,1,8
176,240,115857,1,8
176,240,116034,1,8
176,240,116210,1,8
176,240,116298,1,8
176,240,116387,1,0
176,240,116563,1,0
176,240,116740,1,8
176,240,116916,1,0
176,240,117092,1,8
176,240,117269,1,0
176,240,117357,1,8
176,240,117534,1,0
176,240,117622,1,8
176,240,117798,1,8
176,240,117975,1,4
176,240,118151,1,0
176,240,118328,1,8
176,240,118416,1,8
176,240,118504,1,0
176,240,118681,1,8
176,240,118857,1,0
176,240,119034,1,8
176,240,119210,1,0
176,240,119387,1,8
176,240,119475,1,0
176,240,119651,1,0
176,240,119740,1,8
176,240,119916,1,0
176,240,120092,1,8
176,240,120269,1,0
176,240,120445,1,8
176,240,120622,1,8
176,240,120710,1,8
176,240,120798,1,0
176,240,120887,1,0
176,240,120975,1,8
176,240,121063,1,8
176,240,121151,1,0
176,240,121328,1,8
176,240,121504,1,8
176,240,121681,1,8
176,240,121857,1,0
176,240,122034,1,8
176,240,122122,1,0
176,240,122298,1,0
176,240,122387,1,8
176,240,122563,1,0
176,240,122740,1,8
176,240,122916,1,0
176,240,123092,1,8
176,240,123269,1,8
176,240,123445,1,8
176,240,123534,1,0
176,240,123622,1,0
176,240,123710,1,8
176,240,123798,1,8
176,240,123887,1,0
176,272,123975,1,12
176,272,124151,1,4
176,272,124328,1,8
176,272,124504,1,0
176,272,124681,1,8
176,272,124857,1,0
176,272,125034,1,8
176,272,125122,1,0
176,272,125210,1,0
176,304,125387,1,8
176,304,125563,1,0
176,304,125740,1,8
176,304,125916,1,8
316,239,126092,1,8
316,239,126269,1,8
316,239,126445,1,0
316,239,126622,1,0
316,239,126798,1,8
316,239,126887,1,8
316,239,126975,1,0
316,239,127063,1,8
316,239,127151,1,8
316,239,127328,1,8
316,239,127504,1,0
316,239,127681,1,8
316,239,127769,1,0
316,239,127945,1,0
316,239,128034,1,8
336,256,128210,1,0
336,256,128387,1,8
336,256,128563,1,0
336,256,128740,1,8
336,256,128916,1,8
336,256,129092,1,8
336,256,129269,1,12
336,256,129622,1,12
336,256,129799,1,0
336,256,129887,1,0
336,256,129975,1,0
336,256,130151,1,0
336,256,130328,1,8
336,256,130504,1,0
336,256,130681,1,0
336,256,130857,1,0
336,256,130945,1,0
336,256,131034,1,8
336,256,131210,1,0
336,256,131298,1,0
336,256,131387,1,0
336,256,131563,1,0
336,256,131740,1,8
336,256,131916,1,0
336,256,132092,1,12
336,256,132445,1,12
336,256,132622,1,0
336,256,132798,1,8
336,256,132975,1,8
336,256,133151,1,8
336,256,133328,1,8
336,256,133504,1,0
336,256,133681,1,0
336,256,133857,1,8
336,256,134034,1,8
256,208,134299,12,0,134652
416,304,134916,5,12
336,256,135269,1,12
336,256,135622,1,4
