osu file format v12

[General]
AudioFilename: forever_young.mp3
AudioLeadIn: 0
PreviewTime: 49118
Countdown: 0
SampleSet: Soft
StackLeniency: 0.7
Mode: 0
LetterboxInBreaks: 1
EpilepsyWarning: 1
WidescreenStoryboard: 0

[Editor]
DistanceSpacing: 1
BeatDivisor: 4
GridSize: 4

[Metadata]
Title:Forever Young (Nightcore Mix)
TitleUnicode:Forever Young (Nightcore Mix)
Artist:Alphaville
ArtistUnicode:Alphaville
Creator:kelvinli
Version:Normal
Source:
Tags:remix Marian Gold Martin Lister David Goodes Jakob Kiersch
BeatmapID:176571
BeatmapSetID:58265

[Difficulty]
HPDrainRate:3
CircleSize:3
OverallDifficulty:4
ApproachRate:6
SliderMultiplier:1
SliderTickRate:1

[Events]
//Background and Video events
0,0,"bg.jpg",0,0
//Break Periods
2,83855,88362
//Storyboard Layer 0 (Background)
//Storyboard Layer 1 (Fail)
//Storyboard Layer 2 (Pass)
//Storyboard Layer 3 (Foreground)
//Storyboard Sound Samples
//Background Colour Transformations
3,100,163,162,255

[TimingPoints]
190,359.768309208869,4,1,0,60,1,0
26093,-133.333333333333,4,2,0,60,0,0
49118,-100,4,1,0,60,0,1
71424,-100,4,1,0,40,0,1
72143,-100,4,1,0,60,0,0
89412,-100,4,1,0,45,0,0
99486,-100,4,1,0,30,0,0
100925,-100,4,1,0,60,0,0
113876,-100,4,1,0,45,0,0
125389,-100,4,1,0,60,0,1
136722,-100,4,1,0,60,0,0
136902,-100,4,1,0,60,0,1
148414,-100,4,1,0,60,0,0
150393,-100,4,2,0,5,0,0

[Colours]
Combo1 : 254,225,129
Combo2 : 255,0,0
Combo3 : 255,128,128

[HitObjects]
256,112,11702,1,4,0:0:0:0:
179,201,13141,6,0,P|225:224|279:224,1,100,0|2,0:0|0:2,0:0:0:0:
371,210,13861,2,0,P|435:208|478:231,2,100,0|2|0,0:0|0:2|0:0,0:0:0:0:
315,293,14940,1,2,0:2:0:0:
215,303,15300,2,0,P|160:311|114:294,1,100,0|2,0:0|0:2,0:0:0:0:
83,203,16019,6,0,P|112:154|113:104,1,100,0|2,0:0|0:2,0:0:0:0:
187,42,16739,1,0,0:0:0:0:
263,106,17099,1,2,0:2:0:0:
356,70,17458,1,0,0:0:0:0:
453,90,17818,2,0,P|467:145|448:192,1,100,2|0,0:2|0:0,0:0:0:0:
384,257,18538,1,2,0:2:0:0:
293,299,18897,6,0,P|287:243|310:197,1,100,0|8,0:0|0:0,0:0:0:0:
358,119,19617,1,0,0:0:0:0:
258,124,19977,2,0,P|206:149|150:131,1,100,8|0,0:0|0:0,0:0:0:0:
66,132,20696,1,8,0:0:0:0:
66,132,21056,2,0,P|53:199|73:250,1,100,0|8,0:0|0:0,0:0:0:0:
124,306,21776,6,0,P|173:320|220:303,1,100,0|8,0:0|0:0,0:0:0:0:
302,251,22495,2,0,P|354:235|405:248,1,100,0|8,0:0|0:0,0:0:0:0:
256,192,23215,12,4,24654,0:0:0:0:
350,174,26093,5,4,0:0:0:0:
271,199,26453,2,0,P|219:215|123:194,1,150.000005722046,0|2,0:0|0:0,0:0:0:0:
87,183,27352,1,0,0:0:0:0:
45,178,27532,2,0,P|37:229|56:282,2,75.0000028610231,4|2|0,0:0|0:0|0:0,0:0:0:0:
93,111,28611,1,2,0:0:0:0:
176,101,28971,6,0,P|219:103|262:124,1,75.0000028610231,4|2,0:0|0:0,0:0:0:0:
280,140,29511,2,0,P|323:154|392:135,1,112.500004291535,0|2,0:0|0:0,0:0:0:0:
424,156,30230,1,0,0:0:0:0:
456,172,30410,2,0,P|468:223|452:264,1,75.0000028610231,4|2,0:0|0:0,0:0:0:0:
384,268,31130,2,0,P|352:295|312:300,1,75.0000028610231,0|2,0:0|0:0,0:0:0:0:
236,296,31849,6,0,B|192:276|189:240|189:240|155:240|117:202,1,150.000005722046,4|0,0:0|0:0,0:0:0:0:
92,132,32928,1,2,0:0:0:0:
160,84,33288,6,0,P|183:121|182:165,1,75.0000028610231,4|2,0:0|0:0,0:0:0:0:
224,168,33828,2,0,P|267:178|341:140,1,112.500004291535,0|2,0:0|0:0,0:0:0:0:
396,108,34727,6,0,P|411:166|396:205,1,75.0000028610231,4|2,0:0|0:0,0:0:0:0:
384,213,35267,2,0,P|356:244|343:316,1,112.500004291535,0|2,0:0|0:0,0:0:0:0:
259,311,36166,6,0,P|208:301|163:319,1,75.0000028610231,4|2,0:0|0:0,0:0:0:0:
146,318,36706,2,0,P|116:262|139:190,1,112.500004291535,0|2,0:0|0:0,0:0:0:0:
200,184,37605,6,0,P|224:144|232:104,1,75.0000028610231,4|2,1:0|0:0,0:0:0:0:
240,76,38145,2,0,P|277:84|362:67,1,112.500004291535,0|2,0:0|0:0,0:0:0:0:
429,95,39044,2,0,P|437:152|421:192,1,75.0000028610231,4|2,0:0|0:0,0:0:0:0:
364,215,39764,2,0,P|362:262|375:304,1,75.0000028610231,0|2,0:0|0:0,0:0:0:0:
391,323,40304,1,0,0:0:0:0:
358,349,40484,6,0,P|309:361|274:351,1,75.0000028610231,4|2,0:0|0:0,0:0:0:0:
248,338,41023,2,0,P|201:326|131:339,1,112.500004291535,0|2,0:0|0:0,0:0:0:0:
100,320,41743,1,0,0:0:0:0:
77,285,41923,2,0,P|108:241|109:191,1,75.0000028610231,4|2,0:0|0:0,0:0:0:0:
124,139,42642,1,0,0:0:0:0:
197,101,43002,1,2,0:0:0:0:
191,183,43362,6,0,P|234:220|276:222,1,75.0000028610231,4|0,0:0|0:0,0:0:0:0:
281,147,44081,1,0,0:0:0:0:
346,197,44441,1,0,0:0:0:0:
399,257,44801,6,0,B|367:288|367:288|337:301,1,75.0000028610231,4|2,0:0|0:0,0:0:0:0:
297,297,45340,2,0,B|257:288|257:288|182:302,1,112.500004291535,0|2,0:0|0:0,0:0:0:0:
108,275,46240,6,0,B|134:242|134:242|120:207,1,75.0000028610231,4|2,0:0|0:0,0:0:0:0:
109,171,46779,2,0,B|99:126|99:126|130:61,1,112.500004291535,0|2,0:0|0:0,0:0:0:0:
210,73,47679,6,0,B|250:85|250:85|289:71,1,75.0000028610231,4|0,0:0|0:0,0:0:0:0:
322,69,48219,2,0,P|376:79|420:122,1,112.500004291535,4|2,0:0|0:0,0:0:0:0:
330,166,49118,6,0,P|337:215|311:260,1,100,4|8,0:0|0:0,0:0:0:0:
234,320,49838,2,0,P|181:329|142:367,2,100,0|8|0,0:0|0:0|0:0,0:0:0:0:
332,337,50917,1,8,0:0:0:0:
423,297,51277,2,0,L|459:336,2,50,0|8|8,0:0|0:0|0:0,0:0:0:0:
432,197,51996,6,0,B|446:147|446:147|438:84,1,100,0|8,0:0|0:0,0:0:0:0:
350,54,52716,1,0,0:0:0:0:
288,144,53075,2,0,P|267:197|223:228,2,100,8|0|8,0:0|0:0|0:0,0:0:0:0:
177,143,54155,2,0,L|131:171,2,50,0|8|8,0:0|0:0|0:0,0:0:0:0:
95,84,54874,6,0,P|42:132|38:190,1,100,0|8,0:0|0:0,0:0:0:0:
41,207,55414,1,0,0:0:0:0:
61,252,55594,2,0,P|112:301|179:306,2,100,0|8|0,0:0|0:0|0:0,0:0:0:0:
155,217,56673,2,0,L|205:240,2,50,8|0|0,0:0|0:0|0:0,0:0:0:0:
238,160,57393,1,8,0:0:0:0:
336,174,57752,6,0,P|384:192|415:244,1,100,0|8,0:0|0:0,0:0:0:0:
320,273,58472,2,0,P|302:321|250:352,1,100,0|8,0:0|0:0,0:0:0:0:
225,255,59192,2,0,P|177:237|146:185,1,100,0|8,0:0|0:0,0:0:0:0:
239,160,59911,2,0,P|257:112|309:81,1,100,0|8,0:0|0:0,0:0:0:0:
335,176,60631,6,0,B|342:206|342:206|381:226|387:277,1,100,4|8,0:0|0:0,0:0:0:0:
290,296,61350,2,0,P|239:308|190:300,1,100,0|8,0:0|0:0,0:0:0:0:
113,238,62070,2,0,P|93:292|109:359,2,100,0|8|0,0:0|0:0|0:0,0:0:0:0:
154,209,62969,2,0,L|176:155,1,50,8|8,0:0|0:0,0:0:0:0:
251,100,63509,5,0,0:0:0:0:
349,85,63868,2,0,P|390:137|380:205,1,100,8|0,0:0|0:0,0:0:0:0:
339,254,64588,2,0,P|395:275|433:256,2,100,8|0|8,0:0|0:0|0:0,0:0:0:0:
242,279,65667,2,0,L|181:302,2,50,0|8|8,0:0|0:0|0:0,0:0:0:0:
155,228,66387,6,0,P|143:178|160:132,1,100,0|8,0:0|0:0,0:0:0:0:
209,130,66927,2,0,P|265:134|348:92,1,150,0|8,0:0|0:0,0:0:0:0:
442,63,67826,6,0,L|411:177,1,100,0|8,0:0|0:0,0:0:0:0:
440,203,68366,2,0,P|451:258|387:348,1,150,0|8,0:0|0:0,0:0:0:0:
316,293,69265,5,0,0:0:0:0:
257,212,69625,2,0,P|228:264|196:316,2,100,8|0|8,0:0|0:0|0:0,0:0:0:0:
344,131,70704,2,0,P|363:79|340:24,1,100,0|8,0:0|0:0,0:0:0:0:
265,77,71424,2,0,L|149:92,1,100,4|0,0:0|0:0,0:0:0:0:
75,132,72143,6,0,P|71:196|181:259,1,200,4|0,0:0|0:0,0:0:0:0:
253,197,73222,1,8,0:0:0:0:
157,166,73582,2,0,P|214:103|329:133,1,200
354,215,74662,1,8,0:0:0:0:
253,197,75021,6,0,P|306:306|380:315,1,200
449,249,76101,1,8,0:0:0:0:
354,215,76460,6,0,B|320:258|268:244|268:244|236:289|162:263,1,200,4|0,0:2|0:0,0:0:0:0:
80,233,77540,1,8,0:0:0:0:
139,152,77899,6,0,P|190:95|292:74,1,150,4|0,0:0|0:0,0:0:0:0:
308,73,78619,2,0,P|365:87|402:130,1,100,0|8,0:0|0:0,0:0:0:0:
309,169,79339,2,0,P|312:235|224:278,1,150,4|0,0:0|0:0,0:0:0:0:
198,283,80058,2,0,L|106:324,1,100,0|8,0:0|0:0,0:0:0:0:
43,246,80778,6,0,P|12:174|77:96,1,150,4|0,0:0|0:0,0:0:0:0:
90,102,81497,2,0,P|144:103|193:81,1,100,4|8,0:0|0:0,0:0:0:0:
286,92,82217,2,0,P|333:67|397:68,1,100,4|8,0:0|0:0,0:0:0:0:
432,148,82936,2,0,L|454:261,2,100,4|8|0,0:0|0:0|0:0,0:0:0:0:
252,291,89412,6,0,P|308:288|352:257,1,100,4|8,0:0|0:0,0:0:0:0:
376,226,89952,1,0,0:0:0:0:
401,183,90132,2,0,B|412:148|412:148|422:135|422:135|446:62,2,100,0|8|0,0:0|0:0|0:0,0:0:0:0:
302,164,91211,1,8,0:0:0:0:
212,208,91571,2,0,L|162:216,1,50,0|2,0:0|0:0,0:0:0:0:
189,258,91930,2,0,L|139:266,1,50,0|2,0:0|0:0,0:0:0:0:
150,314,92290,6,0,P|79:323|34:288,1,100,0|8,0:0|0:0,0:0:0:0:
33,213,93010,1,0,0:0:0:0:
86,128,93369,2,0,P|123:84|124:13,2,100,8|0|8,0:0|0:0|0:0,0:0:0:0:
179,164,94449,2,0,L|227:133,1,50,2|0,0:0|0:0,0:0:0:0:
228,186,94809,2,0,L|276:155,1,50,2|0,0:0|0:0,0:0:0:0:
316,140,95168,5,0,0:0:0:0:
414,119,95528,2,0,L|426:70,2,50,8|0|0,0:0|0:0|0:0,0:0:0:0:
470,201,96248,2,0,B|479:251|479:251|471:299,1,100,8|0,0:0|0:0,0:0:0:0:
379,258,96967,1,8,0:0:0:0:
379,258,97327,2,0,L|320:258,1,50,0|2,0:0|0:0,0:0:0:0:
291,224,97687,2,0,L|238:224,1,50,0|2,0:0|0:0,0:0:0:0:
191,221,98046,6,0,P|165:276|177:332,2,100,0|8|0,0:0|0:0|0:0,0:0:0:0:
244,135,99126,1,8,0:0:0:0:
329,83,99486,2,0,B|404:87|404:87|426:80|426:80|486:81,2,150
229,76,100925,6,0,P|178:81|135:107,1,100,4|8,0:0|0:0,0:0:0:0:
56,164,101644,2,0,P|56:223|39:269,2,100,0|8|0,0:0|0:0|0:0,0:0:0:0:
152,188,102723,2,0,P|219:205|269:188,1,100,8|0,0:0|0:0,0:0:0:0:
297,194,103263,2,0,L|327:233,2,50,2|0|2,0:0|0:0|0:0,0:0:0:0:
343,175,103803,6,0,P|378:131|380:70,1,100,0|8,0:0|0:0,0:0:0:0:
283,96,104522,2,0,P|233:120|184:119,1,100,0|8,0:0|0:0,0:0:0:0:
96,157,105242,2,0,P|78:218|94:268,1,100,0|8,0:0|0:0,0:0:0:0:
174,297,105961,2,0,L|238:319,1,50,2|0,0:0|0:0,0:0:0:0:
271,313,106321,2,0,L|318:296,1,50,2|0,0:0|0:0,0:0:0:0:
367,285,106681,6,0,P|418:251|438:196,1,100,0|8,0:0|0:0,0:0:0:0:
416,119,107400,1,0,0:0:0:0:
352,196,107760,2,0,P|294:218|246:213,2,100,8|0|8,0:0|0:0|0:0,0:0:0:0:
285,121,108840,2,0,L|235:101,1,50
189,109,109199,2,0,L|136:137,1,50,0|2,0:0|0:0,0:0:0:0:
256,192,109559,12,4,112437,0:0:0:0:
359,69,113876,6,0,P|380:114|359:161,1,100,4|0,0:0|0:0,0:0:0:0:
337,255,114596,2,0,P|245:255|211:168,1,150
213,164,115315,2,0,P|194:111|147:90,1,100
119,184,116035,2,0,P|114:246|191:318,1,150
217,314,116754,6,0,P|276:296|335:324,1,100,4|0,0:0|0:0,0:0:0:0:
411,312,117474,2,0,P|465:253|435:159,1,150
420,154,118194,2,0,P|371:163|322:146,1,100
230,112,118913,2,0,L|161:30,2,100,0|0|4,0:0|0:0|0:0,0:0:0:0:
157,193,120892,6,0,L|133:238,1,50,0|4,0:0|0:0,0:0:0:0:
355,193,122331,2,0,L|379:238,1,50,0|4,0:0|0:0,0:0:0:0:
256,152,123050,2,0,L|256:208,1,50,0|4,0:0|0:0,0:0:0:0:
256,352,123770,2,0,L|256:288,1,50,0|4,0:0|0:0,0:0:0:0:
187,229,124310,1,0,0:0:0:0:
256,152,124669,1,0,0:0:0:0:
325,229,125029,1,0,0:0:0:0:
420,260,125389,6,0,P|444:208|428:144,1,100,4|8,0:0|0:0,0:0:0:0:
396,76,126108,2,0,L|292:76,1,100,0|8,0:0|0:0,0:0:0:0:
196,90,126828,2,0,P|151:118|101:125,1,100,0|8,0:0|0:0,0:0:0:0:
58,213,127547,2,0,L|22:269,2,50,0|8|8,0:0|0:0|0:0,0:0:0:0:
149,253,128267,6,0,P|206:280|259:276,1,100,0|8,0:0|0:0,0:0:0:0:
338,252,128987,2,0,B|390:275|390:275|425:311,2,100,0|8|0,0:0|0:0|0:0,0:0:0:0:
270,177,130066,2,0,P|315:167|341:118,1,100,8|0,0:0|0:0,0:0:0:0:
333,72,130606,2,8,P|301:66|282:53,1,50
186,60,131145,6,0,P|152:104|151:161,1,100,0|8,0:0|0:0,0:0:0:0:
107,176,131685,2,0,P|127:224|224:230,1,150,0|8,0:0|0:0,0:0:0:0:
265,244,132404,1,0,0:0:0:0:
311,263,132584,2,0,P|360:277|412:247,1,100,0|8,0:0|0:0,0:0:0:0:
436,220,133124,1,0,0:0:0:0:
445,170,133304,2,0,L|432:66,1,100,0|8,0:0|0:0,0:0:0:0:
344,117,134023,6,0,P|333:71|293:33,1,100,0|8,0:0|0:0,0:0:0:0:
246,119,134743,2,0,P|210:168|169:168,1,100,0|8,0:0|0:0,0:0:0:0:
86,121,135462,2,0,P|69:174|91:225,1,100,0|8,0:0|0:0,0:0:0:0:
153,284,136182,2,0,P|195:311|254:301,1,100,0|8,0:0|0:0,0:0:0:0:
338,275,136901,6,0,P|380:235|387:174,1,100,4|8,0:0|0:0,0:0:0:0:
385,145,137441,2,0,P|362:103|261:93,1,150,0|8,0:0|0:0,0:0:0:0:
224,114,138161,1,0,0:0:0:0:
178,135,138341,2,0,P|117:159|66:152,2,100,0|8|0,0:0|0:0|0:0,0:0:0:0:
258,194,139420,1,8,0:0:0:0:
332,261,139780,6,0,P|283:293|233:291,1,100,0|8,0:0|0:0,0:0:0:0:
209,256,140319,2,0,P|144:213|121:136,1,150,0|8,0:0|0:0,0:0:0:0:
146,104,141039,1,0,0:0:0:0:
195,111,141219,6,0,P|213:163|256:190,1,100,0|8,0:0|0:0,0:0:0:0:
388,189,141938,2,0,P|430:177|484:201,1,100,0|8,0:0|0:0,0:0:0:0:
420,277,142658,6,0,P|371:311|319:311,1,100,4|8,0:0|0:0,0:0:0:0:
282,305,143197,1,0,0:0:0:0:
250,266,143377,2,0,P|236:219|190:171,2,100,0|8|4,0:0|0:0|0:0,0:0:0:0:
150,276,144457,6,0,L|147:338,2,50,8|0|0,0:0|0:0|0:0,0:0:0:0:
108,184,145176,1,8,0:0:0:0:
52,100,145536,2,0,P|78:55|134:33,1,100,4|8,0:0|0:0,0:0:0:0:
170,36,146076,1,0,0:0:0:0:
219,42,146255,2,0,P|273:49|323:48,1,100,4|8,0:0|0:0,0:0:0:0:
400,106,146975,6,0,P|418:157|415:213,1,100,4|8,0:0|0:0,0:0:0:0:
378,233,147515,1,0,0:0:0:0:
335,260,147695,2,0,L|281:278,1,50,4|0,0:0|0:0,0:0:0:0:
237,277,148054,2,0,L|185:252,1,50,8|0,0:0|0:0,0:0:0:0:
151,226,148414,1,4,0:0:0:0:
256,192,148594,12,0,150393,0:0:0:0:
