osu file format v12

[General]
AudioFilename: forever_young.mp3
AudioLeadIn: 0
PreviewTime: 49118
Countdown: 0
SampleSet: Normal
StackLeniency: 0.7
Mode: 0
LetterboxInBreaks: 1
EpilepsyWarning: 1
WidescreenStoryboard: 0

[Editor]
DistanceSpacing: 1
BeatDivisor: 4
GridSize: 4

[Metadata]
Title:Forever Young (Nightcore Mix)
TitleUnicode:Forever Young (Nightcore Mix)
Artist:Alphaville
ArtistUnicode:Alphaville
Creator:kelvinli
Version:Insane
Source:
Tags:remix Marian Gold Martin Lister David Goodes Jakob Kiersch
BeatmapID:176572
BeatmapSetID:58265

[Difficulty]
HPDrainRate:7
CircleSize:4
OverallDifficulty:7
ApproachRate:8
SliderMultiplier:1.8
SliderTickRate:1

[Events]
//Background and Video events
0,0,"bg.jpg",0,0
//Break Periods
2,83856,88662
//Storyboard Layer 0 (Background)
//Storyboard Layer 1 (Fail)
//Storyboard Layer 2 (Pass)
//Storyboard Layer 3 (Foreground)
//Storyboard Sound Samples
//Background Colour Transformations
3,100,163,162,255

[TimingPoints]
190,359.768309208869,4,1,0,60,1,0
11883,-100,4,2,0,60,0,0
13141,-100,4,1,0,60,0,0
17458,-100,4,1,0,60,0,0
20337,-100,4,1,0,60,0,0
26093,-133.333333333333,4,2,0,60,0,0
49118,-100,4,1,0,60,0,1
72143,-100,4,1,0,60,0,0
125389,-100,4,1,0,60,0,1
136722,-100,4,1,0,60,0,0
136902,-100,4,1,0,60,0,1
148414,-100,4,1,0,60,0,0
150393,-100,4,2,0,5,0,0

[Colours]
Combo1 : 254,225,129
Combo2 : 255,0,0
Combo3 : 255,128,128

[HitObjects]
256,192,11702,1,4,0:0:0:0:
220,308,12062,2,0,B|244:340|272:340|296:308,1,90,2|0,0:0|0:0,0:0:0:0:
256,152,12781,1,2,0:0:0:0:
184,99,13141,6,0,P|161:148|166:192,1,90,4|0,0:0|0:0,0:0:0:0:
312,235,13501,2,0,P|340:193|325:105,1,135,8|0,0:0|0:0,0:0:0:0:
292,87,13861,1,0,0:0:0:0:
227,226,14041,1,0,0:0:0:0:
261,311,14220,2,0,P|309:330|357:311,1,90,8|0,0:0|0:0,0:0:0:0:
466,197,14580,6,0,P|411:178|311:238,1,180,0|8,0:0|0:0,0:0:0:0:
261,311,15120,1,0,0:0:0:0:
272,169,15300,2,0,P|268:121|244:81,1,90
172,48,15660,1,8,0:0:0:0:
91,87,15839,1,0,0:0:0:0:
72,175,16019,6,0,P|65:245|149:339,1,180,0|8,0:0|0:0,0:0:0:0:
215,348,16559,1,0,0:0:0:0:
287,294,16739,2,0,B|334:263|334:263|353:312|405:320|442:295,1,180,0|8,0:0|0:0,0:0:0:0:
494,230,17278,1,0,0:0:0:0:
401,234,17458,6,0,P|370:193|321:188,1,90
246,182,17818,2,0,P|173:189|137:116,1,135,8|0,0:0|0:0,0:0:0:0:
160,105,18178,1,0,0:0:0:0:
240,63,18358,1,0,0:0:0:0:
323,179,18538,2,0,P|326:239|301:278,1,90,8|0,0:0|0:0,0:0:0:0:
231,301,18897,5,4,0:0:0:0:
140,299,19077,1,0,0:0:0:0:
75,236,19257,2,0,L|83:142,1,90,8|0,0:0|0:0,0:0:0:0:
187,55,19617,2,0,L|221:143,1,90
289,196,19977,1,8,0:0:0:0:
373,163,20157,1,0,0:0:0:0:
445,216,20337,6,0,P|448:278|421:326,1,90
353,334,20696,1,8,0:0:0:0:
271,295,20876,1,0,0:0:0:0:
194,343,21056,2,0,L|83:330,1,90
50,205,21416,2,0,L|161:218,1,90,8|0,0:0|0:0,0:0:0:0:
219,172,21776,5,0,0:0:0:0:
219,172,21955,1,0,0:0:0:0:
293,222,22135,2,0,P|351:226|394:204,1,90,8|0,0:0|0:0,0:0:0:0:
419,122,22495,1,0,0:0:0:0:
343,68,22675,2,0,P|326:121|337:162,2,90,0|8|0,0:0|0:0|0:0,0:0:0:0:
428,37,23215,5,4,0:0:0:0:
452,285,23484,1,4,0:0:0:0:
241,104,23754,1,4,0:0:0:0:
258,302,24024,1,4,0:0:0:0:
121,204,24294,1,4,0:0:0:0:
121,204,24654,1,4,0:0:0:0:
378,209,26093,5,4,0:0:0:0:
387,183,26183,1,0,0:0:0:0:
374,159,26273,2,0,P|339:150|313:127,1,67.5000025749208,0|2,0:0|0:0,0:0:0:0:
252,90,26632,2,0,P|193:122|104:100,1,135.000005149842
62,150,27172,2,0,L|29:221,1,67.5000025749208,2|0,0:0|0:0,0:0:0:0:
108,216,27532,6,0,B|148:216|148:216|180:236|180:236|204:236,1,101.250003862381,4|2,0:0|0:0,0:0:0:0:
240,231,27892,1,2,0:0:0:0:
280,168,28072,1,0,0:0:0:0:
326,110,28251,1,0,0:0:0:0:
381,159,28431,1,0,0:0:0:0:
382,233,28611,1,2,0:0:0:0:
348,299,28791,1,0,0:0:0:0:
404,352,28971,6,0,B|352:392|300:352|300:352|256:352,1,135.000005149842,4|2,0:0|0:0,0:0:0:0:
260,280,29511,2,0,B|208:300|208:344|208:344|160:368|112:364|84:312,1,202.500007724762,0|2,0:0|0:0,0:0:0:0:
67,270,30230,1,2,0:0:0:0:
100,203,30410,6,0,B|138:160|200:194|200:194|232:179,1,135.000005149842,4|2,0:0|0:0,0:0:0:0:
412,181,31130,2,0,B|374:224|312:190|312:190|280:205,1,135.000005149842,0|2,0:0|0:0,0:0:0:0:
236,256,31669,1,0,0:0:0:0:
305,284,31849,5,4,0:0:0:0:
316,288,31939,1,0,0:0:0:0:
328,292,32029,1,0,0:0:0:0:
400,272,32209,2,0,P|436:239|440:215,1,67.5000025749208,2|0,0:0|0:0,0:0:0:0:
451,107,32569,2,0,L|388:143,1,67.5000025749208
291,109,32928,2,0,P|292:149|307:185,1,67.5000025749208,2|0,0:0|0:0,0:0:0:0:
367,219,33288,6,0,B|347:255|299:259|299:259|275:311,1,135.000005149842,4|2,0:0|0:0,0:0:0:0:
206,283,33828,2,0,B|184:236|184:236|136:232|116:196,1,135.000005149842
183,94,34367,2,0,P|190:140|180:178,1,67.5000025749208,2|2,0:0|0:0,0:0:0:0:
116,135,34727,6,0,P|175:119|266:140,1,135.000005149842,4|2,0:0|0:0,0:0:0:0:
302,180,35267,2,0,P|278:131|327:58,1,135.000005149842
356,124,35807,2,0,P|383:182|378:210,1,67.5000025749208,2|2,0:0|0:0,0:0:0:0:
343,246,36166,6,0,P|302:266|278:261,1,67.5000025749208,4|0,0:0|0:0,0:0:0:0:
118,295,36526,2,0,L|47:324,2,67.5000025749208,2|0|4,0:0|0:0|0:0,0:0:0:0:
188,245,37066,2,0,P|192:186|186:146,1,67.5000025749208
190,51,37605,5,4,1:1:0:0:
216,44,37695,1,0,0:0:0:0:
242,49,37785,2,0,P|300:66|328:60,1,67.5000025749208,0|2,0:0|0:0,0:0:0:0:
380,60,38145,2,0,P|406:123|380:198,1,135.000005149842
319,211,38685,2,0,L|351:277,1,67.5000025749208,2|0,0:0|0:0,0:0:0:0:
318,339,39044,6,0,P|268:319|247:267,1,101.250003862381,4|0,0:0|0:0,0:0:0:0:
240,241,39404,1,2,0:0:0:0:
249,167,39584,1,0,0:0:0:0:
291,106,39764,1,0,0:0:0:0:
362,124,39944,1,0,0:0:0:0:
413,177,40124,1,2,0:0:0:0:
412,251,40304,1,0,0:0:0:0:
361,305,40484,6,0,P|323:327|232:309,1,135.000005149842,4|2,0:0|0:0,0:0:0:0:
82,252,41023,2,0,P|151:226|223:255,1,135.000005149842
150,305,41563,2,0,P|116:324|78:329,1,67.5000025749208,2|0,0:0|0:0,0:0:0:0:
59,176,41923,6,0,B|54:110|54:110|111:54,1,135.000005149842,4|2,0:0|0:0,0:0:0:0:
408,61,42642,2,0,B|458:110|458:110|453:176,1,135.000005149842,0|2,0:0|0:0,0:0:0:0:
400,228,43182,1,0,0:0:0:0:
341,274,43362,6,0,P|285:299|260:294,1,67.5000025749208,4|0,0:0|0:0,0:0:0:0:
225,249,43721,1,2,0:0:0:0:
238,148,43901,1,0,0:0:0:0:
321,42,44081,1,0,0:0:0:0:
347,139,44261,1,0,0:0:0:0:
435,309,44441,1,2,0:0:0:0:
458,210,44621,1,0,0:0:0:0:
347,139,44801,6,0,P|329:188|365:268,1,135.000005149842,4|2,0:0|0:0,0:0:0:0:
428,116,45340,2,0,P|395:69|310:73,1,135.000005149842
247,214,45880,2,0,L|263:148,1,67.5000025749208,2|0,0:0|0:0,0:0:0:0:
169,234,46240,6,0,P|204:283|300:273,1,135.000005149842,4|2,0:0|0:0,0:0:0:0:
397,340,46779,2,0,P|428:307|422:206,1,135.000005149842
354,99,47319,2,0,P|333:135|342:183,1,67.5000025749208,2|0,0:0|0:0,0:0:0:0:
358,259,47679,6,0,P|303:238|203:260,1,135.000005149842,4|0,0:0|0:0,0:0:0:0:
68,124,48219,2,0,B|131:132|131:132|225:93,1,135.000005149842,4|0,0:0|0:0,0:0:0:0:
263,72,48758,1,2,0:0:0:0:
316,305,49118,6,0,P|264:317|172:237,1,180,4|8,0:0|0:0,0:0:0:0:
61,132,49658,1,0,0:0:0:0:
104,201,49838,2,0,P|51:213|13:198,2,90,0|0|8,0:0|0:0|0:0,0:0:0:0:
168,138,50377,1,0,0:0:0:0:
245,92,50557,2,0,P|314:89|400:167,1,180,0|8,0:0|0:0,0:0:0:0:
263,279,51277,2,0,P|207:261|188:220,1,90
258,176,51636,1,8,0:0:0:0:
332,227,51816,1,0,0:0:0:0:
175,297,51996,6,0,P|108:301|42:257,1,135
39,253,52356,2,0,L|66:151,1,90,8|0,0:0|0:0,0:0:0:0:
169,71,52716,1,0,0:0:0:0:
85,37,52896,1,0,0:0:0:0:
155,147,53075,2,0,P|199:175|239:175,1,90,8|0,0:0|0:0,0:0:0:0:
321,203,53435,2,0,B|373:155|373:83|317:27,1,180,0|8,0:0|0:0,0:0:0:0:
203,174,54155,2,0,B|160:216|160:288|212:336,1,180,0|8,0:0|0:0,0:0:0:0:
218,333,54874,6,0,B|290:306|290:306|404:312,1,180,0|8,0:0|0:0,0:0:0:0:
442,235,55414,1,0,0:0:0:0:
382,167,55594,1,0,0:0:0:0:
295,192,55774,1,0,0:0:0:0:
215,233,55954,2,0,P|152:239|124:220,1,90,8|0,0:0|0:0,0:0:0:0:
159,141,56313,6,0,P|179:190|131:313,1,180,0|8,0:0|0:0,0:0:0:0:
65,167,56853,2,0,B|96:133|90:95|90:95|137:55|191:69,1,180
271,90,57393,1,8,0:0:0:0:
239,174,57573,1,0,0:0:0:0:
163,222,57752,6,0,B|243:171|243:171|338:190,1,180,0|8,0:0|0:0,0:0:0:0:
407,147,58292,2,0,P|413:211|324:311,1,180
257,301,58832,1,8,0:0:0:0:
180,254,59012,1,0,0:0:0:0:
93,278,59192,6,0,P|73:234|81:192,1,90
183,31,59551,2,0,P|199:88|185:147,1,90,8|0,0:0|0:0,0:0:0:0:
81,175,59911,1,0,0:0:0:0:
123,87,60091,1,8,0:0:0:0:
240,205,60271,1,8,0:0:0:0:
266,226,60631,6,0,P|321:248|417:171,1,180,4|8,0:0|0:0,0:0:0:0:
390,98,61170,1,0,0:0:0:0:
321,156,61350,2,0,L|226:133,1,90,0|0,0:0|0:0,0:0:0:0:
166,74,61710,1,8,0:0:0:0:
108,143,61890,1,0,0:0:0:0:
157,218,62070,2,0,P|182:271|294:291,1,180,0|8,0:0|0:0,0:0:0:0:
435,182,62789,5,0,0:0:0:0:
408,95,62969,1,0,0:0:0:0:
319,77,63149,1,8,0:0:0:0:
249,133,63329,1,0,0:0:0:0:
225,219,63509,6,0,P|151:234|94:209,1,135
86,204,63868,2,0,P|61:243|63:298,1,90,8|0,0:0|0:0,0:0:0:0:
124,348,64228,1,0,0:0:0:0:
202,303,64408,1,0,0:0:0:0:
277,351,64588,2,0,P|329:357|365:337,1,90,8|0,0:0|0:0,0:0:0:0:
355,134,64948,6,0,P|295:179|313:277,1,180,0|8,0:0|0:0,0:0:0:0:
145,199,65667,2,0,P|205:154|187:56,1,180,0|8,0:0|0:0,0:0:0:0:
169,59,66387,6,0,B|217:80|217:80|267:41|370:88,1,180,0|8,0:0|0:0,0:0:0:0:
404,138,66927,1,0,0:0:0:0:
436,221,67106,2,0,P|431:271|403:310,1,90
325,269,67466,1,8,0:0:0:0:
244,308,67646,1,0,0:0:0:0:
196,231,67826,6,0,B|155:263|156:308|156:308|110:358|52:340,1,180,0|8,0:0|0:0,0:0:0:0:
156,152,68366,2,0,B|232:120|285:195|285:195|352:207,1,180
439,197,68905,2,0,P|468:146|465:108,1,90,8|0,0:0|0:0,0:0:0:0:
378,142,69265,6,0,P|358:199|445:280,1,180,0|8,0:0|0:0,0:0:0:0:
443,102,69805,2,0,P|406:62|280:80,1,180
272,159,70344,2,0,L|178:143,1,90,8|0,0:0|0:0,0:0:0:0:
77,245,70704,6,0,L|167:219,1,90
253,226,71064,1,8,0:0:0:0:
287,309,71244,1,0,0:0:0:0:
373,282,71424,2,0,L|394:323,2,45
373,191,71783,2,0,L|400:142,2,45,8|0|0,0:0|0:0|0:0,0:0:0:0:
278,174,72143,5,4,0:0:0:0:
246,157,72233,1,0,0:0:0:0:
212,143,72323,1,0,0:0:0:0:
166,65,72503,2,0,L|258:44,1,90,8|0,0:0|0:0,0:0:0:0:
444,172,72863,1,0,0:0:0:0:
380,236,73043,1,8,0:0:0:0:
291,250,73222,2,0,L|194:234,1,90,8|0,0:0|0:0,0:0:0:0:
301,343,73582,5,4,0:0:0:0:
325,332,73672,1,0,0:0:0:0:
348,318,73762,1,0,0:0:0:0:
430,232,73942,1,8,0:0:0:0:
289,178,74122,1,0,0:0:0:0:
234,278,74302,2,0,P|218:322|221:374,1,90,0|8,0:0|0:0,0:0:0:0:
352,234,74662,2,0,P|368:190|365:138,1,90,8|0,0:0|0:0,0:0:0:0:
198,167,75021,5,0,0:0:0:0:
174,181,75111,1,0,0:0:0:0:
147,183,75201,2,0,P|95:188|52:172,1,90,0|8,0:0|0:0,0:0:0:0:
148,53,75561,1,0,0:0:0:0:
274,178,75741,1,0,0:0:0:0:
283,203,75831,1,0,0:0:0:0:
289,229,75921,2,0,P|286:283|252:334,1,90,8|8,0:0|0:0,0:0:0:0:
162,300,76280,1,0,0:0:0:0:
139,285,76370,1,0,0:0:0:0:
139,257,76460,6,0,P|143:157|95:97,1,180,4|8,2:0|0:0,0:0:0:0:
39,168,77000,2,0,P|114:184|215:160,1,180,0|8,0:0|0:0,0:0:0:0:
295,105,77540,1,8,0:0:0:0:
380,154,77720,1,0,0:0:0:0:
436,244,77899,5,4,0:0:0:0:
428,288,77989,1,0,0:0:0:0:
408,328,78079,2,0,P|372:356|324:356,1,90,0|8,0:0|0:0,0:0:0:0:
256,308,78439,1,0,0:0:0:0:
182,357,78619,2,0,P|140:356|104:328,1,90,0|8,0:0|0:0,0:0:0:0:
84,288,78889,1,0,0:0:0:0:
76,244,78979,1,8,0:0:0:0:
68,156,79159,1,0,0:0:0:0:
116,80,79339,6,0,P|151:106|208:116,1,90,4|0,0:0|0:0,0:0:0:0:
396,80,79698,2,0,P|363:108|304:116,1,90,8|0,0:0|0:0,0:0:0:0:
174,197,80058,2,0,P|163:244|174:290,1,90,0|8,0:0|0:0,0:0:0:0:
340,284,80418,2,0,P|348:240|338:197,1,90,8|0,0:0|0:0,0:0:0:0:
274,132,80778,6,0,P|256:189|270:332,1,180,4|8,0:0|0:0,0:0:0:0:
339,352,81317,1,0,0:0:0:0:
418,309,81497,2,0,P|432:262|431:210,1,90,4|8,0:0|0:0,0:0:0:0:
388,142,81857,1,8,0:0:0:0:
320,82,82037,1,0,0:0:0:0:
250,139,82217,6,0,P|193:161|158:156,1,90,4|0,0:0|0:0,0:0:0:0:
66,96,82576,1,8,0:0:0:0:
168,62,82756,1,0,0:0:0:0:
193,229,82936,1,4,0:0:0:0:
186,245,83026,1,0,0:0:0:0:
176,260,83116,1,0,0:0:0:0:
163,272,83206,1,0,0:0:0:0:
149,283,83296,1,8,0:0:0:0:
133,292,83386,1,0,0:0:0:0:
117,300,83476,1,8,0:0:0:0:
100,306,83566,1,0,0:0:0:0:
82,310,83656,1,4,0:0:0:0:
382,135,89412,6,0,P|328:142|289:131,1,90,4|0,0:0|0:0,0:0:0:0:
221,79,89772,1,8,0:0:0:0:
176,157,89952,1,0,0:0:0:0:
247,212,90132,2,0,P|257:259|238:303,1,90
80,337,90491,2,0,P|70:290|89:246,1,90,8|0,0:0|0:0,0:0:0:0:
180,71,90851,2,0,P|190:118|171:162,1,90
90,186,91211,1,8,0:0:0:0:
165,260,91391,1,0,0:0:0:0:
256,272,91571,5,0,0:0:0:0:
383,317,91751,1,2,0:0:0:0:
299,212,91930,1,8,0:0:0:0:
433,227,92110,1,2,0:0:0:0:
324,146,92290,6,0,P|274:153|234:141,2,90,0|0|8,0:0|0:0|0:0,0:0:0:0:
399,95,92830,1,0,0:0:0:0:
462,159,93010,2,0,P|470:218|439:260,1,90
367,247,93369,1,8,0:0:0:0:
294,300,93549,1,0,0:0:0:0:
216,253,93729,2,0,L|127:224,1,90
75,95,94089,2,0,L|164:124,1,90,8|0,0:0|0:0,0:0:0:0:
245,155,94449,5,2,0:0:0:0:
333,54,94629,1,0,0:0:0:0:
381,208,94809,1,10,0:0:0:0:
350,75,94988,1,0,0:0:0:0:
473,217,95168,6,0,P|468:172|437:135,1,90
297,244,95528,2,0,P|331:284|377:299,1,90,8|0,0:0|0:0,0:0:0:0:
300,160,95888,2,0,P|250:166|229:301,1,180,0|8,0:0|0:0,0:0:0:0:
261,346,96428,1,0,0:0:0:0:
371,192,96607,2,0,P|371:141|351:104,1,90
273,64,96967,1,8,0:0:0:0:
191,101,97147,1,0,0:0:0:0:
107,133,97327,5,0,0:0:0:0:
142,298,97507,1,2,0:0:0:0:
241,175,97687,1,8,0:0:0:0:
261,346,97867,1,2,0:0:0:0:
324,283,98046,6,0,P|369:301|412:291,1,90
469,225,98406,1,8,0:0:0:0:
460,135,98586,1,0,0:0:0:0:
380,91,98766,1,0,0:0:0:0:
303,138,98946,1,0,0:0:0:0:
224,181,99126,2,0,P|175:197|133:188,1,90,8|0,0:0|0:0,0:0:0:0:
109,104,99486,2,0,L|62:82,3,45
47,99,99845,2,0,P|26:150|36:211,1,90,8|0,0:0|0:0,0:0:0:0:
114,207,100205,5,2,0:0:0:0:
141,319,100385,1,0,0:0:0:0:
308,336,100565,1,10,0:0:0:0:
277,228,100745,1,0,0:0:0:0:
222,180,100925,6,0,P|206:229|214:270,1,90,4|0,0:0|0:0,0:0:0:0:
345,270,101284,2,0,P|356:222|318:120,1,135,8|0,0:0|0:0,0:0:0:0:
303,121,101644,1,0,0:0:0:0:
232,35,101824,1,0,0:0:0:0:
187,107,102004,2,0,B|126:135|141:198|141:198|82:245,1,180,8|0,0:0|0:0,0:0:0:0:
41,295,102544,1,0,0:0:0:0:
153,285,102723,2,0,B|198:249|198:249|237:299|326:280,1,180,8|0,0:0|0:0,0:0:0:0:
434,217,103263,5,2,0:0:0:0:
271,207,103443,1,8,0:0:0:0:
426,174,103623,1,2,0:0:0:0:
269,169,103803,6,0,P|218:169|179:151,1,90
166,82,104163,2,0,P|180:160|119:218,1,135,8|0,0:0|0:0,0:0:0:0:
117,216,104522,2,0,P|98:261|102:315,1,90
168,318,104882,2,0,P|232:278|340:303,1,180,8|0,0:0|0:0,0:0:0:0:
399,319,105422,1,0,0:0:0:0:
442,261,105602,2,0,P|461:213|457:165,1,90,8|0,0:0|0:0,0:0:0:0:
355,70,105961,5,2,0:0:0:0:
376,174,106141,1,0,0:0:0:0:
289,339,106321,1,10,0:0:0:0:
268,235,106501,1,0,0:0:0:0:
243,122,106681,6,0,P|189:121|150:139,1,90,4|0,0:0|0:0,0:0:0:0:
52,204,107041,2,0,P|111:229|199:200,1,135,8|0,0:0|0:0,0:0:0:0:
207,194,107400,1,0,0:0:0:0:
124,70,107580,1,0,0:0:0:0:
73,121,107760,2,0,P|51:183|84:294,1,180,8|4,0:0|0:0,0:0:0:0:
149,310,108300,1,0,0:0:0:0:
217,330,108480,2,0,P|272:343|307:330,1,90,8|0,0:0|0:0,0:0:0:0:
369,268,108840,6,0,P|395:317|389:359,1,90,0|2,0:0|0:0,0:0:0:0:
256,192,109199,2,0,P|239:148|240:103,1,90,8|2,0:0|0:0,0:0:0:0:
256,192,109559,12,4,112437,0:0:0:0:
366,131,113876,6,0,P|309:174|198:163,1,180,0|8,0:0|0:0,0:0:0:0:
120,133,114416,1,0,0:0:0:0:
121,223,114596,2,0,P|144:263|196:280,1,90
263,321,114956,2,0,P|303:298|320:246,1,90,8|0,0:0|0:0,0:0:0:0:
353,129,115315,2,0,P|300:138|246:246,1,180,0|8,0:0|0:0,0:0:0:0:
424,218,116035,1,0,0:0:0:0:
469,140,116215,1,0,0:0:0:0:
435,56,116395,1,8,0:0:0:0:
347,36,116575,1,0,0:0:0:0:
268,79,116754,6,0,P|217:96|169:95,1,90
80,172,117114,2,0,P|133:173|169:188,1,90,8|0,0:0|0:0,0:0:0:0:
232,248,117474,1,0,0:0:0:0:
195,330,117654,1,0,0:0:0:0:
114,289,117834,1,8,0:0:0:0:
245,173,118014,1,0,0:0:0:0:
245,173,118194,6,0,B|319:176|319:176|339:199|339:199|438:202,1,180,0|8,0:0|0:0,0:0:0:0:
244,259,118913,2,0,B|170:256|170:256|150:233|150:233|51:230,1,180,0|8,0:0|0:0,0:0:0:0:
46,253,119453,5,0,0:0:0:0:
33,286,119633,1,4,0:0:0:0:
283,315,120892,5,4,0:0:0:0:
291,279,121072,1,4,0:0:0:0:
192,64,122331,5,4,0:0:0:0:
180,98,122511,1,4,0:0:0:0:
176,205,123050,1,4,0:0:0:0:
194,236,123230,1,4,0:0:0:0:
292,284,123770,5,0,0:0:0:0:
327,286,123950,1,0,0:0:0:0:
361,274,124130,1,0,0:0:0:0:
389,251,124310,1,0,0:0:0:0:
406,219,124489,1,0,0:0:0:0:
405,182,124669,2,0,B|449:174,7,45
401,147,125389,6,0,P|331:165|226:111,1,180,4|8,0:0|0:0,0:0:0:0:
222,33,125929,1,0,0:0:0:0:
300,76,126108,2,0,P|313:125|297:166,1,90
200,287,126468,2,0,P|191:243|198:198,1,90,8|0,0:0|0:0,0:0:0:0:
306,174,126828,2,0,P|323:261|297:346,1,180,0|8,0:0|0:0,0:0:0:0:
73,194,127547,1,0,0:0:0:0:
137,131,127727,1,0,0:0:0:0:
218,169,127907,1,8,0:0:0:0:
167,243,128087,1,0,0:0:0:0:
243,273,128267,6,0,P|181:332|102:301,1,180,0|8,0:0|0:0,0:0:0:0:
218,169,128807,1,0,0:0:0:0:
312,226,128987,2,0,P|327:277|310:324,1,90
218,169,129346,2,0,P|203:118|220:71,1,90,8|0,0:0|0:0,0:0:0:0:
310,115,129706,6,0,B|253:140|253:140|193:109|121:145,1,180,0|8,0:0|0:0,0:0:0:0:
217,302,130426,2,0,B|274:277|274:277|334:308|406:272,1,180,0|8,0:0|0:0,0:0:0:0:
404,280,131145,6,0,P|431:220|393:108,1,180,0|8,0:0|0:0,0:0:0:0:
328,58,131685,1,0,0:0:0:0:
262,119,131865,1,0,0:0:0:0:
176,89,132045,1,0,0:0:0:0:
94,125,132224,2,0,P|79:170|84:217,1,90,8|0,0:0|0:0,0:0:0:0:
80,302,132584,6,0,B|141:294|160:247|160:247|187:209|248:220,1,180,0|8,0:0|0:0,0:0:0:0:
297,275,133124,2,0,B|245:245|238:209|238:209|258:166|224:119,1,180
143,156,133664,2,0,P|96:168|49:157,1,90,8|0,0:0|0:0,0:0:0:0:
127,84,134023,6,0,B|176:75|217:108|217:108|207:157|246:197,1,180,0|8,0:0|0:0,0:0:0:0:
402,189,134563,2,0,B|402:140|374:106|374:106|331:136|279:128,1,180
303,222,135103,2,0,P|313:270|298:311,1,90,8|0,0:0|0:0,0:0:0:0:
222,230,135462,6,0,P|179:248|133:245,1,90
245,91,135822,2,0,P|288:73|334:76,1,90,8|0,0:0|0:0,0:0:0:0:
395,138,136182,1,0,0:0:0:0:
325,195,136362,1,8,0:0:0:0:
236,181,136542,2,0,P|186:178|153:151,1,90,8|0,0:0|0:0,0:0:0:0:
81,102,136901,6,0,P|52:157|90:287,1,180,4|8,0:0|0:0,0:0:0:0:
143,314,137441,1,2,0:0:0:0:
212,256,137621,2,0,L|305:256,1,90,0|2,0:0|0:0,0:0:0:0:
345,176,137981,2,0,P|358:126|351:84,1,90,8|2,0:0|0:0,0:0:0:0:
264,68,138341,6,0,P|247:131|270:210,1,135
299,223,138700,2,0,P|250:244|204:236,1,90,8|2,0:0|0:0,0:0:0:0:
133,200,139060,1,0,0:0:0:0:
65,140,139240,1,2,0:0:0:0:
148,73,139420,1,8,0:0:0:0:
87,264,139600,1,2,0:0:0:0:
87,264,139780,6,0,P|152:304|265:278,1,180,0|8,0:0|0:0,0:0:0:0:
480,319,140319,2,0,B|434:306|388:325|388:325|357:289|365:239,1,180
349,115,140859,2,0,P|394:108|439:124,1,90,8|0,0:0|0:0,0:0:0:0:
464,207,141219,6,0,P|389:221|286:173,1,180,0|8,0:0|0:0,0:0:0:0:
48,177,141938,2,0,P|123:163|226:211,1,180,0|8,0:0|0:0,0:0:0:0:
208,152,142658,6,0,B|215:200|181:237|181:237|153:264|172:337,1,180,4|8,0:0|0:0,0:0:0:0:
256,304,143197,1,0,0:0:0:0:
306,214,143377,2,0,P|307:154|291:121,1,90
367,264,143737,2,0,P|366:324|382:357,1,90,8|0,0:0|0:0,0:0:0:0:
444,289,144097,6,0,P|446:228|341:176,1,180,4|8,0:0|0:0,0:0:0:0:
177,71,144636,2,0,P|142:125|192:237,1,180
301,119,145176,2,0,P|247:128|208:149,1,90,8|0,0:0|0:0,0:0:0:0:
344,193,145536,6,0,P|383:144|325:42,1,180,4|8,0:0|0:0,0:0:0:0:
292,277,146076,2,0,P|323:322|438:308,1,180
236,210,146615,2,0,P|208:249|206:301,1,90,8|0,0:0|0:0,0:0:0:0:
295,151,146975,6,0,P|323:112|325:60,1,90,4|0,0:0|0:0,0:0:0:0:
170,176,147335,2,0,P|142:215|140:267,1,90,8|0,0:0|0:0,0:0:0:0:
267,315,147695,1,4,0:0:0:0:
279,301,147784,1,0,0:0:0:0:
289,286,147874,1,8,0:0:0:0:
298,270,147964,1,0,0:0:0:0:
304,253,148054,1,8,0:0:0:0:
309,235,148144,1,0,0:0:0:0:
313,217,148234,1,8,0:0:0:0:
315,199,148324,1,0,0:0:0:0:
315,181,148414,1,4,0:0:0:0:
256,192,148504,12,0,150393,0:0:0:0:
