osu file format v12

[General]
AudioFilename: forever_young.mp3
AudioLeadIn: 0
PreviewTime: 49118
Countdown: 0
SampleSet: Soft
StackLeniency: 0.7
Mode: 0
LetterboxInBreaks: 1
EpilepsyWarning: 1
WidescreenStoryboard: 0

[Editor]
DistanceSpacing: 1
BeatDivisor: 4
GridSize: 4

[Metadata]
Title:Forever Young (Nightcore Mix)
TitleUnicode:Forever Young (Nightcore Mix)
Artist:Alphaville
ArtistUnicode:Alphaville
Creator:kelvinli
Version:Hard
Source:
Tags:remix Marian Gold Martin Lister David Goodes Jakob Kiersch
BeatmapID:204951
BeatmapSetID:58265

[Difficulty]
HPDrainRate:5
CircleSize:4
OverallDifficulty:6
ApproachRate:7
SliderMultiplier:1.5
SliderTickRate:1

[Events]
//Background and Video events
0,0,"bg.jpg",0,0
//Break Periods
2,83856,88512
//Storyboard Layer 0 (Background)
//Storyboard Layer 1 (Fail)
//Storyboard Layer 2 (Pass)
//Storyboard Layer 3 (Foreground)
//Storyboard Sound Samples
//Background Colour Transformations
3,100,163,162,255

[TimingPoints]
190,359.768309208869,4,1,0,60,1,0
11882,-100,4,2,0,60,0,0
13141,-100,4,1,0,60,0,0
26093,-133.333333333333,4,2,0,60,0,0
49118,-100,4,1,0,60,0,1
72143,-100,4,1,0,60,0,0
125389,-100,4,1,0,60,0,1
136722,-100,4,1,0,60,0,0
136902,-100,4,1,0,60,0,1
148414,-100,4,1,0,60,0,0
150393,-100,4,2,0,5,0,0

[Colours]
Combo1 : 254,225,129
Combo2 : 255,0,0
Combo3 : 255,128,128

[HitObjects]
191,111,11702,2,0,B|211:159|211:211|193:257,1,150,4|2,0:0|0:0,0:0:0:0:
124,232,12242,2,0,B|144:176|228:156|264:216|264:216|332:228,1,225,0|2,0:0|0:0,0:0:0:0:
328,76,13141,5,4,0:0:0:0:
312,148,13321,2,0,L|360:152,2,37.5,0|0|8,0:0|0:0|0:0,0:0:0:0:
244,116,13681,2,0,P|208:104|160:120,1,75
96,104,14041,2,0,L|60:68,2,37.5,0|0|8,0:0|0:0|0:0,0:0:0:0:
40,152,14400,2,0,B|32:192|32:192|40:232,1,75,0|4,0:0|0:0,0:0:0:0:
96,276,14760,6,0,L|60:312,2,37.5,0|0|8,0:0|0:0|0:0,0:0:0:0:
148,328,15120,2,0,B|192:340|192:340|240:332,1,75
192,264,15480,2,0,L|188:224,2,37.5,0|0|8,0:0|0:0|0:0,0:0:0:0:
268,260,15839,2,0,L|258:177,1,75,2|4,1:2|0:0,0:0:0:0:
216,120,16199,6,0,L|180:128,2,37.5,0|0|8,0:0|0:0|0:0,0:0:0:0:
184,52,16559,2,0,L|268:36,1,75
332,56,16919,2,0,L|380:48,2,37.5,0|0|8,0:0|0:0|0:0,0:0:0:0:
284,112,17278,2,0,P|320:132|368:120,1,75,0|4,0:0|0:0,0:0:0:0:
428,124,17638,6,0,L|476:100,2,37.5,0|0|8,0:0|0:0|0:0,0:0:0:0:
432,200,17998,2,0,L|344:200,1,75
292,240,18358,2,0,L|256:272,2,37.5,0|0|8,0:0|0:0|0:0,0:0:0:0:
256,176,18718,1,2,1:2:0:0:
300,116,18897,6,0,B|316:72|316:72|316:36,1,75,4|0,0:0|0:0,0:0:0:0:
212,72,19257,2,0,B|196:116|196:116|196:152,1,75,8|0,0:0|0:0,0:0:0:0:
196,239,19617,2,0,B|196:268|196:268|212:312,1,75,0|0,0:0|0:0,0:0:0:0:
300,272,19977,2,0,B|316:228|316:228|316:192,1,75,8|0,0:0|0:0,0:0:0:0:
308,164,20247,1,0,0:0:0:0:
304,128,20337,6,0,L|204:128,1,75,4|0,0:0|0:0,0:0:0:0:
192,192,20696,2,0,L|96:192,1,75,8|0,0:0|0:0,0:0:0:0:
64,140,21056,2,0,P|40:188|56:240,2,75,0|0|8,0:0|0:0|0:0,0:0:0:0:
121,91,21596,1,2,1:2:0:0:
180,48,21776,6,0,B|220:60|220:60|256:88,1,75,4|0,0:0|0:0,0:0:0:0:
328,40,22135,2,0,B|340:80|340:80|332:132,1,75,8|0,0:0|0:0,0:0:0:0:
408,188,22495,2,0,B|376:208|376:208|328:208,1,75
284,316,22855,2,0,B|244:284|244:284|236:244,1,75,8|0,0:0|0:0,0:0:0:0:
168,292,23215,6,0,B|168:248|168:248|176:212|208:196,1,112.5,4|0,0:0|0:0,0:0:0:0:
256,64,23754,1,4,0:0:0:0:
304,196,24024,2,0,B|336:212|344:248|344:248|344:292,1,112.5,4|0,0:0|0:0,0:0:0:0:
344,292,24654,5,4,0:0:0:0:
105,195,26093,6,0,P|137:187|169:191,1,56.2500021457673,4|0,0:0|0:0,0:0:0:0:
184,195,26453,2,0,P|240:207|320:207,1,112.500004291535,2|0,0:0|0:0,0:0:0:0:
441,201,27172,2,0,P|409:193|377:197,1,56.2500021457673,2|0,0:0|0:0,0:0:0:0:
369,185,27532,2,0,B|344:144|344:144|312:128|312:84,1,112.500004291535,4|2,0:0|0:0,0:0:0:0:
200,88,28251,2,0,B|200:128|168:144|168:144|142:185,1,112.500004291535,0|2,0:0|0:0,0:0:0:0:
103,242,28791,1,0,0:0:0:0:
53,295,28971,6,0,L|9:283,2,28.1250010728836,4|0|0,0:0|0:0|0:0,0:0:0:0:
121,322,29331,2,0,L|181:322,1,56.2500021457673,2|0,0:0|0:0,0:0:0:0:
238,281,29691,2,0,L|310:281,1,56.2500021457673
342,336,30050,2,0,L|399:336,1,56.2500021457673,2|0,0:0|0:0,0:0:0:0:
468,314,30410,6,0,B|456:274|416:262|416:262|400:226,1,112.500004291535,4|2,0:0|0:0,0:0:0:0:
264,117,31130,2,0,B|276:157|316:169|316:169|332:205,1,112.500004291535,0|2,0:0|0:0,0:0:0:0:
292,264,31669,1,0,0:0:0:0:
342,316,31849,6,0,L|374:332,2,28.1250010728836,4|0|0,0:0|0:0|0:0,0:0:0:0:
273,343,32209,2,0,L|217:367,1,56.2500021457673,2|0,0:0|0:0,0:0:0:0:
163,314,32569,2,0,L|219:290,1,56.2500021457673
231,211,32928,2,0,L|171:231,1,56.2500021457673,2|0,0:0|0:0,0:0:0:0:
105,215,33288,6,0,B|113:171|153:155|153:155|185:111,1,112.500004291535,4|2,0:0|0:0,0:0:0:0:
146,60,33828,2,0,P|194:88|273:84,1,112.500004291535
322,80,34367,2,2,P|350:68|390:72,1,56.2500021457673
367,141,34727,6,0,L|407:253,1,112.500004291535
438,181,35267,2,0,P|382:173|336:206,1,112.500004291535
310,271,35807,2,0,P|285:251|271:226,1,56.2500021457673,2|0,0:0|0:0,0:0:0:0:
200,212,36166,6,0,L|200:269,1,56.2500021457673,4|0,0:0|0:0,0:0:0:0:
304,172,36526,2,0,L|304:115,1,56.2500021457673,2|0,0:0|0:0,0:0:0:0:
208,240,36886,2,0,L|208:300,1,56.2500021457673,4|0,0:0|0:0,0:0:0:0:
312,188,37246,2,0,L|312:128,1,56.2500021457673
264,96,37605,6,0,L|208:96,1,56.2500021457673,4|0,0:0|0:0,0:0:0:0:
152,47,37965,2,0,B|124:75|120:119|152:147,1,112.500004291535,2|0,0:0|0:0,0:0:0:0:
248,288,38685,2,0,L|304:288,1,56.2500021457673,2|0,0:0|0:0,0:0:0:0:
356,339,39044,2,0,B|384:311|388:267|356:239,1,112.500004291535,4|2,0:0|0:0,0:0:0:0:
168,148,39764,2,0,B|136:120|140:76|168:48,1,112.500004291535,0|2,0:0|0:0,0:0:0:0:
219,100,40304,1,0,0:0:0:0:
269,47,40484,6,0,L|269:11,2,28.1250010728836,4|0|0,0:0|0:0|0:0,0:0:0:0:
316,102,40843,2,0,L|376:134,1,56.2500021457673,2|0,0:0|0:0,0:0:0:0:
357,201,41203,2,0,L|297:201,1,56.2500021457673
312,299,41563,2,0,L|372:267,1,56.2500021457673,2|0,0:0|0:0,0:0:0:0:
428,249,41923,6,0,L|428:125,1,112.500004291535,4|2,0:0|0:0,0:0:0:0:
92,135,42642,2,0,L|92:248,1,112.500004291535,0|2,0:0|0:0,0:0:0:0:
118,316,43182,1,0,0:0:0:0:
185,344,43362,6,0,L|216:360,2,28.1250010728836,4|0|0,0:0|0:0|0:0,0:0:0:0:
196,272,43721,2,0,L|212:212,1,56.2500021457673,2|0,0:0|0:0,0:0:0:0:
256,156,44081,2,0,L|256:100,1,56.2500021457673
301,217,44441,2,0,L|316:272,1,56.2500021457673,2|0,0:0|0:0,0:0:0:0:
335,342,44801,6,0,P|383:310|379:250,1,112.500004291535,4|2,0:0|0:0,0:0:0:0:
448,224,45340,2,0,P|412:184|356:188,1,112.500004291535
283,184,45880,2,2,L|223:184,1,56.2500021457673
153,191,46240,6,0,P|123:188|81:121,1,112.500004291535,4|2,0:0|0:0,0:0:0:0:
154,121,46779,2,0,P|162:73|216:41,1,112.500004291535
222,110,47319,2,2,L|286:110,1,56.2500021457673
313,174,47679,6,0,L|381:174,1,56.2500021457673,4|0,0:0|0:0,0:0:0:0:
212,232,48039,2,0,L|144:232,1,56.2500021457673,2|0,0:0|0:0,0:0:0:0:
320,193,48398,2,0,L|388:193,1,56.2500021457673,4|0,0:0|0:0,0:0:0:0:
196,252,48758,2,0,L|128:252,1,56.2500021457673,2|0,0:0|0:0,0:0:0:0:
68,268,49118,6,0,B|80:324|132:324|132:324|208:324,1,150,4|8,0:0|0:0,0:0:0:0:
256,276,49658,2,0,L|256:184,2,75,0|0|8,0:0|0:0|0:0,0:0:0:0:
256,360,50197,1,8,0:0:0:0:
323,324,50377,1,0,0:0:0:0:
323,324,50557,2,0,B|380:324|380:324|432:324|444:268,1,150,4|8,0:0|0:0,0:0:0:0:
344,155,51277,5,0,0:0:0:0:
280,192,51456,1,8,0:0:0:0:
280,192,51636,2,0,L|200:192,1,75,8|0,0:0|0:0,0:0:0:0:
160,252,51996,2,0,P|120:192|160:136,1,150,4|8,0:0|0:0,0:0:0:0:
80,96,52536,2,0,P|40:192|80:300,1,225,0|8,0:0|0:0,0:0:0:0:
120,363,53255,1,0,0:0:0:0:
176,312,53435,6,0,B|240:312|256:320|256:320|272:312|328:312,1,150,4|8,0:0|0:0,0:0:0:0:
336,72,54155,2,0,B|272:72|256:64|256:64|240:72|184:72,1,150,0|8,0:0|0:0,0:0:0:0:
116,100,54694,1,0,0:0:0:0:
44,80,54874,6,0,L|32:36,2,37.5
36,156,55234,2,0,B|28:192|28:192|36:232,1,75,8|0,0:0|0:0,0:0:0:0:
104,192,55594,2,0,L|188:192,1,75,0|8,0:0|0:0,0:0:0:0:
248,228,55954,2,0,B|255:190|255:190|247:154,1,75,8|0,0:0|0:0,0:0:0:0:
180,120,56313,6,0,P|240:80|308:112,1,150,4|8,0:0|0:0,0:0:0:0:
316,180,56853,2,0,B|380:160|376:104|376:104|424:88,1,150,0|8,0:0|0:0,0:0:0:0:
468,148,57393,2,0,B|439:156|439:156|412:204,1,75,8|0,0:0|0:0,0:0:0:0:
471,244,57752,6,0,B|408:289|363:240|363:240|315:260,1,150,4|8,0:0|0:0,0:0:0:0:
340,328,58292,2,0,P|272:308|260:232,1,150,0|8,0:0|0:0,0:0:0:0:
192,200,58832,2,0,P|224:172|256:164,1,75,8|0,0:0|0:0,0:0:0:0:
320,196,59192,6,0,P|328:168|320:124,2,75,4|0|8,0:0|0:0|0:0,0:0:0:0:
284,264,59731,1,0,0:0:0:0:
236,324,59911,2,0,P|212:280|220:232,1,75,0|8,0:0|0:0,0:0:0:0:
252,192,60271,2,0,P|292:156|296:128,1,75,8|0,0:0|0:0,0:0:0:0:
224,124,60631,6,0,B|176:148|176:148|124:136|64:160,1,150,4|8,0:0|0:0,0:0:0:0:
16,192,61170,1,0,0:0:0:0:
72,240,61350,2,0,P|120:224|168:212,1,75,0|8,0:0|0:0,0:0:0:0:
142,292,61710,2,0,L|222:264,1,75,8|0,0:0|0:0,0:0:0:0:
288,260,62070,2,0,B|336:236|336:236|388:248|448:224,1,150,4|8,0:0|0:0,0:0:0:0:
420,80,62789,6,0,P|384:92|344:88,1,75,0|8,0:0|0:0,0:0:0:0:
272,76,63149,2,0,L|196:76,1,75,8|0,0:0|0:0,0:0:0:0:
205,151,63509,2,0,P|136:124|124:56,1,150,4|8,0:0|0:0,0:0:0:0:
53,81,64048,2,0,B|48:148|105:220|200:224,1,225,0|8,0:0|0:0,0:0:0:0:
270,238,64768,1,0,0:0:0:0:
324,292,64948,6,0,B|364:244|336:196|336:196|336:148,1,150,4|8,0:0|0:0,0:0:0:0:
188,92,65667,2,0,B|148:140|176:188|176:188|176:236,1,150,0|8,0:0|0:0,0:0:0:0:
184,308,66207,1,0,0:0:0:0:
256,324,66387,6,0,L|256:364,2,37.5,4|0|0,0:0|0:0|0:0,0:0:0:0:
328,308,66747,2,0,P|368:292|392:264,1,75,8|0,0:0|0:0,0:0:0:0:
324,228,67106,2,0,L|324:152,1,75,0|8,0:0|0:0,0:0:0:0:
389,115,67466,2,0,P|368:92|328:76,1,75,8|0,0:0|0:0,0:0:0:0:
272,24,67826,6,0,B|240:56|256:100|256:100|256:176,1,150,4|8,0:0|0:0,0:0:0:0:
192,208,68366,2,0,P|256:248|316:212,1,150,0|8,0:0|0:0,0:0:0:0:
324,140,68905,2,0,P|372:164|384:204,1,75,8|0,0:0|0:0,0:0:0:0:
448,212,69265,6,0,B|420:256|372:256|372:256|332:300,1,150,4|8,0:0|0:0,0:0:0:0:
404,324,69805,2,0,B|372:356|372:356|308:388|264:324,1,150,0|8,0:0|0:0,0:0:0:0:
272,260,70344,2,0,P|232:272|208:296,1,75,8|0,0:0|0:0,0:0:0:0:
168,232,70704,6,0,L|136:136,1,75,4|0,0:0|0:0,0:0:0:0:
220,164,71064,2,0,L|224:76,1,75,8|0,0:0|0:0,0:0:0:0:
300,96,71424,2,0,L|320:60,7,37.5,0|0|8|0|8|0|0|0,0:0|0:0|0:0|0:0|0:0|0:0|0:0|0:0,0:0:0:0:
356,52,72143,6,0,L|440:52,1,75,4|0,0:0|0:0,0:0:0:0:
412,132,72503,2,0,L|504:152,1,75,8|0,0:0|0:0,0:0:0:0:
485,236,72863,2,0,L|412:252,1,75,0|8,0:0|0:0,0:0:0:0:
431,332,73222,2,0,L|356:332,1,75,8|0,0:0|0:0,0:0:0:0:
336,252,73582,6,0,B|352:208|352:208|332:160,1,75,4|0,0:0|0:0,0:0:0:0:
308,108,73942,2,0,L|296:32,1,75,8|0,0:0|0:0,0:0:0:0:
215,33,74302,2,0,L|204:108,1,75,0|8,0:0|0:0,0:0:0:0:
170,181,74662,2,0,B|160:208|160:208|176:252,1,75,8|0,0:0|0:0,0:0:0:0:
156,332,75021,6,0,L|72:332,1,75,4|0,0:0|0:0,0:0:0:0:
100,252,75381,2,0,L|8:232,1,75,8|0,0:0|0:0,0:0:0:0:
26,147,75741,2,0,L|100:132,1,75,0|8,0:0|0:0,0:0:0:0:
81,52,76101,2,0,L|156:52,1,75,8|0,0:0|0:0,0:0:0:0:
237,65,76460,6,0,B|224:110|180:123|180:123|158:198,1,150,4|2,2:0|2:0,0:0:0:0:
275,319,77180,2,0,B|288:274|332:261|332:261|354:186,1,150,0|2,2:0|2:0,0:0:0:0:
406,59,77899,5,4,0:0:0:0:
335,101,78079,1,0,0:0:0:0:
260,64,78259,2,0,P|219:90|204:120,1,75,8|0,0:0|0:0,0:0:0:0:
175,238,78619,2,0,P|216:212|231:182,2,75,0|0|8,0:0|0:0|0:0,0:0:0:0:
91,236,79159,1,0,0:0:0:0:
128,313,79339,6,0,P|168:333|205:326,1,75,4|0,0:0|0:0,0:0:0:0:
256,272,79698,1,8,0:0:0:0:
319,324,79878,1,0,0:0:0:0:
395,291,80058,2,0,P|424:295|464:275,1,75
452,192,80418,2,0,L|379:171,1,75,8|0,0:0|0:0,0:0:0:0:
297,165,80778,6,0,P|237:181|184:162,1,112.5,4|0,0:0|0:0,0:0:0:0:
151,152,81137,1,8,0:0:0:0:
169,71,81317,1,0,0:0:0:0:
250,59,81497,2,0,P|308:72|348:134,1,112.5,4|0,0:0|0:0,0:0:0:0:
361,147,81857,1,8,0:0:0:0:
338,226,82037,1,0,0:0:0:0:
368,301,82217,6,0,P|325:312|288:303,1,75,4|0,0:0|0:0,0:0:0:0:
219,275,82576,1,8,0:0:0:0:
139,295,82756,1,0,0:0:0:0:
74,243,82936,2,0,B|62:204|62:204|64:168,1,75,4|0,0:0|0:0,0:0:0:0:
202,87,83296,2,0,B|214:126|214:126|212:162,1,75,8|0,0:0|0:0,0:0:0:0:
131,137,83656,1,4,0:0:0:0:
224,108,89412,6,0,B|280:108|280:108|308:69|368:64,1,150,4|8,0:0|0:0,0:0:0:0:
435,99,89952,1,0,0:0:0:0:
372,148,90132,2,0,B|316:184|316:184|224:184,1,150,0|8,0:0|0:0,0:0:0:0:
156,152,90671,1,0,0:0:0:0:
148,234,90851,2,0,B|204:270|204:270|296:270,1,150,0|8,0:0|0:0,0:0:0:0:
372,232,91391,1,0,0:0:0:0:
424,168,91571,6,0,L|424:88,1,75,0|2,0:0|0:0,0:0:0:0:
348,128,91930,2,0,L|348:40,1,75,8|2,0:0|0:0,0:0:0:0:
264,48,92290,6,0,B|264:144|264:144|228:192,1,150,4|8,0:0|0:0,0:0:0:0:
156,216,92830,1,0,0:0:0:0:
76,232,93010,2,0,B|80:276|140:300|140:300|176:336,1,150,0|8,0:0|0:0,0:0:0:0:
256,360,93549,1,0,0:0:0:0:
336,336,93729,2,0,B|372:300|372:300|432:276|436:232,1,150,0|8,0:0|0:0,0:0:0:0:
356,212,94269,1,0,0:0:0:0:
284,252,94449,6,0,P|232:252|200:240,1,75,2|0,0:0|0:0,0:0:0:0:
248,172,94809,2,0,P|208:152|180:120,1,75,10|0,0:0|0:0,0:0:0:0:
256,88,95168,6,0,B|208:36|148:60|148:60|112:88,1,150,4|8,0:0|0:0,0:0:0:0:
80,148,95708,1,0,0:0:0:0:
64,228,95888,2,0,P|128:264|208:248,1,150,0|8,0:0|0:0,0:0:0:0:
256,192,96428,1,0,0:0:0:0:
311,131,96607,2,0,P|384:120|448:156,1,150,0|8,0:0|0:0,0:0:0:0:
372,192,97147,1,0,0:0:0:0:
432,248,97327,6,0,B|408:276|408:276|360:272,1,75,0|2,0:0|0:0,0:0:0:0:
320,336,97687,2,0,B|292:304|292:304|292:264,1,75,8|2,0:0|0:0,0:0:0:0:
284,188,98046,6,0,B|228:204|216:248|216:248|216:316,1,150,4|8,0:0|0:0,0:0:0:0:
148,348,98586,1,0,0:0:0:0:
68,364,98766,2,0,P|40:296|40:208,1,150,0|8,0:0|0:0,0:0:0:0:
68,144,99306,1,0,0:0:0:0:
124,84,99486,2,0,L|144:44,2,37.5
148,164,99845,2,0,L|168:216,2,37.5,0|0|0,0:0|0:0|0:0,0:0:0:0:
220,120,100205,6,0,L|248:212,1,75,2|0,0:0|0:0,0:0:0:0:
308,140,100565,2,0,L|340:232,1,75,10|0,0:0|0:0,0:0:0:0:
404,184,100925,5,4,0:0:0:0:
472,220,101105,2,0,L|476:264,2,37.5,0|0|8,0:0|0:0|0:0,0:0:0:0:
476,144,101464,2,0,B|468:100|468:100|452:64,1,75
383,51,101824,2,0,L|373:92,2,37.5,0|0|8,0:0|0:0|0:0,0:0:0:0:
307,49,102184,2,0,B|263:57|263:57|223:53,1,75
240,128,102544,2,0,L|284:132,2,37.5,0|0|8,0:0|0:0|0:0,0:0:0:0:
164,116,102903,1,0,0:0:0:0:
184,188,103083,6,0,L|268:200,1,75,0|2,0:0|0:0,0:0:0:0:
268,272,103443,2,0,L|180:260,1,75,8|2,0:0|0:0,0:0:0:0:
124,236,103803,5,4,0:0:0:0:
64,192,103983,2,0,L|40:224,2,37.5,0|0|8,0:0|0:0|0:0,0:0:0:0:
16,132,104342,2,0,L|72:72,1,75
132,40,104702,2,0,L|120:0,2,37.5,0|0|8,0:0|0:0|0:0,0:0:0:0:
208,28,105062,2,0,B|200:72|200:72|184:112,1,75
260,124,105422,2,0,L|276:80,2,37.5,0|0|8,0:0|0:0|0:0,0:0:0:0:
236,196,105781,1,0,0:0:0:0:
308,208,105961,6,0,P|284:252|240:268,1,75,2|0,0:0|0:0,0:0:0:0:
276,340,106321,2,0,P|232:336|200:300,1,75,10|0,0:0|0:0,0:0:0:0:
184,248,106681,6,0,L|200:168,1,75,4|0,0:0|0:0,0:0:0:0:
148,116,107041,2,0,B|184:96|184:96|224:96,1,75,8|0,0:0|0:0,0:0:0:0:
294,96,107400,2,0,B|328:96|328:96|364:116,1,75
313,174,107760,2,0,L|328:248,1,75,8|0,0:0|0:0,0:0:0:0:
336,284,108029,1,0,0:0:0:0:
312,312,108120,2,0,P|256:312|224:288,1,75
152,292,108480,2,0,P|164:248|200:224,1,75,8|0,0:0|0:0,0:0:0:0:
124,144,108840,6,0,P|176:112|212:112,1,75,0|2,0:0|0:0,0:0:0:0:
280,32,109199,2,0,P|300:76|296:120,1,75,8|2,0:0|0:0,0:0:0:0:
256,192,109559,12,4,112437,0:0:0:0:
56,120,113876,6,0,P|36:192|56:276,1,150
192,320,114596,2,0,P|256:344|336:320,1,150
461,264,115315,2,0,P|476:192|456:120,1,150
316,64,116035,2,0,L|236:64,1,75
256,136,116395,2,0,L|176:136,1,75
148,68,116754,6,0,B|92:112|112:164|112:164|112:208,1,150,4|0,0:0|0:0,0:0:0:0:
176,340,117474,2,0,P|252:348|324:340,1,150
368,208,118194,2,0,B|424:164|404:112|404:112|404:68,1,150,0|0,0:0|0:0,0:0:0:0:
256,40,118913,1,0,0:0:0:0:
176,168,119273,2,0,P|132:176|92:160,2,75,0|0|4,0:0|0:0|0:0,0:0:0:0:
308,324,120892,6,0,P|344:294|360:259,1,75,0|4,0:0|0:0,0:0:0:0:
204,60,122331,6,0,P|168:90|152:125,1,75,0|4,0:0|0:0,0:0:0:0:
204,357,123050,2,0,P|235:314|245:274,1,75,0|4,0:0|0:0,0:0:0:0:
35,203,123770,5,0,0:0:0:0:
63,280,123950,2,0,P|78:328|103:347,1,75
142,281,124310,2,0,P|149:242|136:204,1,75
144,134,124669,2,0,L|182:134,7,37.5
68,116,125389,6,0,B|80:60|132:60|132:60|208:60,1,150,4|8,0:0|0:0,0:0:0:0:
256,108,125929,2,0,L|256:200,2,75,0|0|8,0:0|0:0|0:0,0:0:0:0:
256,24,126468,1,8,0:0:0:0:
323,60,126648,1,0,0:0:0:0:
323,60,126828,2,0,B|380:60|380:60|432:60|444:116,1,150,4|8,0:0|0:0,0:0:0:0:
346,229,127547,5,0,0:0:0:0:
280,192,127727,1,8,0:0:0:0:
280,192,127907,2,0,L|200:192,1,75,8|0,0:0|0:0,0:0:0:0:
160,131,128267,2,0,P|120:191|160:247,1,150,4|8,0:0|0:0,0:0:0:0:
85,302,128807,2,0,P|40:192|80:96,1,225,0|8,0:0|0:0,0:0:0:0:
124,20,129526,1,0,0:0:0:0:
176,72,129706,6,0,B|240:72|256:64|256:64|272:72|328:72,1,150,4|8,0:0|0:0,0:0:0:0:
336,312,130426,2,0,B|272:312|256:320|256:320|240:312|184:312,1,150,0|8,0:0|0:0,0:0:0:0:
116,284,130965,1,0,0:0:0:0:
44,304,131145,6,0,L|32:348,2,37.5
36,228,131505,2,0,B|28:192|28:192|36:152,1,75,8|0,0:0|0:0,0:0:0:0:
104,192,131865,2,0,L|188:192,1,75,0|8,0:0|0:0,0:0:0:0:
248,156,132224,2,0,B|255:194|255:194|247:230,1,75,8|0,0:0|0:0,0:0:0:0:
180,264,132584,6,0,P|240:304|308:272,1,150,4|8,0:0|0:0,0:0:0:0:
316,204,133124,2,0,B|378:226|374:282|374:282|424:296,1,150,0|8,0:0|0:0,0:0:0:0:
468,236,133664,2,0,B|436:228|436:228|412:180,1,75,8|0,0:0|0:0,0:0:0:0:
472,140,134023,6,0,B|411:100|364:144|364:144|316:124,1,150,4|8,0:0|0:0,0:0:0:0:
340,56,134563,2,0,P|272:76|260:152,1,150,0|8,0:0|0:0,0:0:0:0:
192,184,135103,2,0,P|224:212|256:220,1,75,8|0,0:0|0:0,0:0:0:0:
320,188,135462,6,0,P|328:216|320:260,2,75,4|0|8,0:0|0:0|0:0,0:0:0:0:
284,120,136002,1,0,0:0:0:0:
236,60,136182,2,0,P|212:104|220:152,1,75
252,192,136542,2,0,P|292:228|296:256,1,75,8|0,0:0|0:0,0:0:0:0:
224,260,136901,6,0,B|176:236|176:236|124:248|64:224,1,150,4|8,0:0|0:0,0:0:0:0:
16,192,137441,1,0,0:0:0:0:
72,144,137621,2,0,P|120:160|168:172,1,75,0|8,0:0|0:0,0:0:0:0:
142,92,137981,2,0,L|222:120,1,75,8|0,0:0|0:0,0:0:0:0:
288,124,138341,2,0,B|336:148|336:148|388:136|448:160,1,150,4|8,0:0|0:0,0:0:0:0:
420,304,139060,6,0,P|384:292|344:296,1,75,0|8,0:0|0:0,0:0:0:0:
272,308,139420,2,0,L|196:308,1,75,8|0,0:0|0:0,0:0:0:0:
205,233,139780,2,0,P|136:260|124:328,1,150,4|8,0:0|0:0,0:0:0:0:
53,303,140319,2,0,B|48:236|105:164|200:160,1,225,0|8,0:0|0:0,0:0:0:0:
270,146,141039,1,0,0:0:0:0:
324,92,141219,6,0,B|364:140|336:188|336:188|336:236,1,150,4|8,0:0|0:0,0:0:0:0:
188,292,141938,2,0,B|148:244|176:196|176:196|176:148,1,150,0|8,0:0|0:0,0:0:0:0:
184,76,142478,1,0,0:0:0:0:
256,60,142658,6,0,L|256:20,2,37.5,4|0|0,0:0|0:0|0:0,0:0:0:0:
328,76,143018,2,0,P|368:92|392:120,1,75,8|0,0:0|0:0,0:0:0:0:
324,156,143377,2,0,L|324:232,1,75,0|8,0:0|0:0,0:0:0:0:
389,269,143737,2,0,P|368:292|328:308,1,75,8|0,0:0|0:0,0:0:0:0:
272,360,144097,6,0,B|240:328|256:284|256:284|256:208,1,150,4|8,0:0|0:0,0:0:0:0:
192,176,144636,2,0,P|256:136|316:172,1,150,0|8,0:0|0:0,0:0:0:0:
324,244,145176,2,0,P|372:220|384:180,1,75,8|0,0:0|0:0,0:0:0:0:
448,172,145536,6,0,B|420:128|376:128|376:128|328:84,1,150,4|8,0:0|0:0,0:0:0:0:
400,56,146076,2,0,B|368:28|368:28|308:0|264:56,1,150,0|8,0:0|0:0,0:0:0:0:
230,103,146615,2,0,P|264:77|271:43,1,75,8|0,0:0|0:0,0:0:0:0:
147,13,146975,6,0,P|116:45|110:96,1,75,4|0,0:0|0:0,0:0:0:0:
165,226,147335,2,0,P|181:198|173:154,1,75,8|0,0:0|0:0,0:0:0:0:
69,174,147695,2,0,L|109:186,8,37.5,4|0|8|0|8|0|8|0|4,0:0|0:0|0:0|0:0|0:0|0:0|0:0|0:0|0:0,0:0:0:0:
256,192,148504,12,0,150393,0:0:0:0:
