osu file format v12

[General]
AudioFilename: forever_young.mp3
AudioLeadIn: 0
PreviewTime: 49118
Countdown: 0
SampleSet: Normal
StackLeniency: 0.7
Mode: 0
LetterboxInBreaks: 1
EpilepsyWarning: 1
WidescreenStoryboard: 0

[Editor]
DistanceSpacing: 1
BeatDivisor: 4
GridSize: 4

[Metadata]
Title:Forever Young (Nightcore Mix)
TitleUnicode:Forever Young (Nightcore Mix)
Artist:Alphaville
ArtistUnicode:Alphaville
Creator:kelvinli
Version:Extra
Source:
Tags:remix Marian Gold Martin Lister David Goodes Jakob Kiersch
BeatmapID:179688
BeatmapSetID:58265

[Difficulty]
HPDrainRate:7
CircleSize:4
OverallDifficulty:8
ApproachRate:9
SliderMultiplier:1.9
SliderTickRate:1

[Events]
//Background and Video events
0,0,"bg.jpg",0,0
//Break Periods
2,83856,88812
//Storyboard Layer 0 (Background)
//Storyboard Layer 1 (Fail)
//Storyboard Layer 2 (Pass)
//Storyboard Layer 3 (Foreground)
//Storyboard Sound Samples
//Background Colour Transformations
3,100,163,162,255

[TimingPoints]
190,359.768309208869,4,1,0,60,1,0
11882,-100,4,2,0,60,0,0
13141,-111.111111111111,4,1,0,60,0,0
18897,-111.111111111111,4,1,0,80,0,0
24474,-200,4,1,0,60,0,0
24834,-111.111111111111,4,2,0,60,0,0
26093,-133.333333333333,4,2,0,60,0,0
49118,-100,4,1,0,60,0,1
72143,-111.111111111111,4,1,0,60,0,0
113877,-100,4,2,0,80,0,0
119633,-200,4,1,0,60,0,0
123590,-100,4,1,0,60,0,0
125389,-100,4,1,0,60,0,1
136722,-100,4,1,0,60,0,0
136902,-100,4,1,0,60,0,1
137262,-100,4,1,0,58,0,1
137621,-100,4,1,0,56,0,1
137981,-100,4,1,0,54,0,1
138341,-100,4,1,0,52,0,1
138701,-100,4,1,0,50,0,1
139060,-100,4,1,0,48,0,1
139420,-100,4,1,0,46,0,1
139780,-100,4,1,0,60,0,1
145896,-100,4,1,0,55,0,1
146256,-100,4,1,0,50,0,1
146616,-100,4,1,0,45,0,1
146975,-100,4,1,0,40,0,1
147335,-100,4,1,0,35,0,1
147695,-100,4,1,0,30,0,1
148055,-100,4,1,0,25,0,1
148414,-100,4,1,0,20,0,0
150393,-100,4,1,0,5,0,0

[Colours]
Combo1 : 254,225,129
Combo2 : 255,0,0
Combo3 : 255,128,128

[HitObjects]
169,133,11702,5,4,0:0:0:0:
394,249,12062,2,0,L|295:282,1,95,2|0,0:0|0:0,0:0:0:0:
138,235,12781,1,2,0:0:0:0:
219,117,13141,6,0,L|303:140,1,85.4999973907472,4|0,0:0|0:0,0:0:0:0:
325,148,13411,1,0,0:0:0:0:
349,153,13501,1,8,0:0:0:0:
403,229,13681,1,0,0:0:0:0:
323,279,13861,2,0,L|233:303,1,85.4999973907472
163,246,14220,1,8,0:0:0:0:
74,278,14400,1,0,0:0:0:0:
99,187,14580,6,0,P|118:143|112:94,1,85.4999973907472
97,88,14850,1,0,0:0:0:0:
119,76,14940,2,0,L|209:62,1,85.4999973907472,8|0,0:0|0:0,0:0:0:0:
404,115,15300,2,0,L|314:129,1,85.4999973907472
198,165,15660,1,8,0:0:0:0:
288,233,15839,1,0,0:0:0:0:
290,77,16019,6,0,P|257:51|210:51,1,85.4999973907472
195,66,16289,1,0,0:0:0:0:
172,77,16379,2,0,L|80:101,1,85.4999973907472,8|0,0:0|0:0,0:0:0:0:
34,175,16739,1,0,0:0:0:0:
113,314,16919,1,0,0:0:0:0:
249,300,17099,2,0,P|231:255|198:229,1,85.4999973907472,8|0,0:0|0:0,0:0:0:0:
116,196,17458,5,0,0:0:0:0:
182,344,17638,1,0,0:0:0:0:
182,344,17728,1,0,0:0:0:0:
182,344,17818,1,8,0:0:0:0:
336,284,17998,1,0,0:0:0:0:
454,283,18178,2,0,P|463:240|448:196,1,85.4999973907472
288,89,18538,2,0,P|279:132|294:176,1,85.4999973907472,8|0,0:0|0:0,0:0:0:0:
242,268,18897,6,0,P|199:282|159:272,1,85.4999973907472,4|0,0:0|0:0,0:0:0:0:
93,205,19257,1,8,0:0:0:0:
93,205,19437,1,0,0:0:0:0:
189,130,19617,1,0,0:0:0:0:
242,269,19797,1,0,0:0:0:0:
93,205,19977,2,0,L|104:106,1,85.4999973907472,8|0,0:0|0:0,0:0:0:0:
285,51,20337,6,0,L|274:150,1,85.4999973907472
242,269,20696,2,0,L|171:206,1,85.4999973907472,8|0,0:0|0:0,0:0:0:0:
201,120,21056,1,0,0:0:0:0:
368,57,21236,1,0,0:0:0:0:
435,171,21416,2,0,P|448:214|434:263,1,85.4999973907472,8|0,0:0|0:0,0:0:0:0:
377,324,21776,5,0,0:0:0:0:
312,256,21955,1,0,0:0:0:0:
222,285,22135,2,0,L|116:257,1,85.4999973907472,8|0,0:0|0:0,0:0:0:0:
44,257,22495,1,0,0:0:0:0:
91,131,22675,1,0,0:0:0:0:
209,167,22855,2,0,P|260:175|310:154,1,85.4999973907472,8|0,0:0|0:0,0:0:0:0:
376,151,23215,6,0,P|402:203|395:252,1,85.4999973907472,4|0,0:0|2:0,0:0:0:0:
304,60,23484,2,0,L|395:30,1,85.4999973907472,4|0,0:0|2:0,0:0:0:0:
210,167,23754,2,0,P|174:132|176:73,1,85.4999973907472,4|0,0:0|2:0,0:0:0:0:
330,291,24024,2,0,P|291:329|253:339,1,85.4999973907472,4|0,0:0|2:0,0:0:0:0:
256,260,24294,1,4,0:0:0:0:
256,260,24654,2,0,B|288:208|224:176|256:112,2,142.5,4|0|2,0:0|0:0|0:0,0:0:0:0:
100,277,26093,5,4,0:0:0:0:
100,277,26183,1,0,0:0:0:0:
100,277,26273,1,0,0:0:0:0:
62,199,26453,2,0,L|125:149,1,71.2500027179719,2|0,0:0|0:0,0:0:0:0:
199,129,26812,1,0,0:0:0:0:
254,194,26992,2,0,P|308:202|330:195,1,71.2500027179719,0|2,0:0|0:0,0:0:0:0:
372,127,27352,1,0,0:0:0:0:
428,62,27532,6,0,P|417:105|455:178,1,106.875004076958,4|0,0:0|0:0,0:0:0:0:
437,162,27892,2,0,L|433:246,1,71.2500027179719,2|0,0:0|0:0,0:0:0:0:
363,282,28251,1,0,0:0:0:0:
289,325,28431,1,0,0:0:0:0:
191,223,28611,1,2,0:0:0:0:
272,247,28791,1,0,0:0:0:0:
344,202,28971,6,0,P|372:143|328:73,1,142.500005435944,4|2,0:0|0:0,0:0:0:0:
261,117,29511,2,0,P|200:132|140:70,1,142.500005435944
76,161,30050,2,0,L|28:227,1,71.2500027179719,2|0,0:0|0:0,0:0:0:0:
120,269,30410,6,0,B|169:321|169:321|253:320,1,142.500005435944,4|2,0:0|0:0,0:0:0:0:
458,193,31130,2,0,B|409:141|409:141|325:142,1,142.500005435944,0|2,0:0|0:0,0:0:0:0:
258,173,31669,1,0,0:0:0:0:
184,216,31849,5,4,0:0:0:0:
184,216,31939,1,0,0:0:0:0:
184,216,32029,1,0,0:0:0:0:
82,159,32209,2,0,P|68:118|78:71,1,71.2500027179719,2|0,0:0|0:0,0:0:0:0:
157,54,32569,1,0,0:0:0:0:
258,173,32749,1,0,0:0:0:0:
113,269,32928,2,0,L|31:258,1,71.2500027179719,2|0,0:0|0:0,0:0:0:0:
340,186,33288,6,0,P|337:234|266:293,1,142.500005435944,4|2,0:0|0:0,0:0:0:0:
266,93,33828,1,0,0:0:0:0:
395,121,34008,2,0,L|457:170,1,71.2500027179719,0|0,0:0|0:0,0:0:0:0:
465,327,34367,2,0,L|403:278,1,71.2500027179719,2|0,0:0|0:0,0:0:0:0:
330,247,34727,6,0,P|268:290|194:268,1,142.500005435944,4|2,0:0|0:0,0:0:0:0:
220,95,35267,2,0,P|257:124|251:215,1,142.500005435944
180,166,35807,2,0,P|151:133|145:102,1,71.2500027179719,2|0,0:0|0:0,0:0:0:0:
308,53,36166,5,4,0:0:0:0:
402,142,36346,1,0,0:0:0:0:
259,212,36526,2,0,P|220:239|177:239,1,71.2500027179719,2|0,0:0|0:0,0:0:0:0:
95,199,36886,1,0,0:0:0:0:
173,82,37066,1,0,0:0:0:0:
323,166,37246,2,0,L|381:221,1,71.2500027179719,2|0,0:0|0:0,0:0:0:0:
458,233,37605,5,4,1:0:0:0:
458,233,37695,1,0,0:0:0:0:
458,233,37785,1,0,0:0:0:0:
406,301,37965,2,0,P|361:322|261:287,1,142.500005435944,2|0,0:0|0:0,0:0:0:0:
150,181,38685,1,2,0:0:0:0:
71,146,38865,1,0,0:0:0:0:
88,229,39044,6,0,P|146:260|222:205,1,142.500005435944,4|2,0:0|0:0,0:0:0:0:
410,86,39764,2,0,P|435:144|413:238,1,142.500005435944,0|2,0:0|0:0,0:0:0:0:
355,272,40304,1,0,0:0:0:0:
284,140,40484,5,4,0:0:0:0:
272,157,40573,1,0,0:0:0:0:
258,173,40663,1,0,0:0:0:0:
263,258,40843,2,0,P|249:294|211:324,1,71.2500027179719,2|0,0:0|0:0,0:0:0:0:
141,330,41203,1,0,0:0:0:0:
114,218,41383,2,0,L|185:251,2,71.2500027179719,0|2|0,0:0|0:0|0:0,0:0:0:0:
38,177,41923,6,0,P|73:145|181:163,1,142.500005435944,4|2,0:0|0:0,0:0:0:0:
356,319,42642,2,0,P|432:318|458:259,1,142.500005435944,0|2,0:0|0:0,0:0:0:0:
415,190,43182,1,0,0:0:0:0:
343,236,43362,5,4,0:0:0:0:
322,243,43452,1,0,0:0:0:0:
300,244,43542,1,0,0:0:0:0:
216,259,43721,2,0,L|143:290,1,71.2500027179719,2|0,0:0|0:0,0:0:0:0:
78,239,44081,1,0,0:0:0:0:
111,139,44261,1,0,0:0:0:0:
250,51,44441,1,2,0:0:0:0:
310,148,44621,1,0,0:0:0:0:
404,218,44801,6,0,P|446:200|452:108,1,142.500005435944,4|2,0:0|0:0,0:0:0:0:
357,278,45340,2,0,L|426:301,2,71.2500027179719
217,297,45880,2,0,P|197:254|201:218,1,71.2500027179719,2|0,0:0|0:0,0:0:0:0:
265,96,46240,6,0,P|291:153|268:246,1,142.500005435944,4|2,0:0|0:0,0:0:0:0:
74,290,46779,2,0,P|48:233|71:140,1,142.500005435944
135,190,47319,2,0,L|211:157,1,71.2500027179719,2|0,0:0|0:0,0:0:0:0:
262,102,47679,5,4,0:0:0:0:
138,91,47859,1,0,0:0:0:0:
174,263,48039,2,0,P|178:302|197:347,1,71.2500027179719,2|0,0:0|0:0,0:0:0:0:
313,350,48398,1,4,0:0:0:0:
417,268,48578,1,0,0:0:0:0:
331,175,48758,1,0,0:0:0:0:
331,175,48938,1,0,0:0:0:0:
419,140,49118,6,0,P|420:212|320:264,1,190,0|8,0:0|0:0,0:0:0:0:
237,228,49658,1,0,0:0:0:0:
162,287,49838,2,0,L|68:262,1,95,0|8,0:0|0:0,0:0:0:0:
70,167,50197,2,0,P|128:167|165:129,1,95,8|0,0:0|0:0,0:0:0:0:
217,72,50557,6,0,P|264:97|285:228,1,190,0|8,0:0|0:0,0:0:0:0:
128,325,51277,1,0,0:0:0:0:
54,265,51456,1,0,0:0:0:0:
138,222,51636,1,8,0:0:0:0:
213,280,51816,1,0,0:0:0:0:
74,217,51996,6,0,P|57:168|140:68,1,190,0|8,0:0|0:0,0:0:0:0:
226,96,52536,1,0,0:0:0:0:
319,81,52716,2,0,P|366:100|414:86,1,95,0|8,0:0|0:0,0:0:0:0:
492,132,53075,1,8,0:0:0:0:
424,198,53255,1,0,0:0:0:0:
468,282,53435,6,0,P|408:342|319:305,1,190,0|8,0:0|0:0,0:0:0:0:
108,96,54155,1,0,0:0:0:0:
76,185,54335,1,8,0:0:0:0:
116,270,54515,1,8,0:0:0:0:
116,270,54694,1,0,0:0:0:0:
220,171,54874,6,0,P|235:117|151:19,1,190,0|8,0:0|0:0,0:0:0:0:
147,115,55414,1,0,0:0:0:0:
175,236,55594,2,0,P|224:253|266:235,1,95,0|8,0:0|0:0,0:0:0:0:
410,113,55954,2,0,P|361:96|319:114,1,95,8|0,0:0|0:0,0:0:0:0:
339,204,56313,6,0,P|349:256|470:307,1,190,0|8,0:0|0:0,0:0:0:0:
426,220,56853,1,0,0:0:0:0:
266,265,57033,2,0,L|177:297,1,95,0|8,0:0|0:0,0:0:0:0:
30,244,57393,2,0,L|119:212,1,95,8|0,0:0|0:0,0:0:0:0:
221,148,57752,6,0,B|266:167|266:167|300:88|405:105,1,190,0|8,0:0|0:0,0:0:0:0:
423,321,58292,2,0,P|378:304|357:174,1,190,0|8,0:0|0:0,0:0:0:0:
435,228,58832,1,8,0:0:0:0:
435,228,59012,1,0,0:0:0:0:
269,336,59192,5,0,0:0:0:0:
195,205,59371,1,0,0:0:0:0:
297,103,59551,1,8,0:0:0:0:
297,103,59731,1,0,0:0:0:0:
195,205,59911,2,0,L|90:226,1,95,0|8,0:0|0:0,0:0:0:0:
297,103,60271,2,0,L|395:132,1,95,8|0,0:0|0:0,0:0:0:0:
425,217,60631,6,0,P|400:273|275:286,1,190,4|8,0:0|0:0,0:0:0:0:
254,185,61170,1,0,0:0:0:0:
331,127,61350,2,0,P|347:178|337:221,1,95,0|8,0:0|0:0,0:0:0:0:
170,135,61710,2,0,P|154:84|164:41,1,95,8|0,0:0|0:0,0:0:0:0:
403,74,62070,6,0,B|434:141|434:141|416:225,1,142.5
419,208,62429,1,8,0:0:0:0:
393,299,62609,1,0,0:0:0:0:
301,273,62789,2,0,L|207:275,1,95,0|8,0:0|0:0,0:0:0:0:
118,314,63149,1,8,0:0:0:0:
36,265,63329,1,0,0:0:0:0:
105,200,63509,6,0,P|142:152|105:35,1,190,0|8,0:0|0:0,0:0:0:0:
57,117,64048,2,0,L|257:137,1,190,0|8,0:0|0:0,0:0:0:0:
334,99,64588,1,8,0:0:0:0:
400,166,64768,1,0,0:0:0:0:
486,126,64948,6,0,P|499:78|484:35,2,95,0|0|8,0:0|0:0|0:0,0:0:0:0:
356,265,65667,1,0,0:0:0:0:
276,316,65847,1,8,0:0:0:0:
234,230,66027,2,0,P|218:178|231:131,1,95,8|0,0:0|0:0,0:0:0:0:
304,83,66387,5,0,0:0:0:0:
454,198,66747,1,8,0:0:0:0:
436,291,66927,1,0,0:0:0:0:
330,188,67106,2,0,L|400:104,1,95,0|8,0:0|0:0,0:0:0:0:
370,275,67466,2,0,L|277:292,1,95,8|0,0:0|0:0,0:0:0:0:
188,254,67826,5,0,0:0:0:0:
41,156,68186,2,0,L|88:62,1,95,8|0,0:0|0:0,0:0:0:0:
178,67,68545,1,0,0:0:0:0:
259,156,68725,1,8,0:0:0:0:
137,208,68905,1,8,0:0:0:0:
137,208,69085,1,0,0:0:0:0:
253,78,69265,5,0,0:0:0:0:
387,212,69625,2,0,P|390:271|364:314,1,95,8|0,0:0|0:0,0:0:0:0:
282,202,69985,1,0,0:0:0:0:
389,133,70164,2,0,P|440:149|472:185,2,95,8|8|0,0:0|0:0|0:0,0:0:0:0:
295,111,70704,5,0,0:0:0:0:
276,106,70794,1,0,0:0:0:0:
257,104,70884,1,0,0:0:0:0:
238,106,70974,1,0,0:0:0:0:
220,114,71064,2,0,L|174:141,3,47.5,8|0|0|0,0:0|0:0|0:0|0:0,0:0:0:0:
220,201,71424,2,0,L|173:228,1,47.5
268,290,71604,2,0,L|310:261,1,47.5,8|0,0:0|0:0,0:0:0:0:
334,177,71783,2,0,P|382:205|397:259,1,95,8|8,0:0|0:0,0:0:0:0:
356,316,72143,5,4,0:0:0:0:
356,316,72233,1,0,0:0:0:0:
356,316,72323,1,0,0:0:0:0:
177,291,72503,1,8,0:0:0:0:
121,162,72683,1,0,0:0:0:0:
214,57,72863,2,0,P|241:101|237:151,1,85.4999973907472
71,286,73222,2,0,P|44:242|48:192,1,85.4999973907472,8|0,0:0|0:0,0:0:0:0:
98,79,73582,5,0,0:0:0:0:
98,79,73672,1,0,0:0:0:0:
98,79,73762,2,0,P|147:85|191:62,1,85.4999973907472,0|8,0:0|0:0,0:0:0:0:
289,37,74122,1,0,0:0:0:0:
366,105,74302,2,0,L|349:196,1,85.4999973907472
246,318,74662,2,0,L|217:230,1,85.4999973907472,8|0,0:0|0:0,0:0:0:0:
182,159,75021,5,0,0:0:0:0:
156,164,75111,1,0,0:0:0:0:
135,179,75201,1,0,0:0:0:0:
94,254,75381,2,0,P|94:303|116:348,1,85.4999973907472,8|0,0:0|0:0,0:0:0:0:
347,321,75741,1,0,0:0:0:0:
246,235,75921,2,0,P|197:252|172:284,2,85.4999973907472,0|8|0,0:0|0:0|0:0,0:0:0:0:
330,244,76460,6,0,P|380:246|435:145,1,170.999994781494,4|8,0:2|0:0,0:0:0:0:
182,140,77000,2,0,P|132:138|77:239,1,170.999994781494
264,188,77540,2,0,L|312:112,1,85.4999973907472,8|0,0:0|0:0,0:0:0:0:
395,115,77899,5,4,0:0:0:0:
412,113,77989,1,0,0:0:0:0:
428,117,78079,1,0,0:0:0:0:
460,196,78259,2,0,P|466:247|447:280,1,85.4999973907472,8|0,0:0|0:0,0:0:0:0:
371,309,78619,1,0,0:0:0:0:
246,259,78799,1,0,0:0:0:0:
322,132,78979,2,0,P|338:183|330:236,1,85.4999973907472,8|0,0:0|0:0,0:0:0:0:
222,131,79339,5,4,0:0:0:0:
222,131,79428,1,0,0:0:0:0:
222,131,79518,1,0,0:0:0:0:
306,31,79698,1,8,0:0:0:0:
408,140,79878,1,0,0:0:0:0:
164,201,80058,2,0,P|136:161|132:119,1,85.4999973907472
393,219,80418,2,0,P|393:271|372:312,1,85.4999973907472,8|0,0:0|0:0,0:0:0:0:
296,322,80778,5,4,0:0:0:0:
284,298,80868,1,0,0:0:0:0:
272,275,80957,1,0,0:0:0:0:
285,190,81137,2,0,P|284:136|268:98,1,85.4999973907472,8|0,0:0|0:0,0:0:0:0:
101,32,81497,1,4,0:0:0:0:
113,56,81587,1,0,0:0:0:0:
125,79,81676,1,0,0:0:0:0:
112,164,81856,2,0,P|113:218|129:256,1,85.4999973907472,8|0,0:0|0:0,0:0:0:0:
200,286,82217,5,4,0:0:0:0:
337,329,82397,1,0,0:0:0:0:
464,147,82576,1,8,0:0:0:0:
368,193,82756,1,0,0:0:0:0:
265,133,82936,1,4,0:0:0:0:
241,123,83026,1,0,0:0:0:0:
215,123,83116,1,8,0:0:0:0:
189,126,83206,1,0,0:0:0:0:
165,135,83296,1,8,0:0:0:0:
139,132,83386,1,0,0:0:0:0:
122,127,83476,1,8,0:0:0:0:
106,120,83566,1,0,0:0:0:0:
89,114,83656,1,4,0:0:0:0:
317,94,89412,5,4,0:0:0:0:
364,258,89772,2,0,P|325:290|282:294,1,85.4999973907472,8|0,0:0|0:0,0:0:0:0:
215,254,90132,1,0,0:0:0:0:
88,147,90311,2,0,P|64:190|65:233,2,85.4999973907472,0|8|0,0:0|0:0|0:0,0:0:0:0:
215,254,90851,2,0,P|212:301|190:338,1,85.4999973907472,0|0,0:0|0:0,0:0:0:0:
128,277,91211,1,8,0:0:0:0:
164,169,91391,1,0,0:0:0:0:
269,199,91571,6,0,P|314:221|361:219,1,85.4999973907472,0|2,0:0|0:0,0:0:0:0:
472,98,91930,2,0,P|427:76|380:78,1,85.4999973907472,8|2,0:0|0:0,0:0:0:0:
311,103,92290,6,0,P|230:118|158:42,1,170.999994781494,0|8,0:0|0:0,0:0:0:0:
80,56,92830,1,0,0:0:0:0:
52,235,93010,1,0,0:0:0:0:
130,172,93190,1,0,0:0:0:0:
181,245,93369,2,0,L|279:261,1,85.4999973907472,8|0,0:0|0:0,0:0:0:0:
336,313,93729,2,0,P|381:305|418:275,1,85.4999973907472
452,205,94089,1,8,0:0:0:0:
428,122,94269,1,0,0:0:0:0:
348,153,94449,5,2,0:0:0:0:
348,153,94629,1,0,0:0:0:0:
172,61,94809,1,10,0:0:0:0:
105,114,94988,1,0,0:0:0:0:
126,196,95168,6,0,P|133:259|248:307,1,170.999994781494,0|8,0:0|0:0,0:0:0:0:
304,307,95708,1,0,0:0:0:0:
436,236,95888,2,0,P|453:291|440:338,1,85.4999973907472
212,227,96248,2,0,P|195:172|208:125,1,85.4999973907472,8|0,0:0|0:0,0:0:0:0:
266,92,96607,1,0,0:0:0:0:
345,158,96787,2,0,L|432:151,2,85.4999973907472,0|8|0,0:0|0:0|0:0,0:0:0:0:
294,227,97327,5,0,0:0:0:0:
391,309,97507,1,2,0:0:0:0:
483,100,97687,1,8,0:0:0:0:
379,34,97867,1,2,0:0:0:0:
303,73,98046,6,0,P|264:92|201:83,1,85.4999973907472
145,52,98406,1,8,0:0:0:0:
145,52,98586,1,0,0:0:0:0:
79,151,98766,2,0,P|68:195|79:239,1,85.4999973907472
232,348,99126,2,0,P|243:304|232:260,1,85.4999973907472,8|0,0:0|0:0,0:0:0:0:
178,200,99486,5,0,0:0:0:0:
199,187,99575,1,0,0:0:0:0:
223,180,99665,1,0,0:0:0:0:
248,180,99755,1,0,0:0:0:0:
272,186,99845,2,0,L|319:205,3,42.7499986953736,8|0|0|0,0:0|0:0|0:0|0:0,0:0:0:0:
335,212,100205,5,2,0:0:0:0:
385,328,100385,1,0,0:0:0:0:
430,111,100565,1,10,0:0:0:0:
300,77,100745,1,0,0:0:0:0:
220,108,100925,6,0,P|169:123|129:111,1,85.4999973907472,6|0,0:0|0:0,0:0:0:0:
96,109,101194,1,0,0:0:0:0:
96,109,101284,2,0,L|60:206,1,85.4999973907472,10|0,0:0|0:0,0:0:0:0:
105,265,101644,1,2,0:0:0:0:
167,206,101824,1,0,0:0:0:0:
183,210,101914,1,0,0:0:0:0:
199,215,102004,2,0,P|241:230|262:270,1,85.4999973907472,10|0,0:0|0:0,0:0:0:0:
199,324,102364,5,2,0:0:0:0:
105,265,102544,1,0,0:0:0:0:
105,265,102634,1,0,0:0:0:0:
105,265,102723,1,10,0:0:0:0:
258,143,102903,1,0,0:0:0:0:
298,230,103083,2,0,P|307:273|299:318,1,85.4999973907472,0|2,0:0|0:0,0:0:0:0:
178,186,103443,2,0,P|169:143|177:98,1,85.4999973907472,8|2,0:0|0:0,0:0:0:0:
239,45,103803,5,2,0:0:0:0:
310,91,103983,1,0,0:0:0:0:
310,91,104073,1,0,0:0:0:0:
310,91,104163,2,0,P|366:97|405:81,1,85.4999973907472,10|0,0:0|0:0,0:0:0:0:
251,163,104522,1,2,0:0:0:0:
168,187,104702,1,0,0:0:0:0:
168,187,104792,1,0,0:0:0:0:
168,187,104882,2,0,P|112:193|73:177,1,85.4999973907472,10|0,0:0|0:0,0:0:0:0:
72,98,105242,5,2,0:0:0:0:
251,163,105422,1,0,0:0:0:0:
251,163,105512,1,0,0:0:0:0:
251,163,105602,1,10,0:0:0:0:
120,264,105781,1,0,0:0:0:0:
192,105,105961,2,0,L|265:48,1,85.4999973907472,2|0,0:0|0:0,0:0:0:0:
320,279,106321,2,0,L|247:336,1,85.4999973907472,10|0,0:0|0:0,0:0:0:0:
167,342,106681,6,0,P|110:341|86:300,1,85.4999973907472,4|0,0:0|0:0,0:0:0:0:
137,249,107041,2,0,P|112:201|137:120,1,128.249996086121,8|0,0:0|0:0,0:0:0:0:
151,95,107400,1,0,0:0:0:0:
255,155,107580,1,0,0:0:0:0:
216,282,107760,2,0,L|122:243,1,85.4999973907472,8|0,0:0|0:0,0:0:0:0:
180,174,108120,5,4,0:0:0:0:
264,66,108300,1,0,0:0:0:0:
332,177,108480,2,0,P|374:194|423:192,1,85.4999973907472,8|0,0:0|0:0,0:0:0:0:
470,62,108840,1,0,0:0:0:0:
470,62,109019,1,2,0:0:0:0:
313,304,109199,1,8,0:0:0:0:
313,304,109379,1,2,0:0:0:0:
256,192,109559,12,0,112437,0:0:0:0:
256,48,113876,5,4,1:0:0:0:
184,224,114236,1,0,1:0:0:0:
273,322,114416,1,0,0:0:0:0:
321,184,114596,1,0,1:0:0:0:
189,299,114776,1,0,0:0:0:0:
357,255,114956,1,0,1:0:0:0:
189,299,115135,1,0,0:0:0:0:
100,200,115315,2,0,B|140:122|224:148|224:148|251:92,1,190,0|0,1:0|1:0,0:0:0:0:
424,56,116035,6,0,P|439:114|426:146,1,95,0|0,1:0|0:0,0:0:0:0:
371,222,116395,2,0,L|272:234,1,95,0|0,1:0|0:0,0:0:0:0:
204,295,116754,2,0,P|149:280|128:155,1,190,0|0,1:0|1:0,0:0:0:0:
171,80,117294,1,0,0:0:0:0:
202,200,117474,1,0,1:0:0:0:
30,208,117654,1,0,0:0:0:0:
57,95,117834,1,0,1:0:0:0:
242,133,118014,1,0,0:0:0:0:
274,222,118194,6,0,P|254:265|117:290,1,190,0|0,1:0|1:0,0:0:0:0:
310,120,118913,2,0,P|330:77|467:52,1,190,0|0,1:0|1:0,0:0:0:0:
468,142,119453,1,0,1:0:0:0:
468,142,119633,5,4,1:0:0:0:
320,317,120892,1,0,0:0:0:0:
294,277,121072,1,4,0:0:0:0:
222,69,122331,5,0,0:0:0:0:
181,93,122511,1,4,0:0:0:0:
97,208,123050,1,0,0:0:0:0:
107,254,123230,1,4,0:0:0:0:
412,328,123770,1,0,0:0:0:0:
412,174,123950,1,4,0:0:0:0:
321,298,124130,1,0,0:0:0:0:
467,251,124310,1,0,0:0:0:0:
321,203,124489,1,0,0:0:0:0:
244,259,124669,5,0,0:0:0:0:
215,262,124758,1,0,0:0:0:0:
188,256,124848,1,0,0:0:0:0:
164,240,124938,1,0,0:0:0:0:
148,217,125028,1,0,0:0:0:0:
140,190,125118,1,0,0:0:0:0:
143,162,125208,1,0,0:0:0:0:
159,137,125299,1,0,0:0:0:0:
187,132,125389,6,0,P|233:144|319:50,1,190,4|8,0:0|0:0,0:0:0:0:
223,45,125929,1,0,0:0:0:0:
276,151,126108,2,0,P|294:199|278:246,1,95,0|8,0:0|0:0,0:0:0:0:
140,342,126468,2,0,P|122:294|138:247,1,95,8|0,0:0|0:0,0:0:0:0:
345,114,126828,2,0,P|370:190|346:285,1,142.5
339,293,127188,2,0,P|270:329|234:314,1,95,8|0,0:0|0:0,0:0:0:0:
198,251,127547,5,0,0:0:0:0:
65,142,127727,1,8,0:0:0:0:
59,236,127907,1,8,0:0:0:0:
167,140,128087,1,0,0:0:0:0:
250,186,128267,2,0,P|300:200|381:153,1,142.5
400,117,128627,1,8,0:0:0:0:
400,117,128807,1,0,0:0:0:0:
239,102,128987,2,0,P|190:60|153:57,2,95,0|8|8,0:0|0:0|0:0,0:0:0:0:
310,246,129526,1,0,0:0:0:0:
227,292,129706,6,0,P|161:313|93:220,1,190,0|8,0:0|0:0,0:0:0:0:
235,105,130426,1,0,0:0:0:0:
313,51,130606,1,8,0:0:0:0:
401,85,130785,1,8,0:0:0:0:
424,176,130965,1,0,0:0:0:0:
357,243,131145,6,0,P|306:281|189:221,1,190,0|8,0:0|0:0,0:0:0:0:
120,295,131685,1,0,0:0:0:0:
281,203,131865,2,0,P|303:152|295:109,1,95,0|8,0:0|0:0,0:0:0:0:
226,50,132224,1,8,0:0:0:0:
153,111,132404,1,0,0:0:0:0:
88,180,132584,6,0,B|49:122|49:122|64:47,1,142.5
106,30,132944,1,8,0:0:0:0:
200,42,133124,2,0,L|291:68,1,95
382,39,133484,1,8,0:0:0:0:
438,118,133664,2,0,P|444:178|424:207,1,95,8|0,0:0|0:0,0:0:0:0:
437,299,134023,6,0,B|374:299|349:251|349:251|316:213|241:221,1,190,0|8,0:0|0:0,0:0:0:0:
179,237,134563,1,0,0:0:0:0:
253,296,134743,2,0,P|216:364|187:376,2,95,0|8|8,0:0|0:0|0:0,0:0:0:0:
225,169,135283,1,0,0:0:0:0:
152,108,135462,6,0,L|48:127,1,95
262,38,135822,2,0,L|354:63,1,95,8|0,0:0|0:0,0:0:0:0:
401,145,136182,1,0,0:0:0:0:
338,256,136362,1,8,0:0:0:0:
225,169,136542,2,0,P|166:157|129:176,1,95,8|0,0:0|0:0,0:0:0:0:
94,256,136901,6,0,P|161:282|280:238,1,190,4|8,0:0|0:0,0:0:0:0:
308,160,137441,1,2,0:0:0:0:
401,141,137621,2,0,P|420:185|410:231,1,95,0|10,0:0|0:0,0:0:0:0:
300,337,137981,2,0,L|266:236,1,95,8|2,0:0|0:0,0:0:0:0:
220,164,138341,6,0,P|177:190|156:280,1,142.5
154,275,138700,1,8,0:0:0:0:
74,224,138880,1,2,0:0:0:0:
110,136,139060,2,0,L|150:48,1,95,0|10,0:0|0:0,0:0:0:0:
237,85,139420,1,8,0:0:0:0:
326,52,139600,1,0,0:0:0:0:
403,107,139780,6,0,P|432:154|406:237,1,142.5
368,257,140139,2,0,P|427:283|473:274,1,95,8|0,0:0|0:0,0:0:0:0:
333,168,140499,1,0,0:0:0:0:
288,262,140679,2,0,P|292:312|319:354,2,95,8|8|0,0:0|0:0|0:0,0:0:0:0:
432,51,141219,6,0,P|465:131|419:221,1,190,0|8,0:0|0:0,0:0:0:0:
80,333,141938,2,0,P|47:253|93:163,1,190,0|8,0:0|0:0,0:0:0:0:
172,116,142478,1,0,0:0:0:0:
253,165,142658,5,4,0:0:0:0:
253,165,142748,1,0,0:0:0:0:
253,165,142838,1,0,0:0:0:0:
180,226,143018,1,8,0:0:0:0:
89,120,143197,1,0,0:0:0:0:
253,165,143377,2,0,L|346:213,1,95,0|8,0:0|0:0,0:0:0:0:
447,169,143737,2,0,L|460:273,1,95,8|0,0:0|0:0,0:0:0:0:
369,297,144097,6,0,P|312:321|221:240,1,190,4|8,0:0|0:0,0:0:0:0:
313,221,144636,1,0,0:0:0:0:
387,152,144816,1,0,0:0:0:0:
387,152,144906,1,0,0:0:0:0:
387,152,144996,2,0,P|408:213|404:249,2,95,8|8|0,0:0|0:0|0:0,0:0:0:0:
296,120,145536,6,0,B|204:130|204:130|114:79,1,190,4|8,0:0|0:0,0:0:0:0:
70,164,146076,1,0,0:0:0:0:
113,326,146255,2,0,P|150:273|82:172,1,190,4|8,0:0|0:0,0:0:0:0:
50,260,146795,1,0,0:0:0:0:
220,311,146975,5,4,0:0:0:0:
311,337,147155,1,0,0:0:0:0:
370,263,147335,1,8,0:0:0:0:
344,171,147515,1,0,0:0:0:0:
252,195,147695,5,4,0:0:0:0:
216,207,147784,1,0,0:0:0:0:
178,199,147874,1,8,0:0:0:0:
150,172,147964,1,0,0:0:0:0:
115,138,148054,1,8,0:0:0:0:
67,139,148144,1,0,0:0:0:0:
24,160,148234,1,0,0:0:0:0:
8,204,148324,1,0,0:0:0:0:
19,250,148414,1,4,0:0:0:0:
256,192,148594,12,0,150393,0:0:0:0:
