osu file format v12

[General]
AudioFilename: forever_young.mp3
AudioLeadIn: 0
PreviewTime: 49118
Countdown: 0
SampleSet: Normal
StackLeniency: 0.7
Mode: 0
LetterboxInBreaks: 1
EpilepsyWarning: 1
WidescreenStoryboard: 0

[Editor]
DistanceSpacing: 1
BeatDivisor: 4
GridSize: 4

[Metadata]
Title:Forever Young (Nightcore Mix)
TitleUnicode:Forever Young (Nightcore Mix)
Artist:Alphaville
ArtistUnicode:Alphaville
Creator:kelvinli
Version:Easy
Source:
Tags:remix Marian Gold Martin Lister David Goodes Jakob Kiersch
BeatmapID:176573
BeatmapSetID:58265

[Difficulty]
HPDrainRate:2
CircleSize:3
OverallDifficulty:2
ApproachRate:4
SliderMultiplier:0.8
SliderTickRate:1

[Events]
//Background and Video events
0,0,"bg.jpg",0,0
//Break Periods
2,83855,88092
//Storyboard Layer 0 (Background)
//Storyboard Layer 1 (Fail)
//Storyboard Layer 2 (Pass)
//Storyboard Layer 3 (Foreground)
//Storyboard Sound Samples
//Background Colour Transformations
3,100,163,162,255

[TimingPoints]
190,359.768309208869,4,1,0,60,1,0
18897,-100,4,1,0,70,0,0
26093,-100,4,2,0,60,0,0
49118,-100,4,1,0,60,0,1
69625,-100,4,1,0,45,0,1
71424,-100,4,1,0,15,0,1
72143,-100,4,1,0,60,0,0
125389,-100,4,1,0,60,0,1
136722,-100,4,1,0,60,0,0
136902,-100,4,1,0,60,0,1
148414,-100,4,1,0,60,0,0
150393,-100,4,2,0,5,0,0

[Colours]
Combo1 : 254,225,129
Combo2 : 255,0,0
Combo3 : 255,128,128

[HitObjects]
256,160,11702,1,4,0:0:0:0:
256,160,13141,6,0,P|200:152|100:192,1,160,4|0,0:0|0:0,0:0:0:0:
72,260,14220,1,2,1:2:0:0:
110,329,14580,2,0,P|166:337|266:297,1,160
282,224,15660,1,2,0:2:0:0:
358,245,16019,6,0,P|420:260|474:184,1,160,0|0,0:0|0:0,0:0:0:0:
468,111,17099,1,2,0:2:0:0:
389,127,17458,2,0,P|355:80|251:90,1,160
204,142,18538,1,2,0:2:0:0:
140,190,18897,6,0,P|127:234|137:278,1,80,0|8,0:0|0:0,0:0:0:0:
206,237,19617,2,0,L|293:237,1,80,0|8,0:0|0:0,0:0:0:0:
356,275,20337,2,0,P|401:262|428:228,1,80,0|8,0:0|0:0,0:0:0:0:
358,191,21056,2,0,P|328:163|279:157,1,80,0|8,0:0|0:0,0:0:0:0:
222,112,21776,6,0,P|253:81|307:78,2,80,0|8|0,0:0|0:0|0:0,0:0:0:0:
171,173,22855,1,8,0:0:0:0:
256,192,23215,12,4,24654,0:0:0:0:
130,289,26093,6,0,B|196:313|241:283|241:283|273:207|353:229,1,240,4|2,0:0|0:2,0:0:0:0:
321,304,27532,2,0,P|225:259|265:117,1,240,4|2,0:0|0:0,0:0:0:0:
298,207,28971,6,0,P|311:95|211:42,1,240,4|2,0:0|0:0,0:0:0:0:
219,122,30410,2,0,B|317:119|317:119|355:145|355:145|455:139,1,240,4|2,0:0|0:0,0:0:0:0:
487,210,31849,5,4,0:0:0:0:
437,272,32209,2,0,P|398:312|287:305,1,160,2|2,0:0|0:0,0:0:0:0:
224,283,33288,1,2,0:0:0:0:
151,316,33648,2,0,P|97:317|66:332,2,80,0|0|2,0:0|0:0|0:0,0:0:0:0:
207,259,34727,5,2,0:0:0:0:
254,194,35087,2,0,P|301:193|342:219,2,80,0|0|2,0:0|0:0|0:0,0:0:0:0:
180,162,36166,2,0,P|125:163|92:144,1,80,2|0,0:0|0:0,0:0:0:0:
47,95,36886,2,0,P|25:140|37:198,1,80,0|2,0:0|0:0,0:0:0:0:
52,244,37605,6,0,B|95:268|129:255|129:255|143:291|197:295,1,160,4|0,1:2|0:0,0:0:0:0:
272,280,38685,1,2,0:0:0:0:
344,314,39044,2,0,P|344:242|270:201,1,160,4|0,0:0|0:0,0:0:0:0:
194,209,40124,1,2,0:0:0:0:
114,205,40484,6,0,B|120:151|153:134|153:134|138:98|166:56,1,160,4|0,0:0|0:0,0:0:0:0:
238,36,41563,1,2,0:0:0:0:
311,67,41923,2,0,P|357:71|405:49,2,80,4|0|0,0:0|0:0|0:0,0:0:0:0:
250,119,43002,1,2,0:0:0:0:
262,198,43362,5,4,0:0:0:0:
328,241,43721,2,0,P|321:295|228:321,1,160,0|2,0:0|0:0,0:0:0:0:
159,284,44801,1,2,0:0:0:0:
84,253,45161,2,0,P|45:270|12:315,2,80,0|0|2,0:0|0:0|0:0,0:0:0:0:
146,202,46240,5,2,0:0:0:0:
191,136,46600,2,0,P|240:130|291:142,2,80,0|0|2,0:0|0:0|0:0,0:0:0:0:
111,129,47679,2,0,P|81:102|75:41,1,80,6|0,0:0|0:0,0:0:0:0:
150,55,48398,2,0,P|195:39|240:53,1,80,2|2,0:0|0:0,0:0:0:0:
290,92,49118,6,0,P|338:99|391:89,1,80,4|8,0:0|0:0,0:0:0:0:
439,133,49838,2,0,P|447:205|433:234,1,80,0|8,0:0|0:0,0:0:0:0:
433,289,50557,2,0,P|377:312|289:272,1,160
261,199,51636,1,8,0:0:0:0:
185,223,51996,6,0,L|79:263,1,80,4|8,0:0|0:0,0:0:0:0:
34,223,52716,2,0,P|45:174|43:131,1,80,0|8,0:0|0:0,0:0:0:0:
122,126,53435,2,0,P|166:132|234:51,1,160
308,84,54515,1,8,0:0:0:0:
382,61,54874,5,4,0:0:0:0:
438,117,55234,2,0,P|443:162|431:212,1,80,8|0,0:0|0:0,0:0:0:0:
371,242,55954,1,8,0:0:0:0:
294,263,56313,2,0,P|220:295|160:268,2,120,0|0|8,0:0|0:0|0:0,0:0:0:0:
229,215,57752,2,0,P|183:204|116:238,2,120,0|0|8,0:0|0:0|0:0,0:0:0:0:
307,197,59192,6,0,P|333:163|338:119,1,80,0|8,0:0|0:0,0:0:0:0:
313,51,59911,2,0,L|223:31,1,80,0|8,0:0|0:0,0:0:0:0:
221,112,60631,6,0,B|174:102|157:58|157:58|115:60|79:92,1,160,4|0,0:0|0:0,0:0:0:0:
50,158,61710,1,8,0:0:0:0:
59,237,62070,2,0,B|117:228|129:187|129:187|160:212|205:211,1,160
273,212,63149,1,8,0:0:0:0:
309,283,63509,6,0,P|345:252|354:209,1,80,0|8,0:0|0:0,0:0:0:0:
325,147,64228,2,0,P|285:130|219:157,1,80,0|8,0:0|0:0,0:0:0:0:
174,161,64948,2,0,P|120:165|182:72,1,240,0|8,0:0|0:0,0:0:0:0:
251,73,66387,6,0,P|298:76|331:57,1,80,0|8,0:0|0:0,0:0:0:0:
406,66,67106,2,0,P|413:107|399:147,1,80,0|8,0:0|0:0,0:0:0:0:
363,213,67826,2,0,P|356:268|387:329,2,120,0|0|8,0:0|0:0|0:0,0:0:0:0:
295,169,69265,2,0,P|256:208|244:289,2,120,0|0|8,0:0|0:0|0:0,0:0:0:0:
374,160,70704,6,0,P|418:154|450:128,1,80,0|8,0:0|0:0,0:0:0:0:
386,79,71424,2,0,L|287:80,1,80
226,67,72143,6,0,B|187:91|189:141|189:141|155:159|150:221,1,160,4|0,0:0|0:0,0:0:0:0:
233,207,73222,1,8,0:0:0:0:
241,286,73582,6,0,P|301:257|300:155,1,160
309,90,74662,1,8,0:0:0:0:
232,66,75021,6,0,B|185:84|123:70|123:70|86:114,1,160
89,187,76101,1,8,0:0:0:0:
64,263,76460,6,0,B|121:287|166:230|166:230|239:261|289:185,1,240,4|8,0:2|0:0,0:0:0:0:
337,150,77899,6,0,P|356:193|350:237,1,80,0|8,0:0|0:0,0:0:0:0:
310,292,78619,2,0,P|270:316|232:315,1,80,0|8,0:0|0:0,0:0:0:0:
157,312,79339,6,0,P|111:318|80:347,2,80,0|8|0,0:0|0:0|0:0,0:0:0:0:
194,241,80418,1,8,0:0:0:0:
263,202,80778,6,0,P|311:213|346:120,1,160
299,65,81857,1,8,0:0:0:0:
221,45,82217,2,0,P|173:34|138:127,1,160
186,178,83296,2,0,L|128:241,1,80,8|4,0:0|0:0,0:0:0:0:
304,242,89412,6,0,P|363:227|386:124,1,160,4|0,0:0|0:0,0:0:0:0:
314,159,90491,1,8,0:0:0:0:
235,176,90851,2,0,P|180:193|102:119,1,160
126,57,91930,1,8,0:0:0:0:
185,112,92290,6,0,P|167:194|150:287,1,160
226,301,93369,1,8,0:0:0:0:
298,335,93729,2,0,P|402:321|429:259,1,160,0|2,0:0|0:0,0:0:0:0:
428,200,94809,1,2,0:0:0:0:
351,222,95168,6,0,P|301:239|228:173,1,160
263,102,96248,1,8,0:0:0:0:
339,78,96607,2,0,P|312:41|196:61,1,160
172,118,97687,1,8,0:0:0:0:
147,193,98046,6,0,B|202:207|229:175|229:175|258:190|303:173,1,160
377,185,99126,1,8,0:0:0:0:
452,205,99486,2,0,B|440:229|440:229|448:233|448:233|440:241|440:241|420:285|376:285,2,120,4|0|8,0:0|0:0|0:0,0:0:0:0:
450,126,100925,6,0,P|413:77|322:89,1,160,4|0,0:0|0:0,0:0:0:0:
256,132,102004,1,8,0:0:0:0:
188,87,102364,2,0,P|99:77|62:126,1,160
71,205,103443,1,8,0:0:0:0:
91,282,103803,6,0,B|136:263|148:229|148:229|194:249|236:220,1,160
302,205,104882,1,8,0:0:0:0:
359,260,105242,2,0,P|381:214|328:129,1,160,0|2,0:0|0:0,0:0:0:0:
248,121,106321,1,2,0:0:0:0:
168,131,106681,6,0,P|114:144|77:135,2,80,4|8|0,0:0|0:0|0:0,0:0:0:0:
223,189,107760,1,8,0:0:0:0:
293,226,108120,2,0,P|304:278|209:334,1,160,4|0,0:0|0:0,0:0:0:0:
152,311,109199,1,8,0:0:0:0:
256,192,109559,12,4,112437,0:0:0:0:
204,197,113876,6,0,P|160:205|93:177,2,120
282,182,115315,2,0,P|326:174|393:202,2,120
252,256,116754,2,0,P|258:313|301:375,2,120
261,176,118194,2,0,P|255:119|212:57,2,120
261,256,119633,1,4,0:0:0:0:
261,212,121072,5,4,0:0:0:0:
320,68,122511,2,0,B|288:68|264:40|264:40|256:52|256:52|248:40|248:40|224:68|188:68,1,160,4|4,0:0|0:0,0:0:0:0:
112,208,123950,6,0,P|112:264|136:300,1,80,4|0,0:0|0:0,0:0:0:0:
196,316,124669,2,0,P|252:312|280:280,1,80,4|0,0:0|0:0,0:0:0:0:
324,236,125389,6,0,P|324:180|300:144,1,80,4|8,0:0|0:0,0:0:0:0:
240,124,126108,2,0,P|184:128|156:160,1,80,0|8,0:0|0:0,0:0:0:0:
120,207,126828,2,0,P|113:261|192:321,1,160
235,255,127907,1,8,0:0:0:0:
300,209,128267,6,0,P|353:213|384:238,1,80,0|8,0:0|0:0,0:0:0:0:
343,301,128987,2,0,L|261:328,1,80,0|8,0:0|0:0,0:0:0:0:
187,320,129706,2,0,B|189:278|228:249|228:249|205:205|231:156,1,160
249,100,130785,1,8,0:0:0:0:
314,146,131145,6,0,P|356:125|372:92,1,80,0|8,0:0|0:0,0:0:0:0:
438,53,131865,1,0,0:0:0:0:
455,130,132224,1,8,0:0:0:0:
422,202,132584,2,0,P|421:253|452:328,2,120,0|0|8,0:0|0:0|0:0,0:0:0:0:
342,211,134023,2,0,P|288:229|223:200,2,120,0|0|8,0:0|0:0|0:0,0:0:0:0:
291,149,135462,6,0,P|249:127|205:132,1,80,0|8,0:0|0:0,0:0:0:0:
149,171,136182,2,0,P|105:180|72:167,1,80,0|8,0:0|0:0,0:0:0:0:
100,92,136901,6,0,B|148:100|167:61|167:61|204:32|260:52,1,160,4|0,0:0|0:0,0:0:0:0:
321,69,137981,1,8,0:0:0:0:
396,95,138341,2,0,P|420:155|368:243,1,160
304,264,139420,1,8,0:0:0:0:
228,237,139780,6,0,P|193:211|188:170,1,80,0|8,0:0|0:0,0:0:0:0:
266,170,140499,2,0,P|271:129|310:98,1,80,0|8,0:0|0:0,0:0:0:0:
345,166,141219,2,0,P|354:236|266:306,1,160
218,317,142298,1,8,0:0:0:0:
142,289,142658,6,0,P|94:288|62:312,1,80,4|8,0:0|0:0,0:0:0:0:
26,236,143377,2,0,P|22:185|34:153,1,80,0|8,0:0|0:0,0:0:0:0:
102,121,144097,2,0,P|142:79|103:39,2,120,4|0|8,0:0|0:0|0:0,0:0:0:0:
131,195,145536,2,0,B|152:235|152:235|134:263|158:315,2,120,4|0|8,0:0|0:0|0:0,0:0:0:0:
209,177,146975,6,0,L|245:255,1,80,4|8,0:0|0:0,0:0:0:0:
318,274,147695,2,0,P|366:271|408:283,2,80,4|8|4,0:0|0:0|0:0,0:0:0:0:
256,192,148594,12,0,150393,0:0:0:0:
