osu file format v14

[General]
AudioFilename: Alphabet Pony - Mind Games.mp3
AudioLeadIn: 0
PreviewTime: 68676
Countdown: 0
SampleSet: Soft
StackLeniency: 0.7
Mode: 0
LetterboxInBreaks: 0
SkinPreference:Colorsv1
EpilepsyWarning: 1
WidescreenStoryboard: 1

[Editor]
Bookmarks: 2470,24538,68676,112814,156952,190056,223159,267297,311435
DistanceSpacing: 1
BeatDivisor: 4
GridSize: 8
TimelineZoom: 1.3

[Metadata]
Title:Mind Games
TitleUnicode:Mind Games
Artist:Alphabet Pony
ArtistUnicode:Alphabet Pony
Creator:ExCellRaD
Version:lunatic
Source:liquicity
Tags:Drum Bass DnB Electro
BeatmapID:666114
BeatmapSetID:287442

[Difficulty]
HPDrainRate:5
CircleSize:4
OverallDifficulty:7.5
ApproachRate:9
SliderMultiplier:1.8
SliderTickRate:2

[Events]
//Background and Video events
0,0,"MindGames.jpg",0,0
//Break Periods
2,46807,55663
//Storyboard Layer 0 (Background)
//Storyboard Layer 1 (Fail)
//Storyboard Layer 2 (Pass)
//Storyboard Layer 3 (Foreground)
//Storyboard Sound Samples

[TimingPoints]
2470,344.827586206897,4,1,0,100,1,0
2470,-133.333333333333,4,2,0,50,0,0
13504,-111.111111111111,4,2,0,50,0,0
23159,-111.111111111111,4,2,0,30,0,0
24538,-105.263157894737,4,2,0,60,0,0
34194,-105.263157894737,4,2,0,30,0,0
35573,-100,4,2,0,60,0,0
43849,-100,4,2,0,50,0,0
45228,-100,4,2,0,40,0,0
46607,-100,4,2,0,60,0,0
56263,-100,4,1,0,80,0,0
67297,-133.333333333333,4,1,0,20,0,0
68676,-76.9230769230769,4,1,0,100,0,1
111263,-200,4,2,0,20,0,0
112814,-100,4,2,0,100,0,0
134883,-76.9230769230769,4,1,0,100,0,1
156952,-133.333333333333,4,2,0,50,0,0
179021,-100,4,2,0,60,0,0
190056,-100,4,2,0,60,0,0
212125,-100,4,1,0,80,0,0
221090,-100,4,1,0,55,0,0
221435,-100,4,1,0,45,0,0
221780,-100,4,2,0,30,0,0
223159,-76.9230769230769,4,1,0,100,0,1
245228,-90.9090909090909,4,1,0,90,0,1
265745,-200,4,2,0,20,0,0
267297,-111.111111111111,4,2,0,90,0,0
289366,-76.9230769230769,4,1,0,80,0,1
311435,-100,4,1,0,80,0,0

[HitObjects]
367,79,2470,5,2,0:0:0:0:
357,204,2814,1,0,0:0:0:0:
249,132,3159,2,0,P|306:191|372:204,1,135.000005149842
123,190,3849,5,0,0:0:0:0:
46,301,4194,1,0,0:0:0:0:
180,302,4538,2,0,P|126:241|123:188,1,135.000005149842
352,192,5228,5,0,0:0:0:0:
420,267,5401,1,0,0:0:0:0:
352,192,5573,1,0,0:0:0:0:
271,253,5745,1,0,0:0:0:0:
203,177,5918,1,0,0:0:0:0:
284,117,6090,1,0,0:0:0:0:
271,253,6263,1,0,0:0:0:0:
352,192,6435,1,0,0:0:0:0:
418,44,6607,6,0,L|337:59,1,67.5000025749208
412,157,6952,1,0,0:0:0:0:
327,88,7125,1,0,0:0:0:0:
230,122,7297,1,0,0:0:0:0:
412,157,7470,1,0,0:0:0:0:
306,196,7642,1,0,0:0:0:0:
327,88,7814,1,0,0:0:0:0:
153,48,7987,6,0,P|124:96|45:124,1,135.000005149842,2|0,0:0|0:0,0:0:0:0:
215,122,8676,1,0,0:0:0:0:
215,122,9021,1,0,0:0:0:0:
65,240,9366,5,0,0:0:0:0:
165,243,9538,2,0,L|116:305,1,67.5000025749208
231,303,9883,1,0,0:0:0:0:
65,240,10056,2,0,P|97:214|142:207,1,67.5000025749208
250,212,10401,2,0,P|216:240|180:249,1,67.5000025749208
440,193,10745,5,0,0:0:0:0:
340,284,11090,1,0,0:0:0:0:
470,316,11435,2,0,P|434:257|441:191,1,135.000005149842
276,41,12125,5,0,0:0:0:0:
371,73,12297,1,0,0:0:0:0:
268,131,12470,1,0,0:0:0:0:
371,74,12642,2,0,P|360:108|383:142,1,67.5000025749208
362,235,12987,1,0,0:0:0:0:
446,179,13159,1,0,0:0:0:0:
279,181,13332,1,0,0:0:0:0:
64,160,13504,6,0,P|104:104|192:80,1,161.999995056153,2|0,0:0|0:0,0:0:0:0:
168,183,14194,1,0,0:0:0:0:
168,183,14538,1,0,0:0:0:0:
357,221,14883,5,0,0:0:0:0:
221,309,15228,1,0,0:0:0:0:
372,338,15573,2,0,P|291:300|218:310,1,161.999995056153
392,70,16263,5,0,0:0:0:0:
277,108,16435,1,0,0:0:0:0:
391,149,16607,2,0,P|384:96|401:54,1,80.9999975280763
273,41,16952,1,0,0:0:0:0:
228,154,17125,1,0,0:0:0:0:
345,122,17297,1,0,0:0:0:0:
204,79,17470,1,0,0:0:0:0:
96,180,17642,6,0,P|134:206|153:242,1,80.9999975280763
140,331,17987,2,0,P|85:301|70:272,1,80.9999975280763
188,240,18332,1,0,0:0:0:0:
188,240,18504,1,0,0:0:0:0:
277,321,18676,1,0,0:0:0:0:
273,199,18849,1,0,0:0:0:0:
51,113,19021,5,2,0:0:0:0:
210,141,19366,1,0,0:0:0:0:
51,113,19711,2,0,P|112:54|195:32,1,161.999995056153
373,180,20401,5,0,0:0:0:0:
422,69,20573,1,0,0:0:0:0:
301,84,20745,1,0,0:0:0:0:
240,178,20918,2,0,P|282:157|320:153,1,80.9999975280763
425,204,21263,1,0,0:0:0:0:
351,39,21435,1,0,0:0:0:0:
351,39,21607,1,0,0:0:0:0:
128,43,21780,6,0,P|105:101|147:126,1,121.499996292114,4|0,0:3|0:0,0:0:0:0:
176,133,22125,1,8,0:0:0:0:
340,184,22383,1,8,0:0:0:0:
311,190,22470,2,0,B|242:202|242:202|218:239,1,80.9999975280763,8|0,0:0|0:1,0:0:0:0:
80,167,22987,1,8,0:0:0:0:
80,167,23159,6,0,B|107:101|177:90,1,121.499996292114,4|0,0:3|0:0,0:0:0:0:
196,85,23504,1,8,0:0:0:0:
184,205,23763,2,8,P|210:203|231:221,1,40.4999987640381
296,160,24021,1,8,0:0:0:0:
294,304,24538,5,4,0:0:0:0:
180,243,24711,1,0,0:0:0:0:
261,144,24883,1,0,0:0:0:0:
374,204,25056,1,0,0:0:0:0:
397,78,25228,6,2,P|344:108|308:118,1,85.4999977169037
193,98,25573,1,2,0:0:0:0:
75,46,25745,1,2,0:0:0:0:
80,200,25918,5,0,0:0:0:0:
201,241,26090,1,0,0:0:0:0:
78,278,26263,1,0,0:0:0:0:
201,311,26435,1,2,0:0:0:0:
293,222,26607,5,2,0:0:0:0:
417,188,26780,1,2,0:0:0:0:
479,76,26952,2,2,P|456:28|418:28,1,85.4999977169037
344,150,27297,5,0,0:0:0:0:
264,249,27470,1,0,0:0:0:0:
221,127,27642,1,0,0:0:0:0:
344,150,27814,1,2,0:0:0:0:
277,284,27987,6,2,B|225:298|166:280,1,85.4999977169037
82,219,28332,1,2,0:0:0:0:
62,92,28504,1,2,0:0:0:0:
175,90,28676,5,0,0:0:0:0:
290,117,28849,1,0,0:0:0:0:
147,153,29021,1,0,0:0:0:0:
318,52,29194,1,2,0:0:0:0:
247,191,29366,5,2,0:0:0:0:
371,220,29538,1,2,0:0:0:0:
438,110,29711,2,2,P|442:43|426:27,1,85.4999977169037
450,211,30056,5,0,0:0:0:0:
379,317,30228,1,0,0:0:0:0:
325,199,30401,1,0,0:0:0:0:
258,308,30573,1,2,0:0:0:0:
131,265,30745,6,2,P|103:226|97:183,1,85.4999977169037
130,65,31090,1,2,0:0:0:0:
257,48,31263,1,2,0:0:0:0:
209,155,31435,5,0,0:0:0:0:
99,285,31607,1,0,0:0:0:0:
94,156,31780,1,0,0:0:0:0:
209,296,31952,1,2,0:0:0:0:
348,287,32125,5,2,0:0:0:0:
418,180,32297,1,2,0:0:0:0:
391,54,32470,2,2,P|337:32|279:34,1,85.4999977169037
120,41,32814,6,0,P|97:99|145:130,1,128.249996575356,4|0,0:3|0:0,0:0:0:0:
175,132,33159,1,8,0:0:0:0:
340,184,33417,1,8,0:0:0:0:
310,192,33504,2,0,B|244:196|204:240,1,85.4999977169037,8|0,0:0|0:1,0:0:0:0:
80,167,34021,1,8,0:0:0:0:
80,167,34193,6,0,B|107:101|179:90,1,128.249996575356,4|0,0:3|0:0,0:0:0:0:
212,81,34538,1,8,0:0:0:0:
184,205,34797,2,8,P|211:210|230:230,1,42.7499988584519
296,160,35055,1,8,0:0:0:0:
381,313,35401,1,0,0:0:0:0:
282,321,35573,6,0,P|213:322|146:308,1,135,4|0,0:0|0:0,0:0:0:0:
108,286,35918,1,8,0:0:0:0:
82,153,36090,1,0,0:0:0:0:
259,65,36263,5,0,0:0:0:0:
387,106,36435,1,0,0:0:0:0:
284,178,36607,2,0,P|286:123|315:121,1,90,8|0,0:0|0:0,0:0:0:0:
356,254,36952,5,0,0:0:0:0:
356,254,37038,1,0,0:0:0:0:
356,254,37125,1,0,0:0:0:0:
232,306,37297,2,0,L|136:265,1,90,8|0,0:0|0:0,0:0:0:0:
153,135,37642,6,0,P|208:99|232:93,1,90
294,33,37987,1,8,0:0:0:0:
94,188,38159,1,0,0:0:0:0:
77,292,38332,6,0,P|139:318|212:322,1,135
246,315,38676,1,8,0:0:0:0:
347,225,38849,1,0,0:0:0:0:
347,225,38935,1,0,0:0:0:0:
347,225,39021,5,0,0:0:0:0:
304,96,39194,1,0,0:0:0:0:
206,188,39366,2,0,P|149:134|150:100,1,90,8|0,0:0|0:0,0:0:0:0:
65,54,39711,5,0,0:0:0:0:
65,54,39797,1,0,0:0:0:0:
65,54,39883,1,0,0:0:0:0:
78,188,40056,2,0,L|151:277,1,90,8|0,0:0|0:0,0:0:0:0:
334,261,40401,5,0,0:0:0:0:
200,279,40573,1,0,0:0:0:0:
238,149,40745,1,8,0:0:0:0:
365,81,40918,2,0,L|395:128,1,45
405,160,41090,6,0,P|400:254|325:310,1,180,0|8,0:0|0:0,0:0:0:0:
70,140,41780,1,0,0:0:0:0:
385,55,42125,1,8,0:0:0:0:
373,317,42470,5,0,0:0:0:0:
288,55,42814,1,8,0:0:0:0:
165,316,43159,1,0,0:0:0:0:
86,67,43504,1,8,0:0:0:0:
77,253,43849,6,0,L|122:274,1,45,4|0,0:3|0:0,0:0:0:0:
160,286,44021,2,0,L|210:295,1,45,4|0,0:3|0:0,0:0:0:0:
249,294,44194,2,0,L|299:285,1,45,12|0,0:3|0:0,0:0:0:0:
333,266,44366,2,0,L|373:229,1,45,4|0,0:3|0:0,0:0:0:0:
384,194,44538,5,8,0:3:0:0:
213,134,44711,1,8,0:3:0:0:
321,276,44883,1,8,0:3:0:0:
298,96,45056,1,8,0:3:0:0:
384,71,45228,5,2,0:3:0:0:
389,115,45314,1,0,0:3:0:0:
376,158,45401,1,2,0:3:0:0:
342,188,45487,1,0,0:3:0:0:
300,204,45573,1,2,0:3:0:0:
255,209,45659,1,0,0:3:0:0:
210,214,45745,1,2,0:3:0:0:
165,223,45832,1,0,0:3:0:0:
123,241,45918,1,2,0:3:0:0:
89,273,46004,1,0,0:3:0:0:
85,316,46090,1,2,0:3:0:0:
114,346,46176,1,0,0:3:0:0:
159,352,46263,1,2,0:3:0:0:
203,344,46349,1,0,0:3:0:0:
233,306,46435,1,2,0:3:0:0:
256,261,46521,1,0,0:3:0:0:
264,220,46607,1,4,0:0:0:0:
256,192,56263,12,0,57470,0:0:0:0:
310,274,57642,6,0,P|380:268|409:211,1,135
411,172,57987,1,8,0:0:0:0:
324,68,58159,1,0,0:0:0:0:
249,181,58332,1,0,0:0:0:0:
170,76,58504,2,0,B|141:100|141:100|148:121|148:121|122:142|122:142,1,90,0|8,0:0|0:0,0:0:0:0:
104,273,58849,1,0,0:0:0:0:
104,273,58935,1,0,0:0:0:0:
104,273,59021,6,0,P|133:312|215:324,1,135
246,314,59366,1,8,0:0:0:0:
343,220,59538,1,0,0:0:0:0:
343,220,59625,1,0,0:0:0:0:
343,220,59711,1,0,0:0:0:0:
383,91,59883,2,0,P|339:68|300:89,1,90,0|8,0:0|0:0,0:0:0:0:
172,110,60228,1,0,0:0:0:0:
52,192,60401,6,0,P|62:147|121:74,1,135
153,57,60745,1,8,0:0:0:0:
285,84,60918,1,0,0:0:0:0:
211,196,61090,1,0,0:0:0:0:
346,191,61263,2,0,P|361:243|345:282,1,90,0|8,0:0|0:0,0:0:0:0:
219,310,61607,1,0,0:0:0:0:
219,310,61694,1,0,0:0:0:0:
219,310,61780,6,0,P|150:306|101:248,1,135
97,232,62125,1,8,0:0:0:0:
159,107,62297,1,0,0:0:0:0:
159,107,62383,1,0,0:0:0:0:
159,107,62470,1,0,0:0:0:0:
290,76,62642,2,0,P|353:77|361:110,1,90,0|8,0:0|0:0,0:0:0:0:
414,217,62987,1,0,0:0:0:0:
317,333,63159,5,0,0:0:0:0:
175,51,63504,1,8,0:0:0:0:
170,334,63849,1,0,0:0:0:0:
310,46,64194,1,8,0:0:0:0:
72,235,64538,6,0,L|163:214,1,90
400,133,64883,2,0,L|285:174,1,90,8|0,0:0|0:0,0:0:0:0:
91,106,65228,2,0,L|176:148,1,90
393,273,65573,2,0,L|290:217,1,90,8|0,0:0|0:0,0:0:0:0:
207,43,65918,6,0,P|179:59|160:80,1,45
149,107,66090,2,0,P|132:134|132:161,1,45
130,191,66263,2,0,P|128:217|137:235,1,45
160,271,66435,2,0,P|174:293|197:304,1,45
234,308,66607,5,0,0:0:0:0:
278,299,66694,1,0,0:0:0:0:
315,274,66780,1,0,0:0:0:0:
343,239,66866,1,0,0:0:0:0:
361,193,66952,1,0,0:0:0:0:
364,143,67038,1,0,0:0:0:0:
353,94,67125,1,0,0:0:0:0:
322,55,67211,1,0,0:0:0:0:
277,33,67297,6,2,P|238:32|202:68,1,67.5000025749208
299,163,67987,6,2,P|273:260|164:284,1,202.500007724762
64,320,68676,6,4,L|144:232,1,116.999994644165,4|0,0:0|0:0,0:0:0:0:
256,104,69021,1,8,0:0:0:0:
256,104,69107,1,0,0:0:0:0:
256,104,69194,1,0,0:0:0:0:
400,208,69366,1,0,0:0:0:0:
240,280,69538,1,2,0:0:0:0:
256,104,69711,6,2,P|288:72|312:72,2,58.4999973220826,10|0|0,0:0|0:0|0:0,0:0:0:0:
96,104,70056,5,0,0:0:0:0:
84,149,70142,1,0,0:0:0:0:
85,195,70228,1,0,0:0:0:0:
98,239,70314,1,0,0:0:0:0:
118,281,70401,1,8,0:0:0:0:
291,255,70573,1,0,0:0:0:0:
357,93,70745,1,0,0:0:0:0:
387,266,70918,1,2,0:0:0:0:
273,132,71090,2,2,B|227:90|227:90|178:133,1,116.999994644165,10|0,0:0|0:0,0:0:0:0:
74,91,71435,5,0,0:0:0:0:
228,172,71607,1,0,0:0:0:0:
117,308,71780,1,8,0:0:0:0:
168,299,71866,1,0,0:0:0:0:
216,307,71952,1,0,0:0:0:0:
141,147,72125,1,0,0:0:0:0:
305,134,72297,6,2,B|336:104|336:104|369:100|369:100|400:66,1,116.999994644165,0|8,0:0|0:0,0:0:0:0:
306,207,72642,2,2,B|331:243|331:243|361:245|361:245|390:286,1,116.999994644165,2|0,0:0|0:3,0:0:0:0:
431,284,72901,5,0,0:0:0:0:
468,254,72987,1,0,0:0:0:0:
477,208,73073,1,0,0:0:0:0:
456,165,73159,1,8,0:0:0:0:
316,57,73332,1,0,0:0:0:0:
162,141,73504,1,0,0:0:0:0:
259,286,73676,1,2,0:0:0:0:
411,198,73849,6,2,B|458:126|458:126|449:69|388:60|388:60,1,175.499991966248,10|0,0:0|0:0,0:0:0:0:
349,57,74194,5,0,0:0:0:0:
179,101,74366,1,0,0:0:0:0:
346,152,74538,1,8,0:0:0:0:
366,193,74625,1,0,0:0:0:0:
342,230,74711,1,0,0:0:0:0:
166,231,74883,1,0,0:0:0:0:
318,318,75056,1,2,0:0:0:0:
262,188,75228,6,0,B|242:134|242:134|250:141,2,58.4999973220826,10|0|2,0:0|0:0|0:0,0:0:0:0:
141,300,75573,5,0,0:0:0:0:
120,257,75659,1,0,0:0:0:0:
115,210,75745,1,0,0:0:0:0:
129,165,75832,1,0,0:0:0:0:
156,127,75918,1,8,0:0:0:0:
291,238,76090,1,0,0:0:0:0:
346,70,76263,2,0,P|401:101|422:158,1,116.999994644165
369,315,76607,6,2,B|360:246|360:246|317:246|317:246|308:176,1,175.499991966248,10|0,0:0|0:0,0:0:0:0:
294,135,76952,5,0,0:0:0:0:
195,281,77125,1,0,0:0:0:0:
135,116,77297,1,8,0:0:0:0:
135,116,77383,1,0,0:0:0:0:
134,117,77470,1,0,0:0:0:0:
337,207,77642,1,0,0:0:0:0:
107,220,77814,1,2,0:0:0:0:
230,78,77987,6,0,B|280:49|280:49|277:57,2,58.4999973220826,10|0|0,0:0|0:0|0:0,0:0:0:0:
444,71,78332,5,0,0:0:0:0:
441,117,78418,1,0,0:0:0:0:
435,163,78504,1,0,0:0:0:0:
405,199,78590,1,0,0:0:0:0:
364,223,78676,1,8,0:0:0:0:
316,223,78763,1,0,0:0:0:0:
272,203,78849,1,0,0:0:0:0:
257,158,78935,1,0,0:0:0:0:
250,111,79021,1,0,0:0:0:0:
87,322,79194,1,2,0:0:0:0:
107,71,79366,6,0,B|145:89|145:89|133:119|133:119|173:139,1,116.999994644165,10|0,0:0|0:0,0:0:0:0:
246,306,79711,5,4,0:0:0:0:
376,191,79883,1,0,0:0:0:0:
282,44,80056,1,8,0:0:0:0:
246,27,80142,1,0,0:0:0:0:
207,46,80228,1,0,0:0:0:0:
103,189,80401,1,0,0:0:0:0:
246,306,80573,1,2,0:0:0:0:
376,191,80745,6,0,B|401:139|401:139|406:150,2,58.4999973220826,10|0|0,0:0|0:0|0:0,0:0:0:0:
398,320,81090,5,0,0:0:0:0:
353,304,81176,1,0,0:0:0:0:
320,270,81263,1,0,0:0:0:0:
298,228,81349,1,0,0:0:0:0:
288,182,81435,1,8,0:0:0:0:
175,47,81607,2,0,P|129:76|123:138,1,116.999994644165
158,306,81952,1,2,0:0:0:0:
223,142,82125,6,0,B|246:110|246:110|277:120|277:120|301:82,1,116.999994644165,10|0,0:0|0:0,0:0:0:0:
433,58,82470,5,0,0:0:0:0:
401,230,82642,1,0,0:0:0:0:
307,82,82814,1,8,0:0:0:0:
272,115,82901,1,0,0:0:0:0:
254,158,82987,1,0,0:0:0:0:
291,328,83159,1,0,0:0:0:0:
114,193,83332,6,0,B|151:224|151:224|138:245|138:245|177:279,1,116.999994644165,2|8,0:0|0:0,0:0:0:0:
115,124,83676,2,0,B|154:96|154:96|143:74|143:74|185:43,1,116.999994644165,2|0,0:0|0:0,0:0:0:0:
226,45,83935,5,0,0:0:0:0:
272,46,84021,1,0,0:0:0:0:
314,64,84107,1,0,0:0:0:0:
355,87,84194,1,8,0:0:0:0:
222,201,84366,1,0,0:0:0:0:
384,266,84538,1,0,0:0:0:0:
355,87,84711,1,0,0:0:0:0:
222,201,84883,6,2,B|146:233|146:233|88:212|113:140,1,175.499991966248,10|0,0:0|0:0,0:0:0:0:
116,117,85228,5,0,0:0:0:0:
279,51,85401,1,0,0:0:0:0:
423,149,85573,1,8,0:0:0:0:
453,182,85659,1,0,0:0:0:0:
420,210,85745,1,0,0:0:0:0:
280,318,85918,1,0,0:0:0:0:
118,250,86090,1,2,0:0:0:0:
267,183,86263,6,0,B|295:134|295:134|284:136,2,58.4999973220826,10|0|0,0:0|0:0|0:0,0:0:0:0:
147,55,86607,5,0,0:0:0:0:
117,91,86694,1,0,0:0:0:0:
100,134,86780,1,0,0:0:0:0:
100,180,86866,1,0,0:0:0:0:
120,221,86952,1,8,0:0:0:0:
258,111,87125,1,0,0:0:0:0:
258,304,87297,2,0,P|319:273|349:235,1,116.999994644165,0|2,0:0|0:0,0:0:0:0:
407,69,87642,6,0,B|359:92|359:92|358:162|358:162|304:191,1,175.499991966248,10|0,0:0|0:0,0:0:0:0:
273,201,87987,5,0,0:0:0:0:
191,45,88159,1,0,0:0:0:0:
77,160,88332,1,8,0:0:0:0:
48,191,88418,1,0,0:0:0:0:
70,215,88504,1,0,0:0:0:0:
185,346,88676,1,0,0:0:0:0:
356,307,88849,1,2,0:0:0:0:
377,133,89021,6,0,B|344:180|344:180|353:177,2,58.4999973220826,10|0|0,0:0|0:0|0:0,0:0:0:0:
219,54,89366,6,0,P|173:96|178:153,1,116.999994644165
313,255,89711,1,8,0:0:0:0:
448,132,89883,2,8,P|464:100|457:69,1,58.4999973220826
420,47,90056,5,8,0:0:0:0:
374,58,90142,1,0,0:0:0:0:
330,74,90228,1,4,0:3:0:0:
298,108,90314,1,0,0:0:0:0:
270,146,90401,1,8,0:0:0:0:
249,188,90487,1,0,0:0:0:0:
219,224,90573,1,4,0:3:0:0:
177,244,90659,1,0,0:0:0:0:
130,244,90745,5,4,0:0:0:0:
100,70,90918,1,0,0:0:0:0:
267,43,91090,1,8,0:0:0:0:
319,35,91176,1,0,0:0:0:0:
362,65,91263,1,0,0:0:0:0:
384,112,91349,1,0,0:0:0:0:
374,163,91435,1,0,0:0:0:0:
274,306,91607,1,2,0:0:0:0:
205,143,91780,5,10,0:0:0:0:
338,249,91952,2,0,B|368:249|368:249|365:202,1,58.4999973220826,2|0,0:0|0:0,0:0:0:0:
384,182,92125,5,0,0:0:0:0:
265,53,92297,1,0,0:0:0:0:
310,227,92470,1,8,0:0:0:0:
271,191,92556,1,0,0:0:0:0:
250,142,92642,1,0,0:0:0:0:
269,315,92814,1,0,0:0:0:0:
161,175,92987,1,2,0:0:0:0:
112,296,93159,6,0,B|161:325|161:325|154:316,3,58.4999973220826,10|0|2|0,0:0|0:0|0:0|0:0,0:0:0:0:
219,336,93504,5,0,0:0:0:0:
368,244,93676,1,0,0:0:0:0:
366,62,93849,1,8,0:0:0:0:
388,109,93935,1,0,0:0:0:0:
372,159,94021,1,0,0:0:0:0:
325,182,94107,1,0,0:0:0:0:
276,159,94194,1,0,0:0:0:0:
91,130,94366,6,0,B|130:121|130:121|135:83|135:83|180:64,1,116.999994644165,2|8,0:0|0:0,0:0:0:0:
84,200,94711,2,0,L|128:239,1,58.4999973220826,2|0,0:0|0:0,0:0:0:0:
168,272,94883,5,0,0:0:0:0:
343,255,95056,1,0,0:0:0:0:
292,77,95228,1,8,0:0:0:0:
337,103,95314,1,0,0:0:0:0:
372,142,95401,1,0,0:0:0:0:
203,95,95573,1,0,0:0:0:0:
196,269,95745,1,0,0:0:0:0:
308,147,95918,6,0,B|353:117|353:117|343:119,3,58.4999973220826,10|0|0|0,0:0|0:0|0:0|0:0,0:0:0:0:
394,95,96263,5,0,0:0:0:0:
328,257,96435,1,0,0:0:0:0:
263,91,96607,1,8,0:0:0:0:
296,132,96694,1,0,0:0:0:0:
286,183,96780,1,0,0:0:0:0:
238,206,96866,1,0,0:0:0:0:
190,182,96952,1,0,0:0:0:0:
366,180,97125,1,0,0:0:0:0:
202,117,97297,5,8,0:0:0:0:
106,264,97470,2,0,B|103:297|103:297|140:292,1,58.4999973220826
169,306,97642,5,0,0:0:0:0:
341,278,97814,1,0,0:0:0:0:
353,91,97987,1,8,0:0:0:0:
323,129,98073,1,0,0:0:0:0:
309,176,98159,1,0,0:0:0:0:
448,68,98332,1,0,0:0:0:0:
274,44,98504,1,2,0:0:0:0:
111,108,98676,6,0,B|161:136|161:136|152:131,3,58.4999973220826,10|0|0|0,0:0|0:0|0:0|0:0,0:0:0:0:
207,161,99021,5,0,0:0:0:0:
383,158,99194,1,0,0:0:0:0:
239,268,99366,1,8,0:0:0:0:
239,320,99452,1,0,0:0:0:0:
282,349,99538,1,0,0:0:0:0:
334,340,99625,1,0,0:0:0:0:
353,291,99711,1,0,0:0:0:0:
288,128,99883,1,0,0:0:0:0:
450,60,100056,5,10,0:0:0:0:
439,225,100228,2,0,B|409:237|409:237|372:210,1,58.4999973220826,2|0,0:0|0:0,0:0:0:0:
340,197,100401,5,0,0:0:0:0:
303,158,100487,1,0,0:0:0:0:
287,107,100573,1,0,0:0:0:0:
287,53,100659,1,0,0:0:0:0:
238,31,100745,1,8,0:0:0:0:
186,42,100832,1,0,0:0:0:0:
142,71,100918,1,0,0:0:0:0:
116,116,101004,1,0,0:0:0:0:
112,168,101090,1,0,0:0:0:0:
275,259,101263,1,2,0:0:0:0:
95,315,101435,6,0,P|126:250|185:230,1,116.999994644165,10|0,0:0|0:0,0:0:0:0:
349,263,101780,5,4,0:0:0:0:
441,114,101952,1,0,0:0:0:0:
271,160,102125,1,8,0:0:0:0:
318,136,102211,1,0,0:0:0:0:
336,86,102297,1,0,0:0:0:0:
305,43,102383,1,0,0:0:0:0:
253,29,102470,1,0,0:0:0:0:
118,140,102642,1,0,0:0:0:0:
183,302,102814,5,10,0:0:0:0:
330,205,102987,2,0,B|301:195|301:195|290:244,1,58.4999973220826,2|0,0:0|0:0,0:0:0:0:
253,239,103159,5,0,0:0:0:0:
152,94,103332,1,0,0:0:0:0:
336,86,103504,1,8,0:0:0:0:
283,89,103590,1,0,0:0:0:0:
237,115,103676,1,0,0:0:0:0:
104,248,103849,1,0,0:0:0:0:
277,318,104021,1,2,0:0:0:0:
397,173,104194,6,0,B|340:163|340:163|344:168,3,58.4999973220826,10|0|2|0,0:0|0:0|0:0|0:0,0:0:0:0:
286,153,104538,5,0,0:0:0:0:
118,68,104711,1,0,0:0:0:0:
73,249,104883,1,8,0:0:0:0:
98,202,104970,1,0,0:0:0:0:
149,189,105056,1,0,0:0:0:0:
192,218,105142,1,0,0:0:0:0:
211,266,105228,1,0,0:0:0:0:
316,260,105401,6,0,B|355:249|355:249|359:215|359:215|400:198,1,116.999994644165,2|8,0:0|0:0,0:0:0:0:
311,52,105745,2,0,B|342:58|342:58|362:81,1,58.4999973220826,2|0,0:0|0:0,0:0:0:0:
389,122,105918,5,0,0:0:0:0:
203,145,106090,1,0,0:0:0:0:
374,222,106263,1,8,0:0:0:0:
324,208,106349,1,0,0:0:0:0:
274,209,106435,1,0,0:0:0:0:
120,314,106607,1,0,0:0:0:0:
118,126,106780,1,2,0:0:0:0:
284,40,106952,5,10,0:0:0:0:
334,55,107038,1,0,0:0:0:0:
369,94,107125,1,2,0:0:0:0:
398,137,107211,1,0,0:0:0:0:
408,189,107297,5,0,0:0:0:0:
103,194,107642,1,8,0:0:0:0:
365,298,107987,1,0,0:0:0:0:
146,85,108332,1,8,0:0:0:0:
258,344,108676,1,0,0:0:0:0:
253,39,109021,1,8,0:0:0:0:
149,301,109366,1,0,0:0:0:0:
362,82,109711,1,8,0:0:0:0:
103,194,110056,5,8,0:0:0:0:
149,301,110228,1,0,0:0:0:0:
258,344,110401,1,0,0:0:0:0:
364,296,110573,1,0,0:0:0:0:
397,184,110745,6,0,P|396:134|377:104,1,58.4999973220826
362,82,110918,2,0,P|332:52|289:45,1,58.4999973220826
268,42,111090,2,0,P|230:46|201:64,1,58.4999973220826
177,88,111263,6,0,P|151:110|151:172,1,90
287,189,112125,6,0,P|285:263|221:278,1,135
