osu file format v14

[General]
AudioFilename: Alphabet Pony - Mind Games.mp3
AudioLeadIn: 0
PreviewTime: 68676
Countdown: 0
SampleSet: Soft
StackLeniency: 0.7
Mode: 0
LetterboxInBreaks: 0
SkinPreference:Colorsv1
EpilepsyWarning: 1
WidescreenStoryboard: 1

[Editor]
Bookmarks: 2470,24538,68676,112814,156952,190056,223159,267297,311435
DistanceSpacing: 1.1
BeatDivisor: 4
GridSize: 8
TimelineZoom: 1.9

[Metadata]
Title:Mind Games
TitleUnicode:Mind Games
Artist:Alphabet Pony
ArtistUnicode:Alphabet Pony
Creator:ExCellRaD
Version:Extra
Source:liquicity
Tags:Drum Bass DnB Electro
BeatmapID:648566
BeatmapSetID:287442

[Difficulty]
HPDrainRate:6
CircleSize:4
OverallDifficulty:8.7
ApproachRate:9.3
SliderMultiplier:1.8
SliderTickRate:2

[Events]
//Background and Video events
0,0,"MindGames.jpg",0,0
//Break Periods
2,46807,55709
2,201290,210191
//Storyboard Layer 0 (Background)
//Storyboard Layer 1 (Fail)
//Storyboard Layer 2 (Pass)
//Storyboard Layer 3 (Foreground)
//Storyboard Sound Samples

[TimingPoints]
2470,344.827586206897,4,1,0,100,1,0
2470,-133.333333333333,4,2,0,50,0,0
13504,-111.111111111111,4,2,0,50,0,0
24538,-105.263157894737,4,2,0,60,0,0
35573,-100,4,2,0,60,0,0
57642,-100,4,1,0,80,0,0
67297,-100,4,1,0,30,0,0
68676,-90.9090909090909,4,1,0,100,0,1
111263,-200,4,2,0,20,0,0
112814,-100,4,2,0,100,0,0
134883,-83.3333333333333,4,1,0,100,0,1
156952,-133.333333333333,4,2,0,50,0,0
179021,-100,4,2,0,60,0,0
190056,-100,4,2,0,60,0,0
212125,-100,4,1,0,80,0,0
221090,-100,4,1,0,55,0,0
221435,-100,4,1,0,45,0,0
221780,-100,4,2,0,30,0,0
223159,-83.3333333333333,4,1,0,100,0,1
245228,-90.9090909090909,4,1,0,90,0,1
265745,-200,4,2,0,20,0,0
267297,-111.111111111111,4,2,0,90,0,0
289366,-100,4,1,0,80,0,1
311435,-100,4,1,0,80,0,0

[HitObjects]
112,112,2470,6,0,L|232:51,1,135.000005149842,2|0,0:0|0:0,0:0:0:0:
272,128,3159,2,0,L|144:192,1,135.000005149842
159,291,3849,1,0,0:0:0:0:
348,98,4194,1,0,0:0:0:0:
156,104,4538,1,0,0:0:0:0:
350,291,4883,1,0,0:0:0:0:
448,216,5228,5,0,0:0:0:0:
440,200,5401,1,0,0:0:0:0:
376,69,5573,1,0,0:0:0:0:
392,80,5745,1,0,0:0:0:0:
288,200,5918,2,0,P|265:143|324:110,1,135.000005149842
192,80,6607,1,0,0:0:0:0:
176,64,6780,1,0,0:0:0:0:
136,208,6952,1,0,0:0:0:0:
119,211,7125,1,0,0:0:0:0:
260,153,7297,1,0,0:0:0:0:
376,237,7470,1,0,0:0:0:0:
256,320,7642,1,0,0:0:0:0:
152,237,7814,1,0,0:0:0:0:
90,116,7987,6,0,P|120:51|187:47,1,135.000005149842,2|0,0:0|0:0,0:0:0:0:
274,210,8676,2,0,P|343:189|352:114,1,135.000005149842
237,96,9366,1,0,0:0:0:0:
398,219,9538,1,0,0:0:0:0:
379,82,9711,1,0,0:0:0:0:
248,240,9883,1,0,0:0:0:0:
398,219,10056,1,0,0:0:0:0:
236,95,10228,1,0,0:0:0:0:
245,234,10401,2,0,P|229:190|240:158,1,67.5000025749208
320,48,10745,5,0,0:0:0:0:
416,216,11090,2,0,B|448:280|448:280|376:272,1,135.000005149842
144,240,11780,1,0,0:0:0:0:
228,81,12125,1,0,0:0:0:0:
284,80,12297,1,0,0:0:0:0:
194,248,12470,1,0,0:0:0:0:
153,206,12642,1,0,0:0:0:0:
325,248,12814,1,0,0:0:0:0:
365,208,12987,1,0,0:0:0:0:
176,176,13159,1,0,0:0:0:0:
320,176,13332,1,0,0:0:0:0:
111,32,13504,6,0,B|95:130|202:146,1,161.999995056153,2|0,0:0|0:0,0:0:0:0:
400,192,14194,2,0,B|435:97|344:56,1,161.999995056153
328,344,14883,1,0,0:0:0:0:
366,87,15228,1,0,0:0:0:0:
112,192,15573,2,0,B|144:112|144:112|224:96,1,161.999995056153
218,97,16263,5,0,0:0:0:0:
385,96,16435,1,0,0:0:0:0:
304,192,16607,1,0,0:0:0:0:
304,192,16780,1,0,0:0:0:0:
219,292,16952,1,0,0:0:0:0:
56,294,17125,1,0,0:0:0:0:
132,195,17297,1,0,0:0:0:0:
132,195,17470,1,0,0:0:0:0:
184,80,17642,2,0,P|128:64|96:48,1,80.9999975280763
320,120,17987,2,0,P|344:88|376:32,1,80.9999975280763
252,241,18332,2,0,P|297:249|367:256,1,80.9999975280763
112,214,18676,2,0,P|64:254|40:278,1,80.9999975280763
227,118,19021,6,0,P|295:85|361:130,1,161.999995056153,2|0,0:0|0:0,0:0:0:0:
320,272,19711,2,0,P|233:293|180:242,1,161.999995056153
352,112,20401,1,0,0:0:0:0:
352,112,20573,1,0,0:0:0:0:
176,256,20745,1,0,0:0:0:0:
177,255,20918,1,0,0:0:0:0:
176,112,21090,1,0,0:0:0:0:
176,112,21263,1,0,0:0:0:0:
352,256,21435,1,0,0:0:0:0:
352,256,21607,1,0,0:0:0:0:
256,192,21780,12,0,24194,0:0:0:0:
462,297,24538,6,0,P|407:330|368:333,1,85.4999977169037,4|0,0:0|0:0,0:0:0:0:
446,171,24883,1,0,0:0:0:0:
337,38,25056,1,0,0:0:0:0:
318,147,25228,6,2,B|288:189|222:195,1,85.4999977169037
123,75,25573,1,2,0:0:0:0:
21,212,25745,1,2,0:0:0:0:
136,176,25918,6,0,B|225:185,1,85.4999977169037
378,220,26263,2,0,B|348:263|348:263|298:241,1,85.4999977169037
167,119,26607,1,2,0:0:0:0:
276,250,26780,1,2,0:0:0:0:
143,254,26952,1,2,0:0:0:0:
371,70,27125,1,2,0:0:0:0:
200,78,27297,6,0,P|241:73|298:115,1,85.4999977169037
249,260,27642,1,0,0:0:0:0:
384,156,27814,2,2,P|408:194|370:251,1,85.4999977169037
219,241,28159,1,2,0:0:0:0:
200,72,28332,2,2,L|120:24,1,85.4999977169037
168,193,28676,1,0,0:0:0:0:
355,233,28849,2,0,P|321:267|263:238,1,85.4999977169037
139,272,29194,1,0,0:0:0:0:
174,105,29366,5,2,0:0:0:0:
279,238,29538,1,2,0:0:0:0:
149,237,29711,1,2,0:0:0:0:
351,85,29883,1,2,0:0:0:0:
312,224,30056,6,0,L|374:295,2,85.4999977169037
180,108,30573,1,2,0:0:0:0:
246,265,30745,1,2,0:0:0:0:
147,183,30918,1,2,0:0:0:0:
313,221,31090,1,2,0:0:0:0:
86,294,31263,1,2,0:0:0:0:
194,321,31435,6,0,B|230:303|230:303|288:329,2,85.4999977169037
136,158,31952,1,2,0:0:0:0:
277,254,32125,1,2,0:0:0:0:
295,84,32297,1,2,0:0:0:0:
399,219,32470,2,2,B|454:249|507:224,1,85.4999977169037
190,160,32814,5,0,0:0:0:0:
189,159,33159,2,0,B|176:80|176:80|112:64,1,128.249996575356,8|0,0:0|0:0,0:0:0:0:
84,64,33504,1,8,0:0:0:0:
282,69,33676,2,0,B|344:64|368:80|368:112,1,85.4999977169037
377,223,34021,1,8,0:0:0:0:
237,291,34194,5,0,1:0:0:0:
256,272,34280,1,0,1:0:0:0:
274,254,34366,1,0,1:0:0:0:
292,237,34452,1,0,1:0:0:0:
309,219,34538,1,0,1:0:0:0:
296,101,34711,1,0,0:0:0:0:
296,101,34883,1,2,0:0:0:0:
143,263,35056,1,2,0:0:0:0:
112,80,35228,2,2,P|160:104|208:80,1,85.4999977169037
368,320,35573,6,0,L|432:256,1,90,0|0,3:0|0:0,0:0:0:0:
384,48,35918,2,0,P|333:59|304:96,2,90,8|0|0,0:0|0:0|0:0,0:0:0:0:
384,176,36435,1,2,0:3:0:0:
224,224,36607,1,10,0:0:0:0:
208,64,36780,1,2,0:0:0:0:
128,160,36952,6,0,L|48:96,1,90
400,64,37297,1,8,0:0:0:0:
304,216,37470,1,0,0:0:0:0:
144,288,37642,2,0,P|88:287|32:240,1,90
288,96,37987,1,8,0:0:0:0:
384,208,38159,1,0,0:0:0:0:
464,320,38332,5,0,0:0:0:0:
464,320,38418,1,0,0:0:0:0:
464,320,38504,1,0,0:0:0:0:
480,208,38676,1,8,0:0:0:0:
352,320,38849,1,0,0:0:0:0:
400,112,39021,2,0,P|443:127|497:102,1,90
291,220,39366,2,0,P|254:266|270:322,1,90,8|0,0:0|0:0,0:0:0:0:
48,64,39711,6,0,L|144:64|128:64,1,90,0|0,0:0|0:0,0:0:0:0:
272,64,40056,1,8,0:0:0:0:
272,64,40142,1,0,0:0:0:0:
272,64,40228,1,0,0:0:0:0:
176,144,40401,2,0,P|147:189|96:208,1,90
336,340,40745,1,8,0:0:0:0:
279,188,40918,1,0,0:0:0:0:
432,144,41090,5,0,0:0:0:0:
432,144,41176,1,0,0:0:0:0:
432,144,41263,1,0,0:0:0:0:
167,182,41435,1,8,0:0:0:0:
160,48,41607,1,0,0:0:0:0:
160,48,41694,1,0,0:0:0:0:
160,48,41780,1,0,0:0:0:0:
341,105,41952,1,0,0:0:0:0:
126,224,42125,2,0,B|74:225|74:225|49:178,1,90,8|0,0:0|0:0,0:0:0:0:
192,79,42470,2,0,P|154:71|127:62,2,45
320,112,42814,2,0,B|344:96|344:96|400:128,1,90,8|0,0:0|0:0,0:0:0:0:
311,260,43159,2,0,P|348:248|376:216,2,45
110,222,43504,1,8,0:0:0:0:
311,261,43676,1,0,0:0:0:0:
136,96,43849,5,0,1:0:0:0:
176,64,44021,1,0,1:0:0:0:
356,70,44194,1,0,1:0:0:0:
390,111,44366,1,0,1:0:0:0:
368,289,44538,1,0,1:0:0:0:
321,317,44711,1,0,1:0:0:0:
146,267,44883,1,0,1:0:0:0:
177,311,45056,1,0,1:0:0:0:
72,251,45228,5,0,0:0:0:0:
47,208,45314,1,0,0:0:0:0:
47,158,45401,1,0,0:0:0:0:
63,109,45487,1,0,0:0:0:0:
101,77,45573,1,0,0:0:0:0:
149,70,45659,1,0,0:0:0:0:
196,82,45745,1,0,0:0:0:0:
237,109,45832,1,0,0:0:0:0:
273,141,45918,6,0,P|302:159|329:165,1,45
307,272,46090,2,0,P|270:278|252:277,1,45
394,284,46263,1,0,0:3:0:0:
432,256,46349,1,0,0:3:0:0:
460,207,46435,1,0,0:3:0:0:
465,152,46521,1,0,0:3:0:0:
450,94,46607,1,0,0:0:0:0:
256,192,56263,12,0,57470,0:0:0:0:
114,158,57642,6,0,P|72:251|124:310,1,180,0|8,0:0|0:0,0:0:0:0:
257,303,58159,1,0,0:0:0:0:
240,320,58245,1,0,0:0:0:0:
222,338,58332,1,0,0:0:0:0:
384,144,58504,1,0,0:0:0:0:
257,304,58676,1,8,0:0:0:0:
384,144,58849,2,0,P|416:96|384:64,1,90
429,305,59194,5,0,0:0:0:0:
416,288,59280,1,0,0:0:0:0:
401,271,59366,1,8,0:0:0:0:
311,147,59538,2,0,L|253:55,1,90
305,233,59883,1,0,0:0:0:0:
89,177,60056,1,8,0:0:0:0:
302,256,60228,1,0,0:0:0:0:
227,337,60401,5,0,0:0:0:0:
208,320,60487,1,0,0:0:0:0:
190,302,60573,2,0,P|168:267|190:206,1,90,0|8,0:0|0:0,0:0:0:0:
320,96,60918,1,0,0:0:0:0:
113,126,61090,1,0,0:0:0:0:
131,144,61176,1,0,0:0:0:0:
149,162,61263,2,0,P|201:188|244:168,1,90,0|8,0:0|0:0,0:0:0:0:
384,80,61607,1,0,0:0:0:0:
176,80,61780,5,0,0:0:0:0:
312,244,61952,1,0,0:0:0:0:
301,258,62038,1,0,0:0:0:0:
288,272,62125,2,0,P|224:304|176:288,1,90,8|0,0:0|0:0,0:0:0:0:
80,96,62470,1,0,0:0:0:0:
196,200,62642,1,0,0:0:0:0:
196,200,62728,1,0,0:0:0:0:
196,200,62814,2,8,P|228:168|276:184,1,90,8|0,0:0|0:0,0:0:0:0:
448,240,63159,5,0,0:0:0:0:
352,64,63332,1,0,0:0:0:0:
160,64,63504,1,8,0:0:0:0:
64,240,63676,1,0,0:0:0:0:
161,303,63849,1,0,0:0:0:0:
192,320,63935,1,0,0:0:0:0:
226,325,64021,1,0,0:0:0:0:
261,320,64107,1,0,0:0:0:0:
291,301,64194,1,8,0:0:0:0:
224,64,64366,1,0,0:0:0:0:
346,220,64538,5,0,0:0:0:0:
368,192,64625,1,0,0:0:0:0:
384,160,64711,1,0,0:0:0:0:
382,125,64797,1,0,0:0:0:0:
368,93,64883,1,8,0:0:0:0:
129,50,65056,1,0,0:0:0:0:
90,252,65228,1,0,0:0:0:0:
357,74,65401,1,0,0:0:0:0:
299,290,65573,1,8,0:0:0:0:
90,253,65745,1,0,0:0:0:0:
147,154,65918,5,2,0:0:0:0:
155,119,66004,1,0,0:0:0:0:
170,87,66090,1,0,0:0:0:0:
192,60,66176,1,0,0:0:0:0:
221,39,66263,1,2,0:0:0:0:
256,31,66349,1,0,0:0:0:0:
291,32,66435,1,2,0:0:0:0:
326,42,66521,1,0,0:0:0:0:
366,75,66607,1,0,0:0:0:0:
396,117,66694,1,0,0:0:0:0:
418,165,66780,1,2,0:0:0:0:
426,217,66866,1,0,0:0:0:0:
401,268,66952,1,0,0:0:0:0:
356,306,67038,1,0,0:0:0:0:
301,320,67125,1,2,0:0:0:0:
244,316,67211,1,0,0:0:0:0:
204,285,67297,5,0,0:0:0:0:
189,240,67383,1,0,0:0:0:0:
207,200,67470,1,2,0:0:0:0:
245,175,67556,1,0,0:0:0:0:
279,158,67642,1,0,0:0:0:0:
295,126,67728,1,0,0:0:0:0:
285,91,67814,1,0,0:0:0:0:
255,59,67901,1,0,0:0:0:0:
203,54,67987,1,2,0:0:0:0:
154,64,68073,1,0,0:0:0:0:
121,97,68159,1,0,0:0:0:0:
102,132,68245,1,0,0:0:0:0:
94,167,68332,1,0,0:0:0:0:
95,197,68418,1,0,0:0:0:0:
100,228,68504,1,0,0:0:0:0:
113,256,68590,1,0,0:0:0:0:
128,284,68676,6,0,P|172:324|240:320,1,99.0000030212403
411,304,69021,1,8,0:0:0:0:
448,268,69107,1,0,0:0:0:0:
464,219,69194,1,0,0:0:0:0:
464,64,69366,1,0,0:0:0:0:
256,208,69538,1,0,0:0:0:0:
32,288,69711,2,0,P|0:240|32:176,1,99.0000030212403,8|0,0:0|0:0,0:0:0:0:
171,84,70056,5,0,0:0:0:0:
320,304,70228,1,0,0:0:0:0:
400,112,70401,2,0,P|400:80|432:80,2,49.5000015106202,8|0|0,0:0|0:0|0:0,0:0:0:0:
352,304,70745,1,0,0:0:0:0:
170,84,70918,1,0,0:0:0:0:
64,288,71090,2,0,P|32:288|16:256,2,49.5000015106202,8|0|0,0:0|0:0|0:0,0:0:0:0:
231,27,71435,5,0,0:0:0:0:
278,40,71521,1,0,0:0:0:0:
319,66,71607,1,0,0:0:0:0:
348,106,71694,1,0,0:0:0:0:
372,148,71780,1,8,0:0:0:0:
224,320,71952,1,0,0:0:0:0:
64,240,72125,2,0,P|32:176|64:144,1,99.0000030212403
256,153,72470,1,8,0:0:0:0:
209,168,72556,1,0,0:0:0:0:
159,171,72642,1,0,0:0:0:0:
416,64,72814,6,0,P|448:64|448:80,2,49.5000015106202,0|0|0,0:0|0:0|0:0,0:0:0:0:
176,320,73159,1,8,0:0:0:0:
312,117,73332,1,0,0:0:0:0:
65,171,73504,1,0,0:0:0:0:
78,123,73590,1,0,0:0:0:0:
107,83,73676,1,0,0:0:0:0:
146,52,73763,1,0,0:0:0:0:
192,34,73849,1,8,0:0:0:0:
288,160,74021,1,0,0:0:0:0:
368,304,74194,6,0,L|448:224,1,99.0000030212403,0|0,0:0|0:0,0:0:0:0:
384,160,74538,2,0,L|288:256,1,99.0000030212403,8|0,0:0|0:0,0:0:0:0:
168,310,74883,1,0,0:0:0:0:
211,281,74970,1,0,0:0:0:0:
264,270,75056,1,0,0:0:0:0:
32,336,75228,1,8,0:0:0:0:
272,96,75401,1,0,0:0:0:0:
62,150,75573,5,0,0:0:0:0:
303,343,75745,1,0,0:0:0:0:
276,89,75918,1,8,0:0:0:0:
96,352,76090,1,0,0:0:0:0:
96,192,76263,2,0,P|80:208|48:208,1,49.5000015106202
64,144,76435,2,0,P|32:160|0:144,1,49.5000015106202
64,96,76607,2,0,P|32:96|16:80,1,49.5000015106202,8|0,0:0|0:0,0:0:0:0:
80,48,76780,2,0,P|48:32|48:16,1,49.5000015106202
320,144,76952,6,0,P|368:160|416:48,1,198.000006042481,0|8,0:0|0:0,0:0:0:0:
208,32,77470,1,0,0:0:0:0:
80,128,77642,2,0,P|48:176|64:208,1,99.0000030212403
244,306,77987,1,8,0:0:0:0:
289,324,78073,1,0,0:0:0:0:
321,286,78159,1,0,0:0:0:0:
369,294,78245,1,0,0:0:0:0:
385,242,78332,5,0,0:0:0:0:
400,193,78418,1,0,0:0:0:0:
383,146,78504,1,0,0:0:0:0:
353,106,78590,1,0,0:0:0:0:
313,76,78676,2,0,P|331:34|382:56,1,99.0000030212403,8|0,0:0|0:0,0:0:0:0:
128,246,79021,2,0,P|81:256|36:299,1,99.0000030212403
167,37,79366,1,8,0:0:0:0:
212,242,79538,1,0,0:0:0:0:
345,330,79711,5,0,0:0:0:0:
139,342,79883,1,0,0:0:0:0:
382,168,80056,1,8,0:0:0:0:
260,35,80228,1,0,0:0:0:0:
144,145,80401,1,0,0:0:0:0:
112,112,80487,1,0,0:0:0:0:
79,79,80573,1,0,0:0:0:0:
320,320,80745,1,8,0:0:0:0:
176,64,80918,1,0,0:0:0:0:
433,67,81090,5,0,0:0:0:0:
390,41,81176,1,0,0:0:0:0:
343,58,81263,1,0,0:0:0:0:
343,107,81349,1,0,0:0:0:0:
387,129,81435,2,0,P|419:177|419:225,1,99.0000030212403,8|0,0:0|0:0,0:0:0:0:
224,320,81780,2,0,P|160:320|112:272,1,99.0000030212403
297,56,82125,1,8,0:0:0:0:
285,275,82297,1,0,0:0:0:0:
70,189,82470,6,0,P|74:124|138:72,1,148.50000453186
170,65,82814,1,0,0:0:0:0:
133,266,82987,1,0,0:0:0:0:
336,208,83159,2,0,L|400:224,1,49.5000015106202
256,304,83332,2,0,L|288:352,1,49.5000015106202
128,304,83504,2,0,L|96:352,1,49.5000015106202,8|0,0:0|0:0,0:0:0:0:
64,160,83676,2,0,L|0:144,1,49.5000015106202
160,96,83849,6,0,P|256:48|272:48,1,99.0000030212403
288,112,84194,2,0,P|196:162|181:184,1,99.0000030212403,8|0,0:0|0:0,0:0:0:0:
434,30,84538,1,0,0:0:0:0:
512,240,84711,1,0,0:0:0:0:
304,192,84883,1,8,0:0:0:0:
496,32,85056,2,0,L|416:128,1,99.0000030212403
248,282,85401,5,0,0:0:0:0:
295,267,85487,1,0,0:0:0:0:
326,229,85573,1,8,0:0:0:0:
58,227,85745,1,0,0:0:0:0:
232,56,85918,1,0,0:0:0:0:
134,158,86090,1,0,0:0:0:0:
96,125,86176,1,0,0:0:0:0:
73,80,86263,1,8,0:0:0:0:
208,320,86435,1,0,0:0:0:0:
374,290,86607,5,0,0:0:0:0:
421,275,86694,1,0,0:0:0:0:
458,242,86780,1,0,0:0:0:0:
478,197,86866,1,0,0:0:0:0:
485,148,86952,1,8,0:0:0:0:
512,32,87125,2,0,L|464:48,1,49.5000015106202
336,96,87297,1,0,0:0:0:0:
176,288,87470,1,0,0:0:0:0:
144,112,87642,1,8,0:0:0:0:
384,272,87814,1,0,0:0:0:0:
240,160,87987,5,0,0:0:0:0:
218,115,88073,1,0,0:0:0:0:
199,69,88159,1,0,0:0:0:0:
48,186,88332,1,8,0:0:0:0:
72,229,88418,1,0,0:0:0:0:
94,272,88504,1,0,0:0:0:0:
370,292,88676,2,0,L|432:256,3,49.5000015106202
420,225,89021,1,8,0:0:0:0:
461,210,89107,1,0,0:0:0:0:
438,171,89194,1,0,0:0:0:0:
473,144,89280,1,0,0:0:0:0:
441,112,89366,1,0,0:0:0:0:
466,75,89452,1,0,0:0:0:0:
430,48,89538,5,0,0:0:0:0:
144,16,89711,1,8,0:0:0:0:
289,184,89883,1,0,0:0:0:0:
254,155,89970,1,0,0:0:0:0:
232,116,90056,1,0,0:0:0:0:
432,304,90228,2,0,L|320:272,1,99.0000030212403,0|8,0:0|0:0,0:0:0:0:
125,227,90573,2,0,L|185:273,1,49.5000015106202
214,298,90745,5,4,0:0:0:0:
0,123,90918,1,0,0:0:0:0:
107,336,91090,1,8,0:0:0:0:
112,72,91263,1,0,0:0:0:0:
279,209,91435,2,0,P|228:228|199:273,1,99.0000030212403
146,182,91780,2,0,P|196:168|226:118,1,99.0000030212403,8|0,0:0|0:0,0:0:0:0:
376,47,92125,5,0,0:0:0:0:
416,64,92211,1,0,0:0:0:0:
447,95,92297,1,0,0:0:0:0:
423,275,92470,1,8,0:0:0:0:
382,305,92556,1,0,0:0:0:0:
334,323,92642,1,0,0:0:0:0:
283,318,92728,1,0,0:0:0:0:
234,305,92814,1,0,0:0:0:0:
64,96,92987,1,0,0:0:0:0:
341,144,93159,1,8,0:0:0:0:
80,256,93332,1,0,0:0:0:0:
224,111,93504,6,0,P|160:111|160:47,1,99.0000030212403
133,288,93849,2,0,P|197:288|197:352,1,99.0000030212403,8|0,0:0|0:0,0:0:0:0:
368,192,94194,1,0,0:0:0:0:
387,154,94280,1,0,0:0:0:0:
383,110,94366,1,0,0:0:0:0:
70,144,94538,1,8,0:0:0:0:
235,47,94711,1,0,0:0:0:0:
176,304,94883,5,0,0:0:0:0:
384,224,95056,1,0,0:0:0:0:
288,32,95228,1,8,0:0:0:0:
96,112,95401,1,0,0:0:0:0:
240,192,95573,2,0,L|272:160|288:144,6,49.5000015106202,0|0|0|0|8|0|0,0:0|0:0|0:0|0:0|0:0|0:0|0:0,0:0:0:0:
112,336,96263,5,0,0:0:0:0:
0,240,96435,1,0,0:0:0:0:
0,96,96607,1,8,0:0:0:0:
212,202,96780,1,0,0:0:0:0:
181,162,96866,1,0,0:0:0:0:
150,123,96952,1,0,0:0:0:0:
288,16,97125,2,0,P|352:48|384:96,1,99.0000030212403,0|8,0:0|0:0,0:0:0:0:
368,240,97470,1,0,0:0:0:0:
128,144,97642,5,0,0:0:0:0:
240,176,97814,1,0,0:0:0:0:
80,48,97987,1,8,0:0:0:0:
288,288,98159,1,0,0:0:0:0:
418,139,98332,5,0,0:0:0:0:
378,118,98418,1,0,0:0:0:0:
336,101,98504,1,0,0:0:0:0:
291,95,98590,1,0,0:0:0:0:
246,98,98676,1,8,0:0:0:0:
301,229,98849,2,0,P|333:277|397:277,1,99.0000030212403
166,315,99194,5,0,0:0:0:0:
27,133,99366,1,8,0:0:0:0:
192,320,99538,1,0,0:0:0:0:
178,129,99711,2,0,P|234:50|249:43,1,99.0000030212403
347,120,100056,2,0,P|299:184|267:200,1,99.0000030212403,8|0,0:0|0:0,0:0:0:0:
103,316,100401,5,0,0:0:0:0:
54,325,100487,1,0,0:0:0:0:
19,290,100573,1,0,0:0:0:0:
41,245,100659,1,0,0:0:0:0:
90,241,100745,2,0,P|114:257|115:284,4,49.5000015106202,8|0|0|0|0,0:0|0:0|0:0|0:0|0:0,0:0:0:0:
128,80,101263,1,4,0:0:0:0:
423,48,101435,1,8,0:0:0:0:
255,227,101607,1,0,0:0:0:0:
400,320,101780,6,4,P|464:320|400:256,1,198.000006042481,4|8,0:0|0:0,0:0:0:0:
208,304,102297,1,0,0:0:0:0:
203,38,102470,1,0,0:0:0:0:
161,65,102556,1,0,0:0:0:0:
145,111,102642,1,0,0:0:0:0:
170,153,102728,1,0,0:0:0:0:
215,173,102814,1,8,0:0:0:0:
400,96,102987,1,0,0:0:0:0:
346,237,103159,5,0,0:0:0:0:
210,89,103332,1,0,0:0:0:0:
475,152,103504,1,8,0:0:0:0:
227,202,103676,1,0,0:0:0:0:
416,208,103849,5,0,0:0:0:0:
247,133,104021,1,0,0:0:0:0:
293,101,104107,1,0,0:0:0:0:
333,56,104194,1,8,0:0:0:0:
95,229,104366,1,0,0:0:0:0:
80,128,104538,6,0,L|16:96,2,49.5000015106202,0|0|0,0:0|0:0|0:0,0:0:0:0:
326,232,104883,1,8,0:0:0:0:
182,175,105056,1,0,0:0:0:0:
184,358,105228,1,0,0:0:0:0:
272,143,105401,1,0,0:0:0:0:
476,347,105573,1,8,0:0:0:0:
431,216,105745,1,0,0:0:0:0:
140,291,105918,5,0,0:0:0:0:
222,153,106090,1,0,0:0:0:0:
270,130,106176,1,0,0:0:0:0:
315,91,106263,1,8,0:0:0:0:
48,272,106435,1,0,0:0:0:0:
268,329,106607,2,8,B|245:312|245:312|204:345|204:345|180:329,1,99.0000030212403,8|0,0:0|0:0,0:0:0:0:
380,146,106952,2,8,B|383:174|383:174|334:192|334:192|335:213,1,99.0000030212403,8|0,0:0|0:0,0:0:0:0:
192,64,107297,5,4,0:0:0:0:
304,352,107642,2,4,P|384:336|384:224,1,198.000006042481
48,144,108332,1,4,0:0:0:0:
420,50,108676,5,4,0:0:0:0:
422,52,108763,1,0,0:0:0:0:
422,52,108849,1,0,0:0:0:0:
400,256,109021,2,4,P|336:352|256:336,1,198.000006042481
48,224,109711,1,4,0:0:0:0:
80,64,110056,5,4,0:3:0:0:
160,144,110228,1,4,0:3:0:0:
256,224,110401,1,4,0:3:0:0:
336,144,110573,1,4,0:3:0:0:
416,64,110745,1,4,0:3:0:0:
416,224,110918,1,4,0:3:0:0:
416,352,111090,1,4,0:3:0:0:
253,341,111263,6,0,B|198:363|159:346|159:346|230:285|171:238|171:238|217:174|194:102,1,360
224,51,112814,5,0,0:0:0:0:
371,30,112987,1,0,0:0:0:0:
491,92,113159,1,0,0:0:0:0:
496,254,113332,1,0,0:0:0:0:
469,284,113418,1,0,0:0:0:0:
434,304,113504,2,0,P|392:330|321:328,1,90,8|0,0:0|0:0,0:0:0:0:
196,287,113849,1,0,0:0:0:0:
319,183,114021,1,0,0:0:0:0:
82,71,114194,5,0,0:0:0:0:
216,160,114366,1,0,0:0:0:0:
85,255,114538,1,0,0:0:0:0:
229,329,114711,1,0,0:0:0:0:
387,297,114883,1,8,0:0:0:0:
427,276,114970,1,0,0:0:0:0:
459,245,115056,1,0,0:0:0:0:
483,207,115142,1,0,0:0:0:0:
495,163,115228,2,0,P|479:99|463:83,1,90
259,32,115573,5,0,0:0:0:0:
115,107,115745,1,0,0:0:0:0:
116,269,115918,1,0,0:0:0:0:
259,342,116090,1,0,0:0:0:0:
337,199,116263,1,8,0:0:0:0:
337,199,116349,1,0,0:0:0:0:
337,199,116435,2,0,B|390:200|390:200|388:139,1,90
475,253,116780,2,0,B|429:255|429:255|427:303,1,90
288,240,117125,5,0,0:0:0:0:
242,226,117211,1,0,0:0:0:0:
195,226,117297,1,0,0:0:0:0:
149,239,117383,1,0,0:0:0:0:
102,241,117470,1,0,0:0:0:0:
57,226,117556,1,0,0:0:0:0:
24,197,117642,1,8,0:0:0:0:
0,152,117728,1,0,0:0:0:0:
0,101,117814,1,0,0:0:0:0:
28,58,117901,1,0,0:0:0:0:
78,43,117987,1,8,0:0:0:0:
138,48,118073,1,0,0:0:0:0:
189,69,118159,1,8,0:0:0:0:
248,95,118245,1,0,0:0:0:0:
308,105,118332,5,0,0:0:0:0:
444,191,118504,1,0,0:0:0:0:
353,325,118676,1,0,0:0:0:0:
191,339,118849,1,0,0:0:0:0:
79,222,119021,2,0,P|45:198|33:140,1,90,8|0,0:0|0:0,0:0:0:0:
162,57,119366,2,0,P|202:80|174:112,1,90
381,57,119711,5,0,0:0:0:0:
381,57,119797,1,0,0:0:0:0:
381,57,119883,1,0,0:0:0:0:
283,187,120056,1,0,0:0:0:0:
124,154,120228,1,0,0:0:0:0:
0,250,120401,1,8,0:0:0:0:
19,290,120487,1,0,0:0:0:0:
51,320,120573,1,0,0:0:0:0:
90,341,120659,1,0,0:0:0:0:
134,348,120745,2,0,B|192:344|192:344|244:288,1,135
323,295,121090,6,0,P|366:303|428:285,1,90
368,80,121435,2,0,P|414:105|448:160,1,90
471,257,121780,1,8,0:0:0:0:
438,294,121866,1,0,0:0:0:0:
395,319,121952,1,0,0:0:0:0:
345,324,122038,1,0,0:0:0:0:
301,300,122125,1,0,0:0:0:0:
280,259,122211,1,0,0:0:0:0:
246,219,122297,1,0,0:0:0:0:
201,196,122383,1,0,0:0:0:0:
152,183,122470,6,0,P|106:166|75:114,1,90
224,80,122814,1,0,0:0:0:0:
432,112,122987,1,0,0:0:0:0:
464,224,123159,1,8,0:0:0:0:
255,191,123332,1,0,0:0:0:0:
288,304,123504,1,0,0:0:0:0:
493,326,123676,1,8,0:2:0:0:
442,342,123763,1,8,0:2:0:0:
390,350,123849,6,0,P|328:350|287:334,1,90,4|0,0:0|0:0,0:0:0:0:
368,160,124194,2,0,L|446:79,1,90
296,48,124538,1,8,0:0:0:0:
252,62,124625,1,0,0:0:0:0:
214,86,124711,1,0,0:0:0:0:
190,123,124797,1,0,0:0:0:0:
174,165,124883,1,0,0:0:0:0:
138,318,125056,1,0,0:0:0:0:
0,160,125228,6,0,P|-27:128|5:80,1,90
160,80,125573,1,0,0:0:0:0:
371,112,125745,1,0,0:0:0:0:
409,136,125832,1,0,0:0:0:0:
441,167,125918,2,0,P|473:215|457:263,1,90,8|0,0:0|0:0,0:0:0:0:
304,336,126263,1,0,0:0:0:0:
129,285,126435,1,0,0:0:0:0:
113,243,126521,1,0,0:0:0:0:
113,198,126607,5,0,0:0:0:0:
160,32,126780,1,0,0:0:0:0:
320,32,126952,1,0,0:0:0:0:
448,128,127125,1,0,0:0:0:0:
416,320,127297,2,0,P|464:288|432:256,1,90,8|0,0:0|0:0,0:0:0:0:
288,352,127642,1,0,0:0:0:0:
112,288,127814,1,0,0:0:0:0:
32,176,127987,5,0,0:0:0:0:
128,80,128159,1,0,0:0:0:0:
32,272,128332,1,0,0:0:0:0:
224,96,128504,1,0,0:0:0:0:
362,117,128676,2,0,P|410:101|426:101,2,45,8|0|0,0:0|0:0|0:0,0:0:0:0:
326,158,128935,1,0,0:0:0:0:
326,211,129021,1,8,0:0:0:0:
358,255,129107,1,0,0:0:0:0:
412,267,129194,1,8,0:0:0:0:
462,244,129280,1,0,0:0:0:0:
487,200,129366,6,0,L|426:282,1,90,4|0,0:0|0:0,0:0:0:0:
291,338,129711,1,0,0:0:0:0:
242,349,129797,1,0,0:0:0:0:
194,335,129883,1,0,0:0:0:0:
76,143,130056,1,8,0:0:0:0:
211,66,130228,1,0,0:0:0:0:
80,272,130401,1,0,0:0:0:0:
336,112,130573,1,0,0:0:0:0:
307,308,130745,5,0,0:0:0:0:
350,326,130832,1,0,0:0:0:0:
394,323,130918,1,0,0:0:0:0:
437,311,131004,1,0,0:0:0:0:
471,282,131090,1,0,0:0:0:0:
495,244,131176,1,0,0:0:0:0:
508,200,131263,1,0,0:0:0:0:
503,155,131349,1,0,0:0:0:0:
487,112,131435,2,0,B|424:59|353:82,1,135,8|0,0:0|0:0,0:0:0:0:
323,104,131780,5,0,0:0:0:0:
295,135,131866,1,0,0:0:0:0:
278,177,131952,1,0,0:0:0:0:
253,220,132038,1,0,0:0:0:0:
218,255,132125,1,0,0:0:0:0:
182,288,132211,1,0,0:0:0:0:
134,299,132297,1,0,0:0:0:0:
85,290,132383,1,0,0:0:0:0:
44,260,132470,2,0,P|28:244|28:166,1,90
131,38,132814,5,8,0:0:0:0:
153,82,132901,1,0,0:0:0:0:
189,115,132987,1,0,0:0:0:0:
235,132,133073,1,0,0:0:0:0:
320,96,133159,5,4,0:0:0:0:
372,106,133245,1,0,0:0:0:0:
419,132,133332,1,0,0:0:0:0:
453,173,133418,1,0,0:0:0:0:
458,251,133504,5,4,0:0:0:0:
439,292,133590,1,0,0:0:0:0:
402,322,133676,1,0,0:0:0:0:
356,335,133763,1,0,0:0:0:0:
310,323,133849,5,8,0:0:0:0:
238,257,134021,1,8,0:0:0:0:
188,241,134107,1,8,0:0:0:0:
136,239,134194,1,8,0:0:0:0:
93,251,134280,1,0,0:0:0:0:
46,240,134366,1,4,0:0:0:0:
11,207,134452,1,0,0:0:0:0:
0,159,134538,1,8,0:0:0:0:
4,109,134625,1,0,0:0:0:0:
25,64,134711,1,4,0:0:0:0:
63,41,134797,1,0,0:0:0:0:
112,32,134883,6,0,P|179:31|224:61,1,107.999996704102
325,300,135228,1,0,0:0:0:0:
275,290,135314,1,0,0:0:0:0:
225,267,135401,1,0,0:0:0:0:
180,236,135487,1,0,0:0:0:0:
152,189,135573,1,8,0:0:0:0:
235,44,135745,2,0,P|296:28|360:58,1,107.999996704102
449,183,136090,2,0,B|464:216|464:248,2,53.9999983520508
443,333,136435,1,0,0:0:0:0:
273,205,136607,1,0,0:0:0:0:
311,243,136694,1,0,0:0:0:0:
356,272,136780,1,0,0:0:0:0:
169,113,136952,2,0,B|175:63|175:63|230:43,1,107.999996704102,8|0,0:0|0:0,0:0:0:0:
319,307,137297,1,0,0:0:0:0:
363,42,137470,1,0,0:0:0:0:
458,249,137642,5,0,0:0:0:0:
448,196,137728,1,0,0:0:0:0:
436,147,137814,1,0,0:0:0:0:
174,333,137987,1,0,0:0:0:0:
17,189,138159,2,0,P|11:106|51:71,1,107.999996704102,0|8,0:0|0:0,0:0:0:0:
150,40,138504,1,0,0:0:0:0:
320,317,138676,1,0,0:0:0:0:
363,297,138763,1,0,0:0:0:0:
398,266,138849,1,0,0:0:0:0:
427,228,138935,1,0,0:0:0:0:
448,188,139021,1,0,0:0:0:0:
461,45,139194,2,0,P|401:52|345:21,1,107.999996704102
340,224,139538,1,0,0:0:0:0:
58,89,139711,1,8,0:0:0:0:
57,312,139883,1,0,0:0:0:0:
208,141,140056,1,0,0:0:0:0:
247,105,140142,1,0,0:0:0:0:
296,86,140228,1,0,0:0:0:0:
350,86,140314,1,0,0:0:0:0:
403,98,140401,6,0,P|452:147|386:295,1,215.999993408203
450,169,140918,1,0,0:0:0:0:
201,344,141090,1,0,0:0:0:0:
192,210,141263,2,0,P|153:238|113:230,1,53.9999983520508
92,252,141435,1,0,0:0:0:0:
229,70,141607,1,0,0:0:0:0:
413,255,141780,1,0,0:0:0:0:
445,211,141866,1,0,0:0:0:0:
462,160,141952,1,0,0:0:0:0:
464,106,142038,1,0,0:0:0:0:
448,53,142125,1,0,0:0:0:0:
81,46,142297,1,0,0:0:0:0:
391,164,142470,1,8,0:0:0:0:
59,247,142642,1,0,0:0:0:0:
391,164,142814,1,0,0:0:0:0:
81,46,142987,1,0,0:0:0:0:
75,151,143159,6,0,P|135:152|170:107,1,107.999996704102
429,50,143504,1,0,0:0:0:0:
384,80,143590,1,0,0:0:0:0:
347,119,143676,1,0,0:0:0:0:
198,345,143849,1,8,0:0:0:0:
156,53,144021,1,0,0:0:0:0:
47,265,144194,1,4,0:0:0:0:
75,225,144280,1,0,0:0:0:0:
107,189,144366,1,0,0:0:0:0:
151,170,144452,1,0,0:0:0:0:
222,218,144538,5,4,0:0:0:0:
269,205,144625,1,0,0:0:0:0:
307,175,144711,1,0,0:0:0:0:
330,132,144797,1,0,0:0:0:0:
360,94,144883,1,0,0:0:0:0:
400,66,144970,1,0,0:0:0:0:
448,60,145056,1,0,0:0:0:0:
486,89,145142,1,0,0:0:0:0:
505,133,145228,1,8,0:0:0:0:
504,181,145314,1,0,0:0:0:0:
489,226,145401,1,0,0:0:0:0:
459,260,145487,1,0,0:0:0:0:
415,291,145573,2,8,P|360:318|305:322,1,107.999996704102
233,222,145918,5,4,0:0:0:0:
68,60,146090,1,0,0:0:0:0:
32,292,146263,2,0,P|74:336|126:343,1,107.999996704102
271,329,146607,1,8,0:0:0:0:
451,92,146780,1,0,0:0:0:0:
154,62,146952,1,0,0:0:0:0:
271,329,147125,1,0,0:0:0:0:
451,92,147297,1,0,0:0:0:0:
154,62,147470,2,0,P|104:92|107:140,1,107.999996704102
126,311,147814,1,0,0:0:0:0:
346,315,147987,1,8,0:0:0:0:
389,283,148073,1,0,0:0:0:0:
421,240,148159,1,0,0:0:0:0:
440,189,148245,1,0,0:0:0:0:
444,129,148332,1,0,0:0:0:0:
415,76,148418,1,0,0:0:0:0:
369,38,148504,1,0,0:0:0:0:
311,23,148590,1,0,0:0:0:0:
252,32,148676,6,0,P|209:69|159:76,1,107.999996704102
30,200,149021,1,0,0:0:0:0:
234,341,149194,1,0,0:0:0:0:
399,116,149366,1,8,0:0:0:0:
373,277,149538,1,0,0:0:0:0:
297,34,149711,1,0,0:0:0:0:
239,200,149883,1,0,0:0:0:0:
201,160,149970,1,0,0:0:0:0:
190,107,150056,1,0,0:0:0:0:
363,258,150228,2,0,P|428:271|463:250,1,107.999996704102
267,274,150573,1,0,0:0:0:0:
439,45,150745,1,8,0:0:0:0:
379,35,150832,1,0,0:0:0:0:
326,47,150918,1,0,0:0:0:0:
280,76,151004,1,0,0:0:0:0:
246,117,151090,1,4,0:0:0:0:
230,168,151176,1,0,0:0:0:0:
213,220,151263,1,4,0:0:0:0:
180,263,151349,1,0,0:0:0:0:
135,293,151435,6,0,P|85:315|35:293,1,107.999996704102
0,110,151780,1,0,0:0:0:0:
280,76,151952,1,0,0:0:0:0:
229,57,152038,1,0,0:0:0:0:
175,47,152125,1,8,0:0:0:0:
407,187,152297,1,0,0:0:0:0:
264,308,152470,2,0,L|201:314,2,53.9999983520508
316,297,152728,1,0,0:0:0:0:
362,269,152814,1,0,0:0:0:0:
405,236,152901,1,0,0:0:0:0:
439,194,152987,1,0,0:0:0:0:
374,48,153159,1,0,0:0:0:0:
131,142,153332,1,0,0:0:0:0:
357,305,153504,1,8,0:0:0:0:
258,42,153676,1,0,0:0:0:0:
424,66,153849,2,0,P|477:107|479:161,1,107.999996704102
385,286,154194,6,0,P|333:314|316:314,3,53.9999983520508,4|0|2|0,0:3|0:0|0:3|0:0,0:0:0:0:
291,307,154538,1,0,0:0:0:0:
247,283,154625,1,0,0:0:0:0:
211,249,154711,1,2,0:3:0:0:
184,208,154797,1,0,0:0:0:0:
119,113,154883,5,8,0:0:0:0:
153,78,154970,1,0,0:0:0:0:
198,62,155056,1,2,0:3:0:0:
246,68,155142,1,0,0:0:0:0:
292,81,155228,2,0,P|349:104|353:110,3,53.9999983520508,4|0|2|0,0:3|0:0|0:3|0:0,0:0:0:0:
423,209,155573,5,4,0:3:0:0:
402,253,155659,1,0,0:0:0:0:
372,291,155745,1,0,0:0:0:0:
328,314,155832,1,0,0:0:0:0:
280,305,155918,1,8,0:0:0:0:
244,271,156004,1,0,0:0:0:0:
225,226,156090,1,8,0:0:0:0:
199,184,156176,1,8,0:0:0:0:
164,149,156263,1,8,0:0:0:0:
117,130,156349,1,0,0:0:0:0:
68,130,156435,1,4,0:0:0:0:
32,162,156521,1,0,0:0:0:0:
19,208,156607,1,10,0:3:0:0:
26,256,156694,1,2,0:3:0:0:
53,295,156780,1,6,0:3:0:0:
93,321,156866,1,2,0:3:0:0:
135,327,156952,6,0,P|205:307|255:266,1,135.000005149842,2|0,0:0|0:0,0:0:0:0:
190,175,157642,2,0,P|114:188|57:239,1,135.000005149842
332,113,158332,1,0,0:0:0:0:
81,281,158676,1,0,0:0:0:0:
132,69,159021,1,0,0:0:0:0:
290,334,159366,1,0,0:0:0:0:
237,258,159711,1,0,0:0:0:0:
203,229,159883,1,0,0:0:0:0:
395,130,160056,1,0,0:0:0:0:
423,163,160228,1,0,0:0:0:0:
309,186,160401,2,0,B|309:148|268:141|232:154,3,67.5000025749208
149,52,161090,1,0,0:0:0:0:
128,64,161263,1,0,0:0:0:0:
151,261,161435,1,0,0:0:0:0:
129,237,161607,1,0,0:0:0:0:
318,232,161780,1,0,0:0:0:0:
348,347,161952,1,0,0:0:0:0:
254,259,162125,1,0,0:0:0:0:
223,133,162297,1,0,0:0:0:0:
96,127,162470,6,0,B|121:110|136:32|208:47,1,135.000005149842,2|0,0:0|0:0,0:0:0:0:
259,162,163159,2,0,B|252:212|157:207|179:274,1,135.000005149842
265,84,163849,1,0,0:0:0:0:
365,272,164021,1,0,0:0:0:0:
424,180,164194,1,0,0:0:0:0:
199,174,164366,1,0,0:0:0:0:
254,266,164538,1,0,0:0:0:0:
364,89,164711,1,0,0:0:0:0:
268,82,164883,2,0,P|208:70|186:48,1,67.5000025749208
114,228,165228,1,0,0:0:0:0:
114,228,165573,2,0,B|159:280|159:280|224:229,1,135.000005149842
211,239,166263,1,0,0:0:0:0:
330,266,166607,1,0,0:0:0:0:
330,117,166780,1,0,0:0:0:0:
181,117,166952,1,0,0:0:0:0:
181,266,167125,1,0,0:0:0:0:
361,192,167297,1,0,0:0:0:0:
256,86,167470,1,0,0:0:0:0:
150,191,167642,1,0,0:0:0:0:
255,297,167814,1,0,0:0:0:0:
112,32,167987,6,0,B|150:43|-1:138|70:151,1,135.000005149842,2|0,0:0|0:0,0:0:0:0:
429,110,168676,2,0,B|426:162|331:11|320:49,1,135.000005149842,2|0,0:0|0:0,0:0:0:0:
337,322,169366,1,0,0:0:0:0:
349,101,169711,1,0,0:0:0:0:
112,192,170056,2,0,B|128:128|144:112|224:96,1,135.000005149842
313,280,170745,1,0,0:0:0:0:
167,249,170918,1,0,0:0:0:0:
233,295,171090,1,0,0:0:0:0:
197,103,171263,1,0,0:0:0:0:
152,169,171435,1,0,0:0:0:0:
344,133,171607,1,0,0:0:0:0:
277,88,171780,1,0,0:0:0:0:
359,213,171952,1,0,0:0:0:0:
266,110,172125,2,0,P|265:78|226:81,1,67.5000025749208
431,109,172470,2,0,P|425:87|469:76,1,67.5000025749208
426,270,172814,2,0,P|450:301|444:330,1,67.5000025749208
249,255,173159,2,0,P|209:271|209:307,1,67.5000025749208
208,128,173504,6,0,P|271:168|320:128,1,135.000005149842,2|0,0:0|0:0,0:0:0:0:
308,270,174194,2,0,P|251:235|193:269,1,135.000005149842
312,276,174883,1,0,0:0:0:0:
165,173,175056,1,0,0:0:0:0:
336,137,175228,1,0,0:0:0:0:
235,291,175401,1,0,0:0:0:0:
194,101,175573,1,0,0:0:0:0:
361,211,175745,1,0,0:0:0:0:
160,254,175918,1,0,0:0:0:0:
278,73,176090,1,0,0:0:0:0:
256,192,176263,12,0,178676,0:0:0:0:
293,262,179021,6,0,P|316:222|365:209,1,90
431,285,179366,2,0,P|407:323|341:344,1,90
234,319,179711,1,2,0:0:0:0:
102,291,179883,1,2,0:0:0:0:
183,182,180056,1,2,0:0:0:0:
383,138,180228,1,2,0:0:0:0:
196,81,180401,6,0,P|143:88|102:48,1,90
192,179,180745,1,0,0:0:0:0:
173,44,180918,1,2,0:0:0:0:
295,135,181090,1,2,0:0:0:0:
233,275,181263,1,2,0:0:0:0:
381,238,181435,1,2,0:0:0:0:
126,319,181607,1,2,0:0:0:0:
65,197,181780,6,0,P|136:232|152:230,1,90
279,232,182125,2,0,P|334:230|373:246,1,90
468,331,182470,1,2,0:0:0:0:
369,238,182642,1,2,0:0:0:0:
446,127,182814,1,2,0:0:0:0:
265,30,182987,1,2,0:0:0:0:
83,43,183159,6,0,P|102:101|150:90,1,90
54,220,183504,1,0,0:0:0:0:
170,287,183676,1,2,0:0:0:0:
241,172,183849,1,2,0:0:0:0:
108,148,184021,1,2,0:0:0:0:
212,233,184194,1,2,0:0:0:0:
352,85,184366,1,2,0:0:0:0:
423,266,184538,5,2,0:3:0:0:
392,156,184711,1,0,0:0:0:0:
423,266,184883,1,0,0:0:0:0:
304,167,185056,1,2,0:0:0:0:
423,266,185228,1,2,0:0:0:0:
213,200,185401,1,2,0:0:0:0:
423,266,185573,1,2,0:0:0:0:
125,288,185745,1,2,0:0:0:0:
114,125,185918,6,0,P|120:58|89:41,1,90
252,179,186263,2,0,P|311:161|342:174,1,90
447,222,186607,1,2,0:0:0:0:
312,342,186780,1,2,0:0:0:0:
188,211,186952,1,2,0:0:0:0:
316,33,187125,1,2,0:0:0:0:
412,98,187297,6,0,P|425:165|396:231,1,135,4|0,0:3|0:0,0:0:0:0:
382,258,187642,1,8,0:0:0:0:
303,300,187814,2,8,P|267:307|236:293,2,45,8|8|8,0:1|0:1|0:1,0:1:0:0:
438,326,188159,1,0,0:0:0:0:
374,183,188332,1,0,0:0:0:0:
231,121,188504,1,0,0:0:0:0:
53,136,188676,1,8,0:0:0:0:
55,181,188763,1,8,0:0:0:0:
74,221,188849,1,8,0:0:0:0:
103,255,188935,1,8,0:0:0:0:
145,268,189021,1,8,0:0:0:0:
268,319,189194,2,0,P|248:268|204:270,1,90
416,216,189538,1,0,0:0:0:0:
235,217,189711,1,0,0:0:0:0:
309,34,189883,1,0,0:0:0:0:
160,74,190056,6,0,P|81:95|48:145,1,135
37,159,190401,1,8,0:0:0:0:
98,317,190573,1,0,0:0:0:0:
139,334,190659,1,0,0:0:0:0:
183,337,190745,2,0,P|221:339|222:293,1,90
379,273,191090,1,8,0:0:0:0:
369,117,191263,1,0,0:0:0:0:
402,147,191349,1,0,0:0:0:0:
429,182,191435,6,0,P|444:248|441:270,1,90
376,269,191780,2,0,P|373:196|363:186,1,90,8|0,0:0|0:0,0:0:0:0:
309,96,192125,1,0,0:0:0:0:
144,201,192297,1,0,0:0:0:0:
339,293,192470,1,8,0:0:0:0:
311,89,192642,1,0,0:0:0:0:
16,92,192814,6,0,P|78:56|142:39,1,135
166,37,193159,1,8,0:0:0:0:
267,184,193332,1,0,0:0:0:0:
222,192,193418,1,0,0:0:0:0:
177,188,193504,2,0,L|69:156,1,90
385,275,193849,1,8,0:0:0:0:
109,309,194021,1,0,0:0:0:0:
18,188,194194,5,0,0:0:0:0:
24,148,194280,1,0,0:0:0:0:
45,109,194366,1,0,0:0:0:0:
77,79,194452,1,0,0:0:0:0:
120,55,194538,2,0,P|166:35|212:48,1,90,8|0,0:0|0:0,0:0:0:0:
342,96,194883,1,0,0:0:0:0:
173,61,195056,1,0,0:0:0:0:
247,210,195228,1,8,0:0:0:0:
487,291,195401,1,0,0:0:0:0:
477,172,195573,6,0,L|393:89,1,90
358,148,195918,2,0,L|438:227,1,90,8|0,0:0|0:0,0:0:0:0:
257,314,196263,1,0,0:0:0:0:
223,327,196349,1,0,0:0:0:0:
187,328,196435,1,0,0:0:0:0:
153,316,196521,1,0,0:0:0:0:
123,295,196607,1,8,0:0:0:0:
57,97,196780,1,0,0:0:0:0:
195,58,196952,6,0,P|243:33|297:41,1,90
261,179,197297,2,0,P|213:209|158:204,1,90,8|0,0:0|0:0,0:0:0:0:
17,161,197642,1,0,0:0:0:0:
109,47,197814,1,0,0:0:0:0:
308,47,197987,1,8,0:0:0:0:
417,170,198159,2,0,P|440:208|437:227,1,45,0|0,1:0|1:0,1:0:0:0:
442,250,198332,5,4,1:3:0:0:
420,288,198418,1,0,1:0:0:0:
387,317,198504,1,4,1:3:0:0:
350,338,198590,1,0,1:0:0:0:
307,344,198676,1,4,1:3:0:0:
272,335,198763,1,0,1:0:0:0:
244,311,198849,1,4,1:3:0:0:
223,284,198935,1,0,1:0:0:0:
189,247,199021,2,0,P|171:220|156:207,1,45
280,170,199194,2,0,P|242:140|235:119,1,45
234,114,199366,1,8,1:3:0:0:
226,82,199452,1,0,1:0:0:0:
207,52,199538,1,8,1:3:0:0:
176,34,199625,1,0,1:0:0:0:
134,23,199711,5,8,0:3:0:0:
90,22,199797,1,0,0:0:0:0:
46,34,199883,1,8,0:3:0:0:
16,71,199970,1,0,0:0:0:0:
11,120,200056,1,8,0:3:0:0:
22,171,200142,1,0,0:0:0:0:
46,217,200228,1,8,0:3:0:0:
90,244,200314,1,0,0:0:0:0:
147,245,200401,1,2,0:3:0:0:
195,234,200487,1,0,0:0:0:0:
239,210,200573,1,2,0:3:0:0:
271,171,200659,1,0,0:0:0:0:
307,135,200745,1,2,0:3:0:0:
353,113,200832,1,0,0:0:0:0:
404,109,200918,1,2,0:3:0:0:
449,135,201004,1,0,0:0:0:0:
474,177,201090,1,0,0:0:0:0:
256,192,210745,12,0,211952,0:0:0:0:
280,326,212125,6,0,P|209:330|163:306,1,90
31,243,212470,1,8,0:0:0:0:
138,139,212642,1,0,0:0:0:0:
104,109,212728,1,0,0:0:0:0:
62,92,212814,1,0,0:0:0:0:
223,49,212987,2,0,P|284:43|329:58,1,90,0|8,0:0|0:0,0:0:0:0:
396,208,213332,1,0,0:0:0:0:
392,310,213504,5,0,0:0:0:0:
435,299,213590,1,0,0:0:0:0:
460,267,213676,1,0,0:0:0:0:
448,80,213849,1,8,0:0:0:0:
280,227,214021,1,0,0:0:0:0:
310,39,214194,1,0,0:0:0:0:
280,227,214366,1,0,0:0:0:0:
469,159,214538,1,8,0:0:0:0:
445,120,214625,1,0,0:0:0:0:
416,85,214711,1,0,0:0:0:0:
374,66,214797,1,0,0:0:0:0:
329,59,214883,6,0,P|258:76|226:36,1,90
54,119,215228,1,8,0:0:0:0:
120,269,215401,1,0,0:0:0:0:
287,313,215573,1,0,0:0:0:0:
287,313,215659,1,0,0:0:0:0:
287,313,215745,1,0,0:0:0:0:
249,44,215918,1,8,0:0:0:0:
406,112,216090,1,0,0:0:0:0:
477,260,216263,5,0,0:0:0:0:
454,298,216349,1,0,0:0:0:0:
421,329,216435,1,0,0:0:0:0:
379,346,216521,1,0,0:0:0:0:
334,350,216607,2,0,B|239:304|247:308,1,90,8|0,0:0|0:0,0:0:0:0:
366,202,216952,2,0,B|403:160|403:160|465:146,1,90
172,204,217297,1,8,0:0:0:0:
279,63,217470,1,0,0:0:0:0:
31,75,217642,5,4,0:0:0:0:
452,342,217987,1,8,0:0:0:0:
432,36,218332,2,4,L|374:38,1,45
332,130,218504,2,0,L|324:182,1,45
217,209,218676,2,0,L|170:210,1,45,8|0,0:0|0:0,0:0:0:0:
101,305,218849,2,0,L|90:350,1,45
17,216,219021,5,4,0:0:0:0:
106,78,219194,1,0,0:0:0:0:
341,62,219366,1,8,0:0:0:0:
419,200,219538,1,0,0:0:0:0:
308,323,219711,2,0,P|238:299|224:259,1,90,4|0,0:0|0:0,0:0:0:0:
45,153,220056,1,8,0:0:0:0:
174,48,220228,1,0,0:0:0:0:
378,48,220401,5,4,0:0:0:0:
413,74,220487,1,0,0:0:0:0:
441,107,220573,1,4,0:0:0:0:
460,147,220659,1,0,0:0:0:0:
468,189,220745,1,4,0:0:0:0:
458,226,220832,1,0,0:0:0:0:
439,265,220918,1,4,0:0:0:0:
406,293,221004,1,0,0:0:0:0:
363,311,221090,1,0,0:0:0:0:
318,318,221176,1,0,0:0:0:0:
269,313,221263,1,0,0:0:0:0:
231,291,221349,1,0,0:0:0:0:
198,261,221435,1,0,0:0:0:0:
165,228,221521,1,0,0:0:0:0:
138,191,221607,1,0,0:0:0:0:
117,150,221694,1,0,0:0:0:0:
180,57,221780,5,0,0:0:0:0:
216,56,221866,1,0,0:0:0:0:
251,64,221952,1,2,0:0:0:0:
278,86,222038,1,0,0:0:0:0:
292,119,222125,1,0,0:0:0:0:
288,154,222211,1,0,0:0:0:0:
268,183,222297,1,0,0:0:0:0:
240,204,222383,1,0,0:0:0:0:
222,232,222470,1,2,0:0:0:0:
221,269,222556,1,0,0:0:0:0:
237,301,222642,1,0,0:0:0:0:
267,319,222728,1,0,0:0:0:0:
304,325,222814,1,2,0:0:0:0:
339,314,222901,1,0,0:0:0:0:
366,294,222987,1,2,0:0:0:0:
384,262,223073,1,0,0:0:0:0:
396,227,223159,6,0,P|368:182|312:228,1,107.999996704102
173,319,223504,1,8,0:0:0:0:
121,303,223590,1,0,0:0:0:0:
84,263,223676,1,0,0:0:0:0:
162,112,223849,1,0,0:0:0:0:
305,337,224021,1,0,0:0:0:0:
32,288,224194,2,0,P|0:240|32:160,1,107.999996704102,8|0,0:0|0:0,0:0:0:0:
158,58,224538,1,0,0:0:0:0:
289,302,224711,1,0,0:0:0:0:
400,112,224883,2,0,P|400:80|432:80,2,53.9999983520508,8|0|0,0:0|0:0|0:0,0:0:0:0:
312,307,225228,1,0,0:0:0:0:
158,63,225401,1,0,0:0:0:0:
107,287,225573,1,0,0:0:0:0:
107,287,225659,1,0,0:0:0:0:
107,287,225745,1,0,0:0:0:0:
80,161,225918,5,0,0:0:0:0:
119,116,226004,1,0,0:0:0:0:
165,79,226090,1,0,0:0:0:0:
221,61,226176,1,0,0:0:0:0:
279,49,226263,1,8,0:0:0:0:
130,253,226435,1,0,0:0:0:0:
427,194,226607,1,0,0:0:0:0:
397,161,226694,1,0,0:0:0:0:
361,136,226780,1,0,0:0:0:0:
451,306,226952,1,8,0:0:0:0:
284,84,227125,1,0,0:0:0:0:
99,153,227297,1,0,0:0:0:0:
389,154,227470,1,0,0:0:0:0:
91,301,227642,2,0,P|177:317|242:310,1,107.999996704102,8|0,0:0|0:0,0:0:0:0:
328,276,227987,1,0,0:0:0:0:
352,234,228073,1,0,0:0:0:0:
338,187,228159,1,0,0:0:0:0:
345,139,228245,1,0,0:0:0:0:
323,95,228332,1,8,0:0:0:0:
282,59,228418,1,0,0:0:0:0:
229,46,228504,1,0,0:0:0:0:
175,53,228590,1,0,0:0:0:0:
123,68,228676,5,0,0:0:0:0:
366,187,228849,1,0,0:0:0:0:
86,254,229021,2,0,P|119:179|161:177,1,107.999996704102,8|0,0:0|0:0,0:0:0:0:
266,333,229366,1,0,0:0:0:0:
313,321,229452,1,0,0:0:0:0:
355,298,229538,1,0,0:0:0:0:
392,266,229625,1,0,0:0:0:0:
422,228,229711,1,8,0:0:0:0:
301,33,229883,1,0,0:0:0:0:
99,160,230056,1,0,0:0:0:0:
334,281,230228,1,0,0:0:0:0:
67,160,230401,2,0,P|80:200|107:212,2,53.9999983520508,8|0|0,0:0|0:0|0:0,0:0:0:0:
395,123,230745,1,0,0:0:0:0:
182,312,230918,1,0,0:0:0:0:
65,34,231090,1,8,0:0:0:0:
107,37,231176,1,0,0:0:0:0:
154,47,231263,1,0,0:0:0:0:
202,70,231349,1,0,0:0:0:0:
245,110,231435,5,0,0:0:0:0:
73,313,231607,1,0,0:0:0:0:
351,263,231780,2,0,B|316:308|316:308|242:324,1,107.999996704102,8|0,0:0|0:0,0:0:0:0:
450,137,232125,1,0,0:0:0:0:
410,92,232211,1,0,0:0:0:0:
344,60,232297,1,0,0:0:0:0:
335,311,232470,1,8,0:0:0:0:
167,61,232642,1,0,0:0:0:0:
64,191,232814,1,0,0:0:0:0:
107,224,232901,1,0,0:0:0:0:
155,246,232987,1,0,0:0:0:0:
207,256,233073,1,0,0:0:0:0:
260,249,233159,1,8,0:0:0:0:
307,222,233245,1,0,0:0:0:0:
361,222,233332,1,0,0:0:0:0:
408,246,233418,1,0,0:0:0:0:
427,296,233504,2,0,P|391:313|368:309,1,53.9999983520508
429,161,233676,2,0,P|459:192|462:225,1,53.9999983520508
377,70,233849,1,8,0:0:0:0:
320,51,233935,1,0,0:0:0:0:
261,60,234021,1,0,0:0:0:0:
204,78,234107,1,0,0:0:0:0:
160,118,234194,6,0,B|107:158|122:219|122:219|219:275,1,215.999993408203,0|8,0:0|0:0,0:0:0:0:
415,351,234711,1,0,0:0:0:0:
419,104,234883,1,0,0:0:0:0:
377,78,234970,1,0,0:0:0:0:
331,76,235056,1,0,0:0:0:0:
431,205,235228,1,8,0:0:0:0:
186,84,235401,1,0,0:0:0:0:
268,339,235573,1,0,0:0:0:0:
214,329,235659,1,0,0:0:0:0:
168,300,235745,1,0,0:0:0:0:
136,255,235832,1,0,0:0:0:0:
120,203,235918,1,8,0:0:0:0:
299,334,236090,1,0,0:0:0:0:
453,181,236263,1,0,0:0:0:0:
295,34,236435,1,0,0:0:0:0:
121,147,236607,1,8,0:0:0:0:
138,95,236694,1,0,0:0:0:0:
174,55,236780,1,0,0:0:0:0:
224,35,236866,1,0,0:0:0:0:
277,38,236952,5,0,0:0:0:0:
175,198,237125,2,0,P|197:248|189:304,1,107.999996704102,0|8,0:0|0:0,0:0:0:0:
423,298,237470,1,0,0:0:0:0:
197,104,237642,1,0,0:0:0:0:
243,118,237728,1,0,0:0:0:0:
282,146,237814,1,0,0:0:0:0:
391,59,237987,1,8,0:0:0:0:
115,76,238159,1,0,0:0:0:0:
315,225,238332,1,0,0:0:0:0:
273,249,238418,1,0,0:0:0:0:
224,251,238504,1,0,0:0:0:0:
76,251,238676,2,0,B|60:307|60:307|125:328,1,107.999996704102,8|0,0:0|0:0,0:0:0:0:
264,328,239021,1,0,0:0:0:0:
311,320,239107,1,0,0:0:0:0:
357,303,239194,1,0,0:0:0:0:
393,271,239280,1,0,0:0:0:0:
420,224,239366,1,8,0:0:0:0:
433,171,239452,1,0,0:0:0:0:
426,117,239538,1,0,0:0:0:0:
398,70,239625,1,0,0:0:0:0:
349,47,239711,5,0,0:0:0:0:
225,157,239883,1,0,0:0:0:0:
138,334,240056,1,8,0:0:0:0:
301,203,240228,1,0,0:0:0:0:
165,83,240401,1,0,0:0:0:0:
118,110,240487,1,0,0:0:0:0:
89,156,240573,1,0,0:0:0:0:
389,195,240745,2,0,P|357:249|301:274,1,107.999996704102,8|0,0:0|0:0,0:0:0:0:
86,271,241090,1,0,0:0:0:0:
142,252,241176,1,0,0:0:0:0:
201,252,241263,1,0,0:0:0:0:
256,273,241349,1,0,0:0:0:0:
309,297,241435,1,8,0:0:0:0:
394,69,241607,2,0,B|339:76|339:76|303:120,1,107.999996704102
149,305,241952,1,0,0:0:0:0:
259,36,242125,1,8,0:0:0:0:
389,306,242297,1,0,0:0:0:0:
436,192,242470,5,4,0:3:0:0:
392,213,242556,1,0,0:0:0:0:
349,189,242642,1,0,0:0:0:0:
307,214,242728,1,0,0:0:0:0:
267,185,242814,1,8,0:0:0:0:
224,210,242901,2,0,L|176:181,2,53.9999983520508
203,259,243159,1,0,0:0:0:0:
149,267,243245,1,0,0:0:0:0:
100,241,243332,1,4,0:3:0:0:
84,189,243418,1,0,0:0:0:0:
103,138,243504,2,0,P|112:96|106:69,1,53.9999983520508,8|0,0:0|0:0,0:0:0:0:
202,81,243676,2,0,P|250:80|271:95,1,53.9999983520508
339,67,243849,2,0,P|390:61|403:51,1,53.9999983520508,4|0,0:3|0:0,0:0:0:0:
458,117,244021,2,0,P|479:161|473:179,1,53.9999983520508
463,241,244194,1,8,0:0:0:0:
429,290,244280,1,0,0:0:0:0:
374,311,244366,1,8,0:0:0:0:
315,300,244452,1,8,0:0:0:0:
266,265,244538,1,8,0:0:0:0:
50,105,244711,1,4,0:3:0:0:
319,37,244883,1,8,0:3:0:0:
142,238,245056,1,4,0:0:0:0:
310,191,245228,6,0,P|382:190|413:209,1,99.0000030212403
209,55,245573,1,8,0:0:0:0:
168,72,245659,1,0,0:0:0:0:
134,100,245745,1,0,0:0:0:0:
277,229,245918,1,0,0:0:0:0:
83,317,246090,1,0,0:0:0:0:
400,315,246263,1,8,0:0:0:0:
367,285,246349,1,0,0:0:0:0:
351,243,246435,1,0,0:0:0:0:
375,58,246607,1,0,0:0:0:0:
157,68,246780,1,0,0:0:0:0:
119,297,246952,2,0,P|141:321|168:335,1,49.5000015106202,8|0,0:0|0:0,0:0:0:0:
64,203,247125,2,0,P|51:174|53:139,1,49.5000015106202
198,235,247297,2,0,P|214:260|222:289,1,49.5000015106202
142,165,247470,2,0,P|128:136|99:115,1,49.5000015106202
342,274,247642,1,8,0:0:0:0:
425,134,247814,1,0,0:0:0:0:
169,40,247987,5,0,0:0:0:0:
375,79,248159,1,0,0:0:0:0:
80,194,248332,1,8,0:0:0:0:
117,218,248418,1,0,0:0:0:0:
160,228,248504,1,0,0:0:0:0:
315,173,248676,2,0,P|297:234|240:269,1,99.0000030212403
398,40,249021,1,8,0:0:0:0:
380,80,249107,1,0,0:0:0:0:
379,124,249194,1,0,0:0:0:0:
279,316,249366,2,0,P|308:278|317:244,1,49.5000015106202
204,172,249538,2,0,P|192:133|192:115,1,49.5000015106202
331,62,249711,2,0,B|296:34|296:34|224:40,1,99.0000030212403,8|0,0:0|0:0,0:0:0:0:
69,185,250056,1,0,0:0:0:0:
92,228,250142,1,0,0:0:0:0:
125,264,250228,1,0,0:0:0:0:
169,286,250314,1,0,0:0:0:0:
222,298,250401,1,8,0:0:0:0:
275,289,250487,1,0,0:0:0:0:
326,273,250573,1,0,0:0:0:0:
369,240,250659,1,0,0:0:0:0:
403,197,250745,6,0,B|438:172|427:129|427:129|381:109,1,99.0000030212403
163,53,251090,1,8,0:0:0:0:
163,53,251176,1,0,0:0:0:0:
163,53,251263,1,0,0:0:0:0:
250,195,251435,1,0,0:0:0:0:
154,329,251607,1,0,0:0:0:0:
106,100,251780,1,8,0:0:0:0:
147,73,251866,1,0,0:0:0:0:
195,66,251952,1,0,0:0:0:0:
318,178,252125,1,0,0:0:0:0:
132,252,252297,1,0,0:0:0:0:
390,205,252470,2,0,P|383:162|369:141,1,49.5000015106202,8|0,0:0|0:0,0:0:0:0:
283,37,252642,2,0,P|301:81|318:98,1,49.5000015106202
444,77,252814,2,0,P|398:80|369:90,1,49.5000015106202
261,188,252987,2,0,P|298:167|315:140,1,49.5000015106202
375,35,253159,1,8,0:0:0:0:
143,98,253332,1,0,0:0:0:0:
260,280,253504,5,0,0:0:0:0:
89,221,253676,1,0,0:0:0:0:
423,270,253849,1,8,0:0:0:0:
378,247,253935,1,0,0:0:0:0:
352,204,254021,1,0,0:0:0:0:
207,101,254194,2,0,B|251:147|251:147|314:146|314:146,1,99.0000030212403
43,36,254538,1,8,0:0:0:0:
87,57,254625,1,0,0:0:0:0:
114,98,254711,1,0,0:0:0:0:
291,67,254883,5,0,0:0:0:0:
345,73,254970,1,0,0:0:0:0:
385,105,255056,1,0,0:0:0:0:
411,152,255142,1,0,0:0:0:0:
408,206,255228,1,8,0:0:0:0:
378,247,255314,1,0,0:0:0:0:
331,276,255401,1,0,0:0:0:0:
276,278,255487,1,0,0:0:0:0:
232,245,255573,1,0,0:0:0:0:
205,197,255659,1,0,0:0:0:0:
195,143,255745,1,0,0:0:0:0:
180,92,255832,1,0,0:0:0:0:
143,52,255918,1,8,0:0:0:0:
95,33,256004,1,0,0:0:0:0:
53,44,256090,1,0,0:0:0:0:
20,86,256176,1,0,0:0:0:0:
19,138,256263,5,0,0:0:0:0:
182,35,256435,1,0,0:0:0:0:
371,132,256607,1,8,0:0:0:0:
387,173,256694,1,0,0:0:0:0:
380,216,256780,1,0,0:0:0:0:
115,285,256952,2,0,P|194:316|250:313,1,99.0000030212403
285,80,257297,1,8,0:0:0:0:
285,80,257383,1,0,0:0:0:0:
285,80,257470,1,0,0:0:0:0:
72,51,257642,1,0,0:0:0:0:
40,210,257814,1,0,0:0:0:0:
275,347,257987,2,0,P|320:324|328:302,1,49.5000015106202,8|0,0:0|0:0,0:0:0:0:
407,261,258159,2,0,P|435:214|431:187,1,49.5000015106202
431,94,258332,2,0,P|401:66|359:54,1,49.5000015106202
279,35,258504,2,0,P|215:52|203:68,1,49.5000015106202
129,108,258676,1,8,0:0:0:0:
96,279,258849,1,0,0:0:0:0:
278,237,259021,6,0,P|333:273|365:325,1,99.0000030212403
391,67,259366,1,8,0:0:0:0:
391,67,259452,1,0,0:0:0:0:
391,67,259538,1,0,0:0:0:0:
187,47,259711,1,0,0:0:0:0:
362,170,259883,1,0,0:0:0:0:
65,80,260056,1,8,0:0:0:0:
83,136,260142,1,0,0:0:0:0:
120,181,260228,1,0,0:0:0:0:
305,133,260401,1,0,0:0:0:0:
209,282,260573,1,0,0:0:0:0:
413,63,260745,2,0,P|427:120|418:144,3,49.5000015106202,8|0|0|0,0:0|0:0|0:0|0:0,0:0:0:0:
426,169,261090,1,0,0:0:0:0:
391,217,261176,1,0,0:0:0:0:
348,259,261263,1,0,0:0:0:0:
292,280,261349,1,0,0:0:0:0:
232,277,261435,1,8,0:0:0:0:
176,256,261521,1,0,0:0:0:0:
126,223,261607,1,0,0:0:0:0:
91,174,261694,1,0,0:0:0:0:
72,125,261780,6,0,B|44:65|83:39|83:39|200:49,1,198.000006042481,0|8,0:0|0:0,0:0:0:0:
466,208,262470,1,0,0:0:0:0:
144,327,262814,1,8,0:0:0:0:
340,61,263159,1,0,0:0:0:0:
340,61,263245,1,0,0:0:0:0:
340,61,263332,1,0,0:0:0:0:
85,136,263504,2,0,B|100:236|100:236|223:262,1,198.000006042481,8|0,0:0|0:0,0:0:0:0:
430,96,264194,1,4,0:0:0:0:
336,32,264538,5,4,0:3:0:0:
192,32,264711,1,4,0:3:0:0:
320,128,264883,1,4,0:3:0:0:
176,128,265056,1,4,0:3:0:0:
304,224,265228,1,4,0:3:0:0:
160,224,265401,1,4,0:3:0:0:
288,320,265573,1,4,0:3:0:0:
155,314,265745,2,0,B|154:259|187:226|187:226|253:234|282:305|282:305|373:275|339:192,1,360
266,66,267297,5,0,0:0:0:0:
266,66,267470,1,0,0:0:0:0:
128,151,267642,2,0,P|99:211|113:259,1,80.9999975280763
146,330,267987,1,8,0:0:0:0:
227,138,268159,1,0,0:0:0:0:
237,345,268332,2,0,B|249:294|249:294|305:265,1,80.9999975280763
375,97,268676,1,0,0:0:0:0:
403,136,268763,1,0,0:0:0:0:
426,178,268849,1,0,0:0:0:0:
434,225,268935,1,0,0:0:0:0:
425,272,269021,1,0,0:0:0:0:
208,165,269194,1,0,0:0:0:0:
333,303,269366,1,8,0:0:0:0:
277,86,269538,1,0,0:0:0:0:
408,50,269711,2,0,P|439:59|405:108,1,80.9999975280763
334,199,270056,5,0,0:0:0:0:
298,237,270142,1,0,0:0:0:0:
273,283,270228,1,0,0:0:0:0:
67,189,270401,2,0,B|106:186|106:186|157:208,1,80.9999975280763
256,72,270745,1,8,0:0:0:0:
384,191,270918,1,0,0:0:0:0:
257,314,271090,1,0,0:0:0:0:
384,191,271263,1,0,0:0:0:0:
275,245,271435,2,0,P|302:295|345:323,1,80.9999975280763
149,186,271780,1,0,0:0:0:0:
120,220,271866,1,0,0:0:0:0:
110,263,271952,1,0,0:0:0:0:
379,128,272125,2,0,B|359:87|359:87|309:73,1,80.9999975280763,8|0,0:0|0:0,0:0:0:0:
74,63,272470,1,8,0:0:0:0:
74,63,272642,1,8,0:0:0:0:
230,69,272814,5,4,0:0:0:0:
375,200,272987,2,0,P|358:147|315:129,1,80.9999975280763
168,112,273332,1,0,0:0:0:0:
304,168,273504,1,8,0:0:0:0:
178,212,273676,1,0,0:0:0:0:
303,62,273849,1,0,0:0:0:0:
179,320,274021,1,0,0:0:0:0:
353,312,274194,1,0,0:0:0:0:
297,301,274280,1,0,0:0:0:0:
251,266,274366,1,0,0:0:0:0:
225,215,274452,1,0,0:0:0:0:
221,158,274538,1,0,0:0:0:0:
327,36,274711,1,0,0:0:0:0:
398,190,274883,2,0,B|417:230|417:230|375:238,1,80.9999975280763,8|0,0:0|0:0,0:0:0:0:
220,139,275228,1,0,0:0:0:0:
363,313,275401,1,0,0:0:0:0:
147,239,275573,6,0,P|182:303|199:318,1,80.9999975280763
256,234,275918,2,0,P|222:176|200:163,1,80.9999975280763
386,127,276263,1,8,0:0:0:0:
386,127,276349,1,0,0:0:0:0:
386,127,276435,1,0,0:0:0:0:
176,80,276607,1,0,0:0:0:0:
176,80,276694,1,0,0:0:0:0:
176,80,276780,1,0,0:0:0:0:
80,239,276952,2,0,B|161:273,1,80.9999975280763
380,323,277297,1,0,0:0:0:0:
286,90,277470,1,0,0:0:0:0:
135,265,277642,1,8,0:0:0:0:
160,299,277728,1,0,0:0:0:0:
197,320,277814,1,0,0:0:0:0:
241,335,277901,1,0,0:0:0:0:
287,334,277987,1,8,0:0:0:0:
335,325,278073,1,0,0:0:0:0:
377,296,278159,1,8,0:0:0:0:
405,254,278245,1,0,0:0:0:0:
425,208,278332,5,4,0:0:0:0:
228,133,278504,1,0,0:0:0:0:
399,52,278676,2,0,P|379:118|348:147,1,80.9999975280763
276,85,279021,1,8,0:0:0:0:
78,50,279194,1,0,0:0:0:0:
37,228,279366,1,0,0:0:0:0:
235,267,279538,1,0,0:0:0:0:
350,160,279711,1,0,0:0:0:0:
369,204,279797,1,0,0:0:0:0:
370,252,279883,1,0,0:0:0:0:
344,293,279970,1,0,0:0:0:0:
303,320,280056,1,0,0:0:0:0:
448,199,280228,1,0,0:0:0:0:
347,68,280401,2,0,B|289:60|289:60|269:100,1,80.9999975280763,8|0,0:0|0:0,0:0:0:0:
169,205,280745,2,0,P|138:193|120:198,1,40.4999987640381
83,283,280918,2,0,P|121:305|146:299,1,40.4999987640381
219,283,281090,5,0,0:0:0:0:
214,86,281263,2,0,P|190:46|145:44,1,80.9999975280763
47,107,281607,2,0,P|55:148|87:166,1,80.9999975280763,0|8,0:0|0:0,0:0:0:0:
249,206,281952,1,0,0:0:0:0:
441,137,282125,1,0,0:0:0:0:
419,89,282211,1,0,0:0:0:0:
380,53,282297,1,0,0:0:0:0:
254,49,282470,1,0,0:0:0:0:
376,226,282642,1,0,0:0:0:0:
167,111,282814,1,0,0:0:0:0:
265,292,282987,1,0,0:0:0:0:
65,180,283159,2,0,B|78:242|78:242|116:252,1,80.9999975280763,8|0,0:0|0:0,0:0:0:0:
322,320,283504,1,8,0:0:0:0:
322,320,283676,1,8,0:0:0:0:
446,214,283849,5,4,0:0:0:0:
446,165,283935,1,0,0:0:0:0:
420,123,284021,1,0,0:0:0:0:
243,92,284194,2,0,P|292:128|300:158,1,80.9999975280763
144,258,284538,1,8,0:0:0:0:
180,291,284625,1,0,0:0:0:0:
226,303,284711,1,0,0:0:0:0:
274,304,284797,1,0,0:0:0:0:
321,293,284883,1,0,0:0:0:0:
374,99,285056,1,0,0:0:0:0:
150,112,285228,2,0,B|200:69|239:82,1,80.9999975280763
274,237,285573,1,0,0:0:0:0:
274,237,285659,1,0,0:0:0:0:
274,237,285745,1,0,0:0:0:0:
121,189,285918,2,0,B|93:168|93:168|160:142,1,80.9999975280763,8|0,0:0|0:0,0:0:0:0:
376,126,286263,1,0,0:0:0:0:
405,284,286435,1,0,0:0:0:0:
246,341,286607,5,4,0:3:0:0:
206,330,286694,1,0,0:0:0:0:
168,315,286780,1,0,0:0:0:0:
136,290,286866,1,0,0:0:0:0:
119,252,286952,1,0,0:0:0:0:
117,211,287038,1,0,0:0:0:0:
126,171,287125,1,0,0:0:0:0:
151,139,287211,1,0,0:0:0:0:
186,119,287297,2,0,P|223:109|246:117,2,40.4999987640381,8|0|0,0:0|0:0|0:0,0:0:0:0:
250,265,287642,2,0,P|295:283|324:254,1,80.9999975280763,4|0,0:3|0:0,0:0:0:0:
396,53,287987,5,4,0:3:0:0:
421,89,288073,1,0,0:0:0:0:
431,132,288159,1,0,0:0:0:0:
428,176,288245,1,0,0:0:0:0:
396,208,288332,1,8,0:0:0:0:
352,218,288418,1,0,0:0:0:0:
307,212,288504,1,8,0:0:0:0:
266,185,288590,1,8,0:0:0:0:
241,142,288676,1,8,0:0:0:0:
209,106,288763,1,0,0:0:0:0:
161,94,288849,1,4,0:3:0:0:
110,106,288935,1,0,0:0:0:0:
75,145,289021,1,8,0:0:0:0:
59,195,289107,1,0,0:0:0:0:
77,249,289194,1,4,0:3:0:0:
115,290,289280,1,0,0:0:0:0:
161,313,289366,6,0,P|213:325|263:317,1,90
386,124,289711,1,0,0:0:0:0:
403,174,289797,1,0,0:0:0:0:
403,227,289883,1,0,0:0:0:0:
382,277,289970,1,0,0:0:0:0:
341,312,290056,1,8,0:0:0:0:
284,128,290228,1,0,0:0:0:0:
104,50,290401,2,0,B|98:77|98:77|131:66|131:66|133:92|133:92|166:133,1,135
175,149,290745,1,0,0:0:0:0:
267,320,290918,1,0,0:0:0:0:
330,82,291090,1,0,0:0:0:0:
290,118,291176,1,0,0:0:0:0:
277,171,291263,1,0,0:0:0:0:
426,312,291435,2,0,P|398:287|397:260,3,45,8|0|0|0,0:0|0:0|0:0|0:0,0:0:0:0:
393,186,291780,2,0,P|408:163|434:151,1,45
391,35,291952,2,0,P|353:42|330:58,1,45
237,45,292125,5,0,0:0:0:0:
103,190,292297,1,0,0:0:0:0:
341,146,292470,2,0,P|338:194|299:231,1,90
141,189,292814,1,8,0:0:0:0:
103,228,292901,1,0,0:0:0:0:
101,281,292987,1,0,0:0:0:0:
137,320,293073,1,0,0:0:0:0:
190,325,293159,1,0,0:0:0:0:
386,223,293332,1,0,0:0:0:0:
418,45,293504,2,0,P|430:79|447:97,1,45
455,238,293676,2,0,P|449:197|470:176,1,45
339,109,293849,2,0,P|294:108|273:87,1,45
167,105,294021,2,0,P|139:119|124:144,1,45
223,307,294194,1,8,0:0:0:0:
281,174,294366,1,0,0:0:0:0:
376,312,294538,2,0,B|415:287|415:287|420:228,1,90
433,54,294883,5,0,0:0:0:0:
210,159,295056,2,0,P|158:138|160:79,1,90
361,137,295401,1,0,0:0:0:0:
445,312,295573,1,8,0:0:0:0:
317,248,295745,2,0,P|270:265|257:313,1,90
73,257,296090,1,0,0:0:0:0:
156,86,296263,1,0,0:0:0:0:
208,61,296349,1,0,0:0:0:0:
266,64,296435,1,0,0:0:0:0:
313,97,296521,1,0,0:0:0:0:
348,143,296607,1,0,0:0:0:0:
191,300,296780,1,0,0:0:0:0:
191,300,296866,1,0,0:0:0:0:
191,300,296952,1,8,0:0:0:0:
399,67,297125,2,0,P|368:93|351:123,1,45
265,322,297297,1,0,0:0:0:0:
238,58,297470,1,0,0:0:0:0:
91,189,297642,5,0,0:0:0:0:
122,157,297728,1,0,0:0:0:0:
165,166,297814,1,0,0:0:0:0:
188,127,297901,1,0,0:0:0:0:
232,133,297987,1,0,0:0:0:0:
262,99,298073,1,0,0:0:0:0:
305,108,298159,1,0,0:0:0:0:
342,83,298245,1,0,0:0:0:0:
386,92,298332,1,8,0:0:0:0:
427,108,298418,1,0,0:0:0:0:
454,143,298504,1,0,0:0:0:0:
472,183,298590,1,0,0:0:0:0:
466,232,298676,1,0,0:0:0:0:
432,269,298763,1,0,0:0:0:0:
378,278,298849,1,0,0:0:0:0:
327,259,298935,1,0,0:0:0:0:
288,224,299021,2,0,B|253:177|318:143,1,90
416,82,299366,6,0,L|370:97,1,45
343,214,299538,2,0,L|313:256,1,45
235,313,299711,1,8,0:0:0:0:
177,302,299797,1,0,0:0:0:0:
125,274,299883,1,0,0:0:0:0:
100,220,299970,1,0,0:0:0:0:
116,159,300056,1,8,0:0:0:0:
154,108,300142,1,0,0:0:0:0:
211,82,300228,1,8,0:0:0:0:
271,66,300314,1,0,0:0:0:0:
328,76,300401,5,0,0:0:0:0:
432,282,300573,1,0,0:0:0:0:
192,256,300745,1,0,0:0:0:0:
89,56,300918,1,0,0:0:0:0:
310,215,301090,1,8,0:0:0:0:
259,197,301176,1,0,0:0:0:0:
217,161,301263,1,0,0:0:0:0:
88,54,301435,2,0,B|96:84|96:84|130:102|130:102|143:139,1,90
94,281,301780,1,0,0:0:0:0:
136,313,301866,1,0,0:0:0:0:
188,325,301952,1,0,0:0:0:0:
241,321,302038,1,0,0:0:0:0:
292,303,302125,1,0,0:0:0:0:
370,237,302297,2,0,B|404:201|404:201|400:139,1,90,0|8,0:0|0:0,0:0:0:0:
148,64,302642,1,0,0:0:0:0:
244,261,302814,1,0,0:0:0:0:
331,40,302987,1,0,0:0:0:0:
450,202,303159,6,0,P|434:156|390:136,1,90
201,132,303504,1,0,0:0:0:0:
150,151,303590,1,0,0:0:0:0:
105,181,303676,1,0,0:0:0:0:
354,173,303849,1,8,0:0:0:0:
276,314,304021,2,0,L|228:309,1,45
63,238,304194,1,0,0:0:0:0:
75,85,304366,2,0,L|119:64,1,45
167,50,304538,1,0,0:0:0:0:
225,52,304625,1,0,0:0:0:0:
279,73,304711,1,0,0:0:0:0:
327,104,304797,1,0,0:0:0:0:
301,150,304883,1,0,0:0:0:0:
339,194,304970,1,0,0:0:0:0:
367,245,305056,1,0,0:0:0:0:
372,303,305142,1,0,0:0:0:0:
326,334,305228,2,0,B|302:351|292:310|238:321,1,90,8|0,0:0|0:0,0:0:0:0:
65,179,305573,1,0,0:0:0:0:
65,179,305745,1,0,0:0:0:0:
161,127,305918,6,2,P|214:104|321:91,1,135,2|0,0:0|0:0,0:0:0:0:
330,94,306263,1,0,0:0:0:0:
270,306,306435,2,2,B|225:282|225:282|283:211,1,135,2|0,0:0|0:0,0:0:0:0:
303,176,306780,1,0,0:0:0:0:
431,70,306952,2,2,P|475:93|444:148,2,90,2|0|0,0:0|0:0|0:0,0:0:0:0:
251,60,307470,1,0,0:0:0:0:
107,147,307642,1,0,0:0:0:0:
107,147,307728,1,0,0:0:0:0:
107,147,307814,1,0,0:0:0:0:
139,301,307987,2,0,P|193:275|253:267,1,90,8|0,0:0|0:0,0:0:0:0:
379,258,308332,1,0,0:0:0:0:
379,258,308504,1,0,0:0:0:0:
440,88,308676,5,0,0:0:0:0:
414,55,308763,1,0,0:0:0:0:
374,45,308849,1,0,0:0:0:0:
333,42,308935,1,0,0:0:0:0:
291,59,309021,1,0,0:0:0:0:
257,88,309107,1,0,0:0:0:0:
226,121,309194,1,0,0:0:0:0:
190,148,309280,1,0,0:0:0:0:
148,165,309366,1,8,0:0:0:0:
103,161,309452,1,0,0:0:0:0:
66,135,309538,1,0,0:0:0:0:
56,90,309625,1,0,0:0:0:0:
82,53,309711,2,0,B|108:38|135:42|135:42|185:115,1,135
206,177,310056,2,0,P|231:215|285:233,1,90
454,282,310401,5,8,0:0:0:0:
417,93,310573,1,8,0:0:0:0:
370,58,310659,1,8,0:0:0:0:
318,61,310745,1,8,0:0:0:0:
130,263,310918,1,4,0:0:0:0:
401,210,311090,1,8,0:0:0:0:
149,92,311263,1,4,0:0:0:0:
285,335,311435,1,4,0:0:0:0:
