osu file format v14

[General]
AudioFilename: Almora - Ay Isigi Savascisi.mp3
AudioLeadIn: 0
PreviewTime: 21
Countdown: 1
SampleSet: Normal
StackLeniency: 0.7
Mode: 1
LetterboxInBreaks: 1
WidescreenStoryboard: 0

[Editor]
Bookmarks: 30021,48021,67221,86421,103875,121330,138784,149693,167148,184602,210784,228239,239148,256602,274057,282784,300239,317693,335148,351784
DistanceSpacing: 0.8
BeatDivisor: 4
GridSize: 4
TimelineZoom: 2.950001

[Metadata]
Title:Ay Isigi Savascisi
TitleUnicode:Ay Işığı Savaşçısı
Artist:Almora
ArtistUnicode:Almora
Creator:zigizigiefe
Version:Under the Moonlight
Source:
Tags:Kıyamet Kiyamet Senfonisi Nardoxyribonucleic Turkish Symphonic Gothic Metal Soner Canözer Canozer
BeatmapID:1817941
BeatmapSetID:869883

[Difficulty]
HPDrainRate:5
CircleSize:5
OverallDifficulty:5
ApproachRate:5
SliderMultiplier:1.4
SliderTickRate:1

[Events]
//Background and Video events
0,0,"background.jpg",0,0
//Break Periods
2,210984,227039
2,239212,255402
2,274257,281584
2,300302,316493
//Storyboard Layer 0 (Background)
//Storyboard Layer 1 (Fail)
//Storyboard Layer 2 (Pass)
//Storyboard Layer 3 (Foreground)
//Storyboard Sound Samples

[TimingPoints]
21,750,4,1,0,100,1,0
48021,300,4,1,0,100,1,0
67221,600,4,1,0,100,1,0
67221,-50,4,1,0,100,0,0
86421,272.727272727273,4,1,0,100,1,0
282784,-100,4,1,0,100,0,1
317693,-100,4,1,0,100,0,0

[HitObjects]
232,148,21,5,0,0:0:0:0:
144,128,396,1,0,0:0:0:0:
144,128,771,1,8,0:0:0:0:
144,128,1146,1,0,0:0:0:0:
144,128,1521,1,8,0:0:0:0:
144,128,1896,1,8,0:0:0:0:
144,128,2271,1,0,0:0:0:0:
144,128,2646,1,8,0:0:0:0:
232,148,3021,5,0,0:0:0:0:
144,128,3396,1,0,0:0:0:0:
144,128,3771,1,8,0:0:0:0:
144,128,4146,1,0,0:0:0:0:
144,128,4521,1,8,0:0:0:0:
144,128,4896,1,8,0:0:0:0:
144,128,5271,1,0,0:0:0:0:
144,128,5646,1,8,0:0:0:0:
232,148,6021,5,0,0:0:0:0:
144,128,6396,1,8,0:0:0:0:
144,128,6771,1,0,0:0:0:0:
144,128,7146,1,0,0:0:0:0:
144,128,7521,1,8,0:0:0:0:
144,128,7896,1,8,0:0:0:0:
144,128,8271,1,0,0:0:0:0:
144,128,8646,1,8,0:0:0:0:
232,148,9021,5,0,0:0:0:0:
144,128,9396,1,8,0:0:0:0:
144,128,9771,1,0,0:0:0:0:
144,128,10146,1,0,0:0:0:0:
144,128,10521,1,8,0:0:0:0:
144,128,10896,1,8,0:0:0:0:
144,128,11271,1,0,0:0:0:0:
144,128,11646,1,8,0:0:0:0:
232,148,12021,5,0,0:0:0:0:
144,128,12396,1,8,0:0:0:0:
144,128,12771,1,8,0:0:0:0:
144,128,13146,1,0,0:0:0:0:
144,128,13521,1,8,0:0:0:0:
144,128,13896,1,8,0:0:0:0:
144,128,14271,1,0,0:0:0:0:
144,128,14646,1,8,0:0:0:0:
232,148,15021,5,0,0:0:0:0:
144,128,15396,1,0,0:0:0:0:
144,128,15771,1,8,0:0:0:0:
144,128,16146,1,0,0:0:0:0:
144,128,16521,1,8,0:0:0:0:
144,128,16896,1,8,0:0:0:0:
144,128,17271,1,0,0:0:0:0:
144,128,17646,1,8,0:0:0:0:
232,148,18021,5,0,0:0:0:0:
144,128,18396,1,0,0:0:0:0:
144,128,18771,1,8,0:0:0:0:
144,128,19146,1,0,0:0:0:0:
144,128,19521,1,8,0:0:0:0:
144,128,19896,1,8,0:0:0:0:
144,128,20271,1,0,0:0:0:0:
144,128,20646,1,8,0:0:0:0:
232,148,21021,5,0,0:0:0:0:
144,128,21396,1,8,0:0:0:0:
144,128,21771,1,0,0:0:0:0:
144,128,22146,1,0,0:0:0:0:
144,128,22521,1,8,0:0:0:0:
144,128,22896,1,8,0:0:0:0:
144,128,23271,1,0,0:0:0:0:
144,128,23646,1,8,0:0:0:0:
232,148,24021,5,0,0:0:0:0:
144,128,24396,1,8,0:0:0:0:
144,128,24771,1,0,0:0:0:0:
144,128,25146,1,0,0:0:0:0:
144,128,25521,1,8,0:0:0:0:
144,128,25896,1,8,0:0:0:0:
144,128,26271,1,0,0:0:0:0:
144,128,26646,1,8,0:0:0:0:
232,148,27021,5,0,0:0:0:0:
144,128,27396,1,8,0:0:0:0:
144,128,27771,1,8,0:0:0:0:
144,128,28146,1,0,0:0:0:0:
144,128,28521,1,8,0:0:0:0:
144,128,28896,1,8,0:0:0:0:
144,128,29271,1,0,0:0:0:0:
144,128,29646,1,8,0:0:0:0:
256,192,30021,5,8,0:0:0:0:
256,192,30396,1,0,0:0:0:0:
256,192,30771,1,0,0:0:0:0:
256,192,31146,1,8,0:0:0:0:
256,192,31521,1,8,0:0:0:0:
256,192,31896,1,0,0:0:0:0:
256,192,32271,1,0,0:0:0:0:
256,192,32646,1,8,0:0:0:0:
256,192,33021,1,0,0:0:0:0:
256,192,33396,1,0,0:0:0:0:
256,192,33771,1,8,0:0:0:0:
256,192,34146,1,0,0:0:0:0:
256,192,34521,1,0,0:0:0:0:
256,192,34896,1,8,0:0:0:0:
256,192,35271,1,8,0:0:0:0:
256,192,35646,1,0,0:0:0:0:
256,192,36021,1,8,0:0:0:0:
256,192,36208,1,0,0:0:0:0:
256,192,36396,1,8,0:0:0:0:
256,192,36771,1,0,0:0:0:0:
256,192,37146,1,0,0:0:0:0:
256,192,37521,1,8,0:0:0:0:
256,192,37896,1,0,0:0:0:0:
256,192,38271,1,0,0:0:0:0:
256,192,38646,1,0,0:0:0:0:
256,192,39021,1,8,0:0:0:0:
256,192,39396,1,0,0:0:0:0:
256,192,39771,1,8,0:0:0:0:
256,192,40146,1,8,0:0:0:0:
256,192,40521,1,0,0:0:0:0:
256,192,40896,1,0,0:0:0:0:
256,192,41271,1,8,0:0:0:0:
256,192,41646,1,0,0:0:0:0:
256,192,42021,1,0,0:0:0:0:
256,192,42396,1,8,0:0:0:0:
256,192,42771,1,8,0:0:0:0:
256,192,43146,1,0,0:0:0:0:
256,192,43521,1,8,0:0:0:0:
256,192,43708,1,0,0:0:0:0:
256,192,43896,1,8,0:0:0:0:
256,192,44271,1,0,0:0:0:0:
256,192,44646,1,0,0:0:0:0:
256,192,45021,1,8,0:0:0:0:
256,192,45396,1,8,0:0:0:0:
256,192,45771,1,0,0:0:0:0:
256,192,46146,1,0,0:0:0:0:
256,192,46521,1,0,0:0:0:0:
152,160,48021,5,4,0:0:0:0:
192,64,48621,1,0,0:0:0:0:
192,64,49221,1,8,0:0:0:0:
192,64,49821,1,4,0:0:0:0:
192,64,50121,1,12,0:0:0:0:
188,64,50721,1,0,0:0:0:0:
184,68,51021,1,8,0:0:0:0:
184,120,51621,1,4,0:0:0:0:
184,120,51771,1,8,0:0:0:0:
184,120,51921,1,0,0:0:0:0:
232,52,52221,1,8,0:0:0:0:
232,52,52521,1,0,0:0:0:0:
152,160,52821,5,4,0:0:0:0:
192,64,53421,1,0,0:0:0:0:
192,64,54021,1,8,0:0:0:0:
192,64,54621,1,4,0:0:0:0:
192,64,54921,1,4,0:0:0:0:
188,64,55221,1,12,0:0:0:0:
184,68,55821,1,0,0:0:0:0:
128,92,55971,1,0,0:0:0:0:
184,120,56121,1,12,0:0:0:0:
184,120,56721,1,8,0:0:0:0:
232,52,57021,1,8,0:0:0:0:
232,52,57321,1,0,0:0:0:0:
152,160,57621,5,4,0:0:0:0:
192,64,58221,1,0,0:0:0:0:
192,64,58821,1,8,0:0:0:0:
192,64,59421,1,4,0:0:0:0:
192,64,59721,1,12,0:0:0:0:
188,64,60321,1,0,0:0:0:0:
184,68,60621,1,8,0:0:0:0:
184,120,61221,1,4,0:0:0:0:
184,120,61371,1,8,0:0:0:0:
184,120,61521,1,0,0:0:0:0:
232,52,61821,1,8,0:0:0:0:
232,52,62121,1,0,0:0:0:0:
152,160,62421,5,4,0:0:0:0:
192,64,63021,1,0,0:0:0:0:
192,64,63621,1,8,0:0:0:0:
192,64,64221,1,4,0:0:0:0:
192,64,64521,1,4,0:0:0:0:
188,64,64821,1,12,0:0:0:0:
184,68,65421,1,0,0:0:0:0:
128,92,65571,1,0,0:0:0:0:
184,120,65721,1,12,0:0:0:0:
184,120,66321,1,8,0:0:0:0:
232,52,66621,1,8,0:0:0:0:
232,52,66921,1,0,0:0:0:0:
256,192,67221,5,8,0:0:0:0:
256,192,67521,1,0,0:0:0:0:
256,192,67821,1,8,0:0:0:0:
256,192,68121,1,0,0:0:0:0:
256,192,68421,1,8,0:0:0:0:
256,192,68721,1,0,0:0:0:0:
256,192,69021,1,0,0:0:0:0:
256,192,69321,1,8,0:0:0:0:
256,192,69621,1,8,0:0:0:0:
256,192,69921,1,0,0:0:0:0:
256,192,70221,1,8,0:0:0:0:
256,192,70521,1,0,0:0:0:0:
256,192,70821,1,0,0:0:0:0:
256,192,71121,1,8,0:0:0:0:
256,192,71421,1,8,0:0:0:0:
256,192,71721,1,0,0:0:0:0:
256,192,72021,1,8,0:0:0:0:
256,192,72321,1,0,0:0:0:0:
256,192,72621,1,8,0:0:0:0:
256,192,72921,1,0,0:0:0:0:
256,192,73221,1,8,0:0:0:0:
256,192,73521,1,0,0:0:0:0:
256,192,73821,1,0,0:0:0:0:
256,192,74121,1,8,0:0:0:0:
256,192,74421,1,0,0:0:0:0:
256,192,74871,1,8,0:0:0:0:
256,192,75321,1,0,0:0:0:0:
256,192,75771,1,8,0:0:0:0:
256,192,76221,1,0,0:0:0:0:
256,192,76521,1,8,0:0:0:0:
256,192,76821,1,8,0:0:0:0:
256,192,77121,1,0,0:0:0:0:
256,192,77421,1,8,0:0:0:0:
256,192,77721,1,0,0:0:0:0:
256,192,78021,1,8,0:0:0:0:
256,192,78321,1,0,0:0:0:0:
256,192,78621,1,0,0:0:0:0:
256,192,78921,1,8,0:0:0:0:
256,192,79221,1,8,0:0:0:0:
256,192,79521,1,0,0:0:0:0:
256,192,79821,1,8,0:0:0:0:
256,192,80121,1,0,0:0:0:0:
256,192,80421,1,0,0:0:0:0:
256,192,80721,1,8,0:0:0:0:
256,192,81021,1,8,0:0:0:0:
256,192,81321,1,0,0:0:0:0:
256,192,81621,1,8,0:0:0:0:
256,192,81921,1,0,0:0:0:0:
256,192,82221,1,8,0:0:0:0:
256,192,82521,1,0,0:0:0:0:
256,192,82821,1,8,0:0:0:0:
256,192,83121,1,0,0:0:0:0:
256,192,83421,1,0,0:0:0:0:
256,192,83721,1,8,0:0:0:0:
256,192,84021,1,0,0:0:0:0:
256,192,84321,1,0,0:0:0:0:
256,192,84621,1,8,0:0:0:0:
256,192,84921,1,8,0:0:0:0:
256,192,85221,1,8,0:0:0:0:
256,192,85521,5,0,0:0:0:0:
256,192,85821,1,8,0:0:0:0:
256,192,86121,1,0,0:0:0:0:
168,124,86421,5,4,0:0:0:0:
180,132,86830,1,4,0:0:0:0:
180,132,87239,1,4,0:0:0:0:
176,132,87648,1,12,0:0:0:0:
176,132,88057,1,4,0:0:0:0:
180,132,88330,1,4,0:0:0:0:
168,124,88602,5,12,0:0:0:0:
180,132,89011,1,4,0:0:0:0:
180,132,89420,1,4,0:0:0:0:
176,132,89829,1,12,0:0:0:0:
176,132,90238,1,12,0:0:0:0:
168,124,90784,5,4,0:0:0:0:
180,132,91193,1,4,0:0:0:0:
180,132,91602,1,4,0:0:0:0:
176,132,92011,1,12,0:0:0:0:
176,132,92420,1,4,0:0:0:0:
180,132,92693,1,4,0:0:0:0:
168,124,92965,5,8,0:0:0:0:
196,88,93102,1,8,0:0:0:0:
196,88,93171,1,8,0:0:0:0:
196,88,93239,1,0,0:0:0:0:
188,80,93375,1,0,0:0:0:0:
168,124,93511,5,8,0:0:0:0:
196,88,93648,1,8,0:0:0:0:
196,88,93717,1,8,0:0:0:0:
196,88,93785,1,0,0:0:0:0:
188,80,93921,1,0,0:0:0:0:
168,124,94057,5,8,0:0:0:0:
196,88,94194,1,8,0:0:0:0:
196,88,94331,1,0,0:0:0:0:
196,88,94398,1,0,0:0:0:0:
188,80,94467,1,0,0:0:0:0:
168,124,94602,5,8,0:0:0:0:
188,80,94739,1,8,0:0:0:0:
196,88,94875,1,8,0:0:0:0:
196,88,94945,1,8,0:0:0:0:
196,88,95012,1,8,0:0:0:0:
64,132,95080,1,8,0:0:0:0:
168,124,95148,5,4,0:0:0:0:
180,132,95557,1,4,0:0:0:0:
180,132,95966,1,4,0:0:0:0:
176,132,96375,1,12,0:0:0:0:
176,132,96784,1,4,0:0:0:0:
180,132,97057,1,4,0:0:0:0:
168,124,97329,5,12,0:0:0:0:
180,132,97738,1,4,0:0:0:0:
180,132,98147,1,4,0:0:0:0:
176,132,98556,1,12,0:0:0:0:
176,132,98965,1,12,0:0:0:0:
168,124,99511,5,4,0:0:0:0:
180,132,99920,1,4,0:0:0:0:
180,132,100329,1,4,0:0:0:0:
176,132,100738,1,12,0:0:0:0:
176,132,101147,1,4,0:0:0:0:
180,132,101420,1,4,0:0:0:0:
168,124,101692,5,0,0:0:0:0:
196,88,101829,1,0,0:0:0:0:
196,88,101898,1,0,0:0:0:0:
196,88,101966,1,8,0:0:0:0:
188,80,102102,1,0,0:0:0:0:
168,124,102238,5,8,0:0:0:0:
196,88,102375,1,8,0:0:0:0:
196,88,102444,1,8,0:0:0:0:
196,88,102512,1,0,0:0:0:0:
188,80,102648,1,8,0:0:0:0:
168,124,102784,5,8,0:0:0:0:
164,68,102852,1,8,0:0:0:0:
196,88,102921,1,8,0:0:0:0:
196,88,103058,1,0,0:0:0:0:
196,88,103125,1,0,0:0:0:0:
188,80,103194,1,0,0:0:0:0:
168,76,103261,5,0,0:0:0:0:
168,124,103330,1,8,0:0:0:0:
188,80,103466,1,0,0:0:0:0:
196,88,103602,1,0,0:0:0:0:
180,144,103671,1,0,0:0:0:0:
196,88,103739,1,0,0:0:0:0:
256,192,103875,5,12,0:0:0:0:
256,192,104148,1,8,0:0:0:0:
256,192,104284,1,0,0:0:0:0:
256,192,104352,1,0,0:0:0:0:
256,192,104421,1,0,0:0:0:0:
256,192,104557,1,0,0:0:0:0:
256,192,104693,1,8,0:0:0:0:
256,192,104966,1,0,0:0:0:0:
256,192,105102,1,0,0:0:0:0:
256,192,105239,1,8,0:0:0:0:
256,192,105375,1,0,0:0:0:0:
256,192,105443,1,0,0:0:0:0:
256,192,105511,1,8,0:0:0:0:
256,192,105648,1,0,0:0:0:0:
256,192,105784,1,8,0:0:0:0:
256,192,105921,1,8,0:0:0:0:
256,192,106057,1,0,0:0:0:0:
256,192,106330,1,8,0:0:0:0:
256,192,106466,1,0,0:0:0:0:
256,192,106534,1,0,0:0:0:0:
256,192,106602,1,0,0:0:0:0:
256,192,106739,1,0,0:0:0:0:
256,192,106875,1,8,0:0:0:0:
256,192,107148,1,0,0:0:0:0:
256,192,107284,1,8,0:0:0:0:
256,192,107421,1,8,0:0:0:0:
256,192,107557,1,0,0:0:0:0:
256,192,107693,1,8,0:0:0:0:
256,192,107761,1,8,0:0:0:0:
256,192,107830,1,0,0:0:0:0:
256,192,107966,1,8,0:0:0:0:
256,192,108102,1,0,0:0:0:0:
256,192,108239,1,0,0:0:0:0:
256,192,108511,1,8,0:0:0:0:
256,192,108648,1,0,0:0:0:0:
256,192,108716,1,0,0:0:0:0:
256,192,108784,1,0,0:0:0:0:
256,192,108921,1,0,0:0:0:0:
256,192,109057,1,8,0:0:0:0:
256,192,109330,1,0,0:0:0:0:
256,192,109466,1,8,0:0:0:0:
256,192,109534,1,8,0:0:0:0:
256,192,109602,1,8,0:0:0:0:
256,192,109739,1,0,0:0:0:0:
256,192,109875,1,8,0:0:0:0:
256,192,110011,1,0,0:0:0:0:
256,192,110080,1,0,0:0:0:0:
256,192,110148,1,8,0:0:0:0:
256,192,110284,1,8,0:0:0:0:
256,192,110421,1,4,0:0:0:0:
256,192,110830,1,12,0:0:0:0:
256,192,111239,1,4,0:0:0:0:
256,192,111648,1,12,0:0:0:0:
256,192,112057,1,12,0:0:0:0:
256,192,112330,1,12,0:0:0:0:
256,192,112602,1,4,0:0:0:0:
256,192,112875,1,8,0:0:0:0:
256,192,113011,1,0,0:0:0:0:
256,192,113080,1,0,0:0:0:0:
256,192,113148,1,0,0:0:0:0:
256,192,113284,1,0,0:0:0:0:
256,192,113421,1,8,0:0:0:0:
256,192,113693,1,0,0:0:0:0:
256,192,113830,1,0,0:0:0:0:
256,192,113966,1,8,0:0:0:0:
256,192,114102,1,0,0:0:0:0:
256,192,114171,1,0,0:0:0:0:
256,192,114239,1,8,0:0:0:0:
256,192,114375,1,0,0:0:0:0:
256,192,114511,1,8,0:0:0:0:
256,192,114648,1,8,0:0:0:0:
256,192,114784,1,0,0:0:0:0:
256,192,115057,1,8,0:0:0:0:
256,192,115193,1,0,0:0:0:0:
256,192,115261,1,0,0:0:0:0:
256,192,115330,1,0,0:0:0:0:
256,192,115466,1,0,0:0:0:0:
256,192,115602,1,8,0:0:0:0:
256,192,115875,1,0,0:0:0:0:
256,192,116011,1,8,0:0:0:0:
256,192,116148,1,8,0:0:0:0:
256,192,116284,1,0,0:0:0:0:
256,192,116421,1,8,0:0:0:0:
256,192,116489,1,8,0:0:0:0:
256,192,116557,1,0,0:0:0:0:
256,192,116693,1,8,0:0:0:0:
256,192,116830,1,0,0:0:0:0:
256,192,116966,1,0,0:0:0:0:
256,192,117239,1,8,0:0:0:0:
256,192,117375,1,0,0:0:0:0:
256,192,117443,1,0,0:0:0:0:
256,192,117511,1,0,0:0:0:0:
256,192,117648,1,0,0:0:0:0:
256,192,117784,1,8,0:0:0:0:
256,192,118057,1,0,0:0:0:0:
256,192,118193,1,8,0:0:0:0:
256,192,118261,1,8,0:0:0:0:
256,192,118330,1,8,0:0:0:0:
256,192,118466,1,0,0:0:0:0:
256,192,118602,1,8,0:0:0:0:
256,192,118671,1,8,0:0:0:0:
256,192,118739,1,0,0:0:0:0:
256,192,118807,1,0,0:0:0:0:
256,192,118875,1,8,0:0:0:0:
256,192,119011,1,8,0:0:0:0:
256,192,119148,1,4,0:0:0:0:
256,192,119557,1,12,0:0:0:0:
256,192,119966,1,4,0:0:0:0:
256,192,120375,5,12,0:0:0:0:
256,192,120784,1,8,0:0:0:0:
256,192,120921,1,8,0:0:0:0:
256,192,121057,1,8,0:0:0:0:
256,192,121193,1,8,0:0:0:0:
88,120,121330,5,4,0:0:0:0:
236,152,121602,1,8,0:0:0:0:
236,160,121739,1,0,0:0:0:0:
236,160,121807,1,0,0:0:0:0:
236,160,121875,1,8,0:0:0:0:
216,152,122011,1,0,0:0:0:0:
216,152,122148,1,8,0:0:0:0:
160,72,122284,1,0,0:0:0:0:
176,56,122352,1,8,0:0:0:0:
244,164,122421,1,0,0:0:0:0:
236,160,122557,1,0,0:0:0:0:
240,164,122625,1,0,0:0:0:0:
236,160,122693,1,8,0:0:0:0:
236,160,122830,1,0,0:0:0:0:
236,160,122966,1,8,0:0:0:0:
236,160,123034,1,8,0:0:0:0:
236,160,123102,1,0,0:0:0:0:
236,160,123239,1,8,0:0:0:0:
236,160,123375,1,0,0:0:0:0:
232,160,123511,1,0,0:0:0:0:
164,52,123580,1,0,0:0:0:0:
160,48,123648,1,0,0:0:0:0:
236,152,123784,1,8,0:0:0:0:
216,152,123921,1,0,0:0:0:0:
236,160,124057,1,8,0:0:0:0:
236,160,124125,1,8,0:0:0:0:
236,160,124193,1,0,0:0:0:0:
216,152,124330,1,8,0:0:0:0:
196,16,124466,1,0,0:0:0:0:
196,16,124534,1,8,0:0:0:0:
244,164,124603,1,0,0:0:0:0:
236,160,124739,1,0,0:0:0:0:
240,164,124807,1,0,0:0:0:0:
236,160,124875,1,8,0:0:0:0:
236,160,125011,1,0,0:0:0:0:
236,160,125284,1,0,0:0:0:0:
236,160,125421,1,8,0:0:0:0:
236,160,125557,1,0,0:0:0:0:
236,160,125625,1,0,0:0:0:0:
88,120,125693,5,0,0:0:0:0:
236,152,125965,1,8,0:0:0:0:
184,56,126102,1,8,0:0:0:0:
236,160,126238,1,0,0:0:0:0:
216,152,126307,1,0,0:0:0:0:
184,56,126375,1,8,0:0:0:0:
216,152,126511,1,8,0:0:0:0:
236,160,126648,1,0,0:0:0:0:
244,164,126784,1,0,0:0:0:0:
236,160,126920,1,0,0:0:0:0:
96,112,126989,1,0,0:0:0:0:
236,160,127056,1,8,0:0:0:0:
216,56,127125,1,8,0:0:0:0:
236,160,127193,1,0,0:0:0:0:
236,160,127330,1,8,0:0:0:0:
236,160,127465,1,0,0:0:0:0:
236,160,127534,1,0,0:0:0:0:
236,160,127602,1,8,0:0:0:0:
236,160,127738,1,0,0:0:0:0:
232,160,127874,1,8,0:0:0:0:
192,56,127943,1,8,0:0:0:0:
224,72,128011,1,0,0:0:0:0:
236,152,128147,1,0,0:0:0:0:
216,152,128284,1,8,0:0:0:0:
172,56,128421,1,0,0:0:0:0:
180,64,128489,1,0,0:0:0:0:
236,160,128556,1,0,0:0:0:0:
216,152,128693,1,8,0:0:0:0:
164,72,128830,1,0,0:0:0:0:
244,164,128966,1,0,0:0:0:0:
220,144,129034,1,0,0:0:0:0:
236,160,129102,1,8,0:0:0:0:
236,160,129238,1,0,0:0:0:0:
236,160,129374,1,0,0:0:0:0:
236,160,129511,1,8,0:0:0:0:
128,100,129546,1,8,0:0:0:0:
236,160,129647,1,8,0:0:0:0:
236,160,129784,1,0,0:0:0:0:
168,68,129818,1,0,0:0:0:0:
236,160,129920,1,0,0:0:0:0:
88,120,130057,5,4,0:0:0:0:
236,152,130330,1,8,0:0:0:0:
236,160,130467,1,0,0:0:0:0:
236,160,130534,1,8,0:0:0:0:
236,160,130603,1,0,0:0:0:0:
216,152,130739,1,0,0:0:0:0:
172,80,130807,1,8,0:0:0:0:
216,152,130876,1,8,0:0:0:0:
160,72,131012,1,0,0:0:0:0:
244,164,131149,1,0,0:0:0:0:
176,56,131216,1,8,0:0:0:0:
236,160,131285,1,0,0:0:0:0:
240,164,131353,1,0,0:0:0:0:
236,160,131421,1,8,0:0:0:0:
236,160,131558,1,0,0:0:0:0:
236,160,131694,1,8,0:0:0:0:
236,160,131762,1,8,0:0:0:0:
236,160,131830,1,0,0:0:0:0:
236,160,131967,1,8,0:0:0:0:
236,160,132103,1,0,0:0:0:0:
232,160,132239,1,0,0:0:0:0:
164,52,132308,1,0,0:0:0:0:
160,48,132376,1,0,0:0:0:0:
236,152,132512,1,8,0:0:0:0:
236,160,132649,1,8,0:0:0:0:
216,152,132785,1,0,0:0:0:0:
236,160,132921,1,0,0:0:0:0:
236,160,132989,1,0,0:0:0:0:
216,152,133058,1,8,0:0:0:0:
196,16,133125,1,8,0:0:0:0:
196,16,133194,1,0,0:0:0:0:
244,164,133331,1,0,0:0:0:0:
236,160,133467,1,0,0:0:0:0:
240,164,133535,1,0,0:0:0:0:
236,160,133603,1,8,0:0:0:0:
236,160,133739,1,0,0:0:0:0:
236,160,134012,1,0,0:0:0:0:
236,160,134149,1,8,0:0:0:0:
236,160,134285,1,0,0:0:0:0:
236,160,134353,1,0,0:0:0:0:
88,120,134421,5,0,0:0:0:0:
236,152,134693,1,8,0:0:0:0:
184,56,134830,1,8,0:0:0:0:
236,160,134966,1,0,0:0:0:0:
216,152,135035,1,0,0:0:0:0:
184,56,135103,1,8,0:0:0:0:
216,152,135239,1,8,0:0:0:0:
236,160,135375,1,8,0:0:0:0:
244,164,135512,5,0,0:0:0:0:
236,160,135648,1,0,0:0:0:0:
236,160,135784,1,8,0:0:0:0:
216,56,135853,1,8,0:0:0:0:
236,160,135921,1,0,0:0:0:0:
96,112,135989,1,0,0:0:0:0:
236,160,136058,1,8,0:0:0:0:
236,160,136193,1,0,0:0:0:0:
236,160,136330,1,8,0:0:0:0:
236,160,136398,1,0,0:0:0:0:
236,160,136466,1,0,0:0:0:0:
232,160,136601,5,8,0:0:0:0:
192,56,136670,1,8,0:0:0:0:
224,72,136738,1,0,0:0:0:0:
236,152,136874,1,0,0:0:0:0:
216,152,137011,1,8,0:0:0:0:
172,56,137148,1,0,0:0:0:0:
180,64,137216,1,0,0:0:0:0:
236,160,137283,1,0,0:0:0:0:
216,152,137420,1,8,0:0:0:0:
164,72,137557,1,0,0:0:0:0:
244,164,137693,1,0,0:0:0:0:
220,144,137761,1,0,0:0:0:0:
236,160,137829,1,8,0:0:0:0:
236,160,137965,1,0,0:0:0:0:
232,152,138034,1,0,0:0:0:0:
236,160,138101,1,0,0:0:0:0:
232,160,138171,1,0,0:0:0:0:
236,160,138238,1,8,0:0:0:0:
236,160,138374,1,0,0:0:0:0:
236,160,138511,1,8,0:0:0:0:
236,160,138647,1,8,0:0:0:0:
256,192,138784,5,4,0:0:0:0:
256,192,139057,1,8,0:0:0:0:
256,192,139193,1,0,0:0:0:0:
256,192,139261,1,0,0:0:0:0:
256,192,139330,1,0,0:0:0:0:
256,192,139466,1,0,0:0:0:0:
256,192,139602,1,8,0:0:0:0:
256,192,139739,1,0,0:0:0:0:
256,192,139807,1,0,0:0:0:0:
256,192,139875,1,8,0:0:0:0:
256,192,139943,1,8,0:0:0:0:
256,192,140011,1,0,0:0:0:0:
256,192,140148,1,8,0:0:0:0:
256,192,140284,1,0,0:0:0:0:
256,192,140557,1,0,0:0:0:0:
256,192,140693,1,8,0:0:0:0:
256,192,140966,1,0,0:0:0:0:
256,192,141239,1,8,0:0:0:0:
256,192,141375,1,8,0:0:0:0:
256,192,141443,1,8,0:0:0:0:
256,192,141511,1,0,0:0:0:0:
256,192,141648,1,0,0:0:0:0:
256,192,141784,1,8,0:0:0:0:
256,192,142057,1,0,0:0:0:0:
256,192,142193,1,0,0:0:0:0:
256,192,142261,1,0,0:0:0:0:
256,192,142330,1,8,0:0:0:0:
256,192,142466,1,0,0:0:0:0:
256,192,142739,1,0,0:0:0:0:
256,192,142875,1,8,0:0:0:0:
256,192,143148,1,0,0:0:0:0:
256,192,143421,1,8,0:0:0:0:
256,192,143557,1,0,0:0:0:0:
256,192,143625,1,0,0:0:0:0:
256,192,143693,1,0,0:0:0:0:
256,192,143830,1,0,0:0:0:0:
256,192,143966,1,8,0:0:0:0:
256,192,144102,1,0,0:0:0:0:
256,192,144171,1,0,0:0:0:0:
256,192,144239,1,8,0:0:0:0:
256,192,144307,1,8,0:0:0:0:
256,192,144375,1,0,0:0:0:0:
256,192,144511,1,8,0:0:0:0:
256,192,144648,1,0,0:0:0:0:
256,192,144921,1,0,0:0:0:0:
256,192,145057,1,8,0:0:0:0:
256,192,145330,1,8,0:0:0:0:
256,192,145466,1,0,0:0:0:0:
256,192,145534,1,0,0:0:0:0:
256,192,145602,1,0,0:0:0:0:
256,192,145739,1,8,0:0:0:0:
256,192,145875,1,0,0:0:0:0:
256,192,146011,1,0,0:0:0:0:
256,192,146148,1,8,0:0:0:0:
256,192,146284,1,0,0:0:0:0:
256,192,146352,1,0,0:0:0:0:
256,192,146421,1,0,0:0:0:0:
256,192,146557,1,8,0:0:0:0:
256,192,146693,1,0,0:0:0:0:
256,192,146830,1,0,0:0:0:0:
256,192,146966,1,8,0:0:0:0:
256,192,147102,1,0,0:0:0:0:
256,192,147171,1,8,0:0:0:0:
256,192,147239,1,0,0:0:0:0:
256,192,147307,1,8,0:0:0:0:
256,192,147375,1,0,0:0:0:0:
256,192,147511,1,8,0:0:0:0:
256,192,147648,1,0,0:0:0:0:
256,192,147784,1,0,0:0:0:0:
256,192,147921,1,8,0:0:0:0:
256,192,148057,1,0,0:0:0:0:
256,192,148125,1,0,0:0:0:0:
256,192,148193,1,0,0:0:0:0:
256,192,148330,1,8,0:0:0:0:
256,192,148466,1,0,0:0:0:0:
256,192,148602,5,0,0:0:0:0:
256,192,148739,1,8,0:0:0:0:
256,192,148875,1,0,0:0:0:0:
256,192,148943,1,0,0:0:0:0:
256,192,149011,1,0,0:0:0:0:
256,192,149148,1,8,0:0:0:0:
256,192,149421,1,8,0:0:0:0:
160,148,149693,5,4,0:0:0:0:
164,168,149830,1,0,0:0:0:0:
164,168,149966,1,0,0:0:0:0:
164,168,150102,1,0,0:0:0:0:
160,168,150239,1,8,0:0:0:0:
168,128,150511,1,0,0:0:0:0:
168,128,150784,1,8,0:0:0:0:
168,128,150921,1,8,0:0:0:0:
188,128,151057,1,0,0:0:0:0:
184,128,151193,1,0,0:0:0:0:
180,128,151330,1,8,0:0:0:0:
180,128,151466,1,0,0:0:0:0:
180,128,151602,1,8,0:0:0:0:
208,64,151875,1,0,0:0:0:0:
208,64,152148,1,8,0:0:0:0:
208,64,152284,1,0,0:0:0:0:
208,64,152421,1,8,0:0:0:0:
208,64,152693,1,0,0:0:0:0:
208,64,152966,1,8,0:0:0:0:
208,64,153102,1,8,0:0:0:0:
208,64,153239,1,8,0:0:0:0:
208,64,153375,1,0,0:0:0:0:
208,64,153511,1,8,0:0:0:0:
208,64,153784,1,8,0:0:0:0:
160,148,154057,5,0,0:0:0:0:
164,168,154194,1,0,0:0:0:0:
164,168,154330,1,0,0:0:0:0:
164,168,154466,1,0,0:0:0:0:
160,168,154603,1,8,0:0:0:0:
168,128,154875,1,0,0:0:0:0:
168,128,155148,1,8,0:0:0:0:
188,128,155421,1,0,0:0:0:0:
184,128,155557,1,0,0:0:0:0:
180,128,155694,1,8,0:0:0:0:
168,128,155830,1,0,0:0:0:0:
180,128,155966,1,8,0:0:0:0:
208,64,156239,1,8,0:0:0:0:
160,96,156375,1,8,0:0:0:0:
208,64,156512,1,0,0:0:0:0:
172,88,156648,1,0,0:0:0:0:
208,64,156784,1,8,0:0:0:0:
208,64,156921,1,8,0:0:0:0:
208,64,157057,1,8,0:0:0:0:
208,64,157330,1,0,0:0:0:0:
208,64,157466,1,0,0:0:0:0:
208,64,157603,1,8,0:0:0:0:
208,64,157739,1,0,0:0:0:0:
208,64,157875,1,8,0:0:0:0:
208,64,158148,1,8,0:0:0:0:
160,148,158421,5,0,0:0:0:0:
164,168,158558,1,0,0:0:0:0:
164,168,158694,1,0,0:0:0:0:
164,168,158830,1,0,0:0:0:0:
160,168,158967,1,8,0:0:0:0:
168,128,159239,1,0,0:0:0:0:
168,128,159512,1,8,0:0:0:0:
188,128,159785,1,0,0:0:0:0:
184,128,159921,1,0,0:0:0:0:
180,128,160058,1,8,0:0:0:0:
180,128,160194,1,0,0:0:0:0:
180,128,160330,1,8,0:0:0:0:
208,64,160603,1,0,0:0:0:0:
208,64,160876,1,8,0:0:0:0:
208,64,161012,1,0,0:0:0:0:
208,64,161149,1,8,0:0:0:0:
208,64,161421,1,0,0:0:0:0:
208,64,161694,1,8,0:0:0:0:
208,64,161830,1,8,0:0:0:0:
208,64,161967,1,8,0:0:0:0:
208,64,162103,1,0,0:0:0:0:
208,64,162239,1,8,0:0:0:0:
208,64,162512,1,8,0:0:0:0:
160,148,162785,5,0,0:0:0:0:
164,168,162922,1,0,0:0:0:0:
164,168,163058,1,0,0:0:0:0:
164,168,163194,1,0,0:0:0:0:
160,168,163331,1,8,0:0:0:0:
168,128,163603,1,0,0:0:0:0:
168,128,163876,1,8,0:0:0:0:
168,128,164012,1,8,0:0:0:0:
188,128,164149,1,0,0:0:0:0:
184,128,164285,1,0,0:0:0:0:
180,128,164422,1,8,0:0:0:0:
180,128,164694,1,8,0:0:0:0:
172,88,164967,1,0,0:0:0:0:
208,64,165103,1,0,0:0:0:0:
160,72,165171,1,0,0:0:0:0:
160,96,165240,1,8,0:0:0:0:
208,64,165376,1,0,0:0:0:0:
208,64,165512,1,8,0:0:0:0:
192,28,165580,1,8,0:0:0:0:
208,64,165649,1,8,0:0:0:0:
208,64,165785,1,8,0:0:0:0:
192,28,165921,1,0,0:0:0:0:
188,24,166058,1,8,0:0:0:0:
208,64,166125,1,8,0:0:0:0:
188,24,166194,1,8,0:0:0:0:
208,64,166261,1,8,0:0:0:0:
208,64,166331,1,0,0:0:0:0:
172,44,166398,1,0,0:0:0:0:
208,64,166467,1,0,0:0:0:0:
176,68,166534,1,0,0:0:0:0:
208,64,166603,1,8,0:0:0:0:
156,96,166739,1,0,0:0:0:0:
208,64,166876,1,8,0:0:0:0:
164,92,166943,1,8,0:0:0:0:
164,92,167011,1,8,0:0:0:0:
256,192,167148,5,4,0:0:0:0:
256,192,167421,1,8,0:0:0:0:
256,192,167693,1,0,0:0:0:0:
256,192,167830,1,0,0:0:0:0:
256,192,167966,1,8,0:0:0:0:
256,192,168239,1,0,0:0:0:0:
256,192,168511,1,8,0:0:0:0:
256,192,168648,1,0,0:0:0:0:
256,192,168716,1,0,0:0:0:0:
256,192,168784,1,8,0:0:0:0:
256,192,168921,1,0,0:0:0:0:
256,192,169057,1,8,0:0:0:0:
256,192,169193,1,8,0:0:0:0:
256,192,169330,1,0,0:0:0:0:
256,192,169602,1,8,0:0:0:0:
256,192,169875,1,0,0:0:0:0:
256,192,170011,1,0,0:0:0:0:
256,192,170148,1,8,0:0:0:0:
256,192,170421,1,0,0:0:0:0:
256,192,170693,1,8,0:0:0:0:
256,192,170830,1,0,0:0:0:0:
256,192,170898,1,0,0:0:0:0:
256,192,170966,1,0,0:0:0:0:
256,192,171102,1,0,0:0:0:0:
256,192,171239,1,8,0:0:0:0:
256,192,171375,1,8,0:0:0:0:
256,192,171648,1,0,0:0:0:0:
256,192,171784,1,8,0:0:0:0:
256,192,172057,1,0,0:0:0:0:
256,192,172193,1,0,0:0:0:0:
256,192,172330,1,8,0:0:0:0:
256,192,172602,1,0,0:0:0:0:
256,192,172875,1,8,0:0:0:0:
256,192,173011,1,8,0:0:0:0:
256,192,173080,1,8,0:0:0:0:
256,192,173148,1,0,0:0:0:0:
256,192,173284,1,0,0:0:0:0:
256,192,173421,1,8,0:0:0:0:
256,192,173557,1,0,0:0:0:0:
256,192,173693,1,8,0:0:0:0:
256,192,173966,1,0,0:0:0:0:
256,192,174102,1,8,0:0:0:0:
256,192,174511,1,8,0:0:0:0:
256,192,174784,1,0,0:0:0:0:
256,192,174921,1,8,0:0:0:0:
256,192,175330,1,8,0:0:0:0:
256,192,175466,1,0,0:0:0:0:
256,192,175534,1,0,0:0:0:0:
256,192,175602,1,0,0:0:0:0:
256,192,175739,1,0,0:0:0:0:
256,192,175875,1,4,0:0:0:0:
256,192,176148,1,8,0:0:0:0:
256,192,176421,1,0,0:0:0:0:
256,192,176557,1,0,0:0:0:0:
256,192,176693,1,8,0:0:0:0:
256,192,176966,1,0,0:0:0:0:
256,192,177239,1,8,0:0:0:0:
256,192,177375,1,0,0:0:0:0:
256,192,177443,1,0,0:0:0:0:
256,192,177511,1,8,0:0:0:0:
256,192,177648,1,0,0:0:0:0:
256,192,177784,1,8,0:0:0:0:
256,192,177921,1,8,0:0:0:0:
256,192,178057,1,0,0:0:0:0:
256,192,178330,1,8,0:0:0:0:
256,192,178602,1,0,0:0:0:0:
256,192,178739,1,0,0:0:0:0:
256,192,178875,1,8,0:0:0:0:
256,192,179148,1,0,0:0:0:0:
256,192,179284,1,0,0:0:0:0:
256,192,179352,1,0,0:0:0:0:
256,192,179421,1,8,0:0:0:0:
256,192,179557,1,0,0:0:0:0:
256,192,179693,1,8,0:0:0:0:
256,192,179761,1,8,0:0:0:0:
256,192,179830,1,8,0:0:0:0:
256,192,179966,1,8,0:0:0:0:
256,192,180102,1,0,0:0:0:0:
256,192,180239,1,8,0:0:0:0:
256,192,180511,1,8,0:0:0:0:
256,192,180784,1,0,0:0:0:0:
256,192,180921,1,0,0:0:0:0:
256,192,181057,1,8,0:0:0:0:
256,192,181330,1,0,0:0:0:0:
256,192,181602,1,8,0:0:0:0:
256,192,181739,1,8,0:0:0:0:
256,192,181807,1,8,0:0:0:0:
256,192,181875,1,0,0:0:0:0:
256,192,182011,1,0,0:0:0:0:
256,192,182148,1,8,0:0:0:0:
256,192,182284,1,0,0:0:0:0:
256,192,182352,1,0,0:0:0:0:
256,192,182421,1,8,0:0:0:0:
256,192,182693,1,0,0:0:0:0:
256,192,182830,1,8,0:0:0:0:
256,192,183239,1,8,0:0:0:0:
256,192,183511,5,0,0:0:0:0:
256,192,183648,1,8,0:0:0:0:
256,192,184057,1,8,0:0:0:0:
256,192,184330,1,8,0:0:0:0:
168,124,184602,5,4,0:0:0:0:
180,132,185011,1,4,0:0:0:0:
180,132,185420,1,4,0:0:0:0:
176,132,185829,1,12,0:0:0:0:
176,132,186238,1,4,0:0:0:0:
180,132,186511,1,4,0:0:0:0:
168,124,186783,5,12,0:0:0:0:
180,132,187192,1,4,0:0:0:0:
180,132,187601,1,4,0:0:0:0:
176,132,188010,1,12,0:0:0:0:
176,132,188419,1,12,0:0:0:0:
168,124,188965,5,4,0:0:0:0:
180,132,189374,1,4,0:0:0:0:
180,132,189783,1,4,0:0:0:0:
176,132,190192,1,12,0:0:0:0:
176,132,190601,1,4,0:0:0:0:
180,132,190874,1,4,0:0:0:0:
168,124,191146,5,8,0:0:0:0:
196,88,191283,1,8,0:0:0:0:
196,88,191352,1,8,0:0:0:0:
196,88,191420,1,0,0:0:0:0:
188,80,191556,1,0,0:0:0:0:
168,124,191692,5,8,0:0:0:0:
196,88,191829,1,8,0:0:0:0:
196,88,191898,1,8,0:0:0:0:
196,88,191966,1,0,0:0:0:0:
188,80,192102,1,0,0:0:0:0:
168,124,192238,5,8,0:0:0:0:
196,88,192375,1,8,0:0:0:0:
196,88,192512,1,0,0:0:0:0:
196,88,192579,1,0,0:0:0:0:
188,80,192648,1,0,0:0:0:0:
168,124,192783,5,8,0:0:0:0:
188,80,192920,1,8,0:0:0:0:
196,88,193056,1,8,0:0:0:0:
196,88,193125,1,8,0:0:0:0:
196,88,193193,1,8,0:0:0:0:
136,100,193261,1,8,0:0:0:0:
136,100,193330,1,4,0:0:0:0:
172,88,193602,1,8,0:0:0:0:
172,88,193739,1,8,0:0:0:0:
172,88,193807,1,8,0:0:0:0:
172,92,193875,1,0,0:0:0:0:
168,96,194011,1,0,0:0:0:0:
168,96,194148,1,8,0:0:0:0:
168,88,194421,1,0,0:0:0:0:
172,88,194557,1,8,0:0:0:0:
172,88,194625,1,8,0:0:0:0:
172,88,194693,1,0,0:0:0:0:
172,88,194830,1,8,0:0:0:0:
160,84,194966,1,0,0:0:0:0:
160,84,195034,1,0,0:0:0:0:
160,88,195102,1,0,0:0:0:0:
160,88,195239,1,8,0:0:0:0:
136,100,195511,1,0,0:0:0:0:
172,88,195783,1,8,0:0:0:0:
172,88,195920,1,8,0:0:0:0:
172,88,195988,1,8,0:0:0:0:
172,92,196056,1,0,0:0:0:0:
168,96,196192,1,0,0:0:0:0:
168,96,196329,1,8,0:0:0:0:
168,88,196602,1,0,0:0:0:0:
172,88,196738,1,8,0:0:0:0:
172,88,196806,1,8,0:0:0:0:
172,88,196874,1,0,0:0:0:0:
172,88,197011,1,8,0:0:0:0:
160,84,197147,1,0,0:0:0:0:
160,84,197215,1,0,0:0:0:0:
192,56,197284,1,0,0:0:0:0:
160,88,197352,1,0,0:0:0:0:
160,88,197420,1,8,0:0:0:0:
136,100,197693,1,0,0:0:0:0:
172,88,197965,1,8,0:0:0:0:
172,88,198102,1,8,0:0:0:0:
172,88,198170,1,8,0:0:0:0:
172,92,198238,1,0,0:0:0:0:
168,96,198374,1,0,0:0:0:0:
168,96,198511,1,8,0:0:0:0:
168,88,198784,1,0,0:0:0:0:
172,88,198920,1,8,0:0:0:0:
172,88,198988,1,8,0:0:0:0:
172,88,199056,1,0,0:0:0:0:
184,56,199125,1,0,0:0:0:0:
172,88,199193,1,8,0:0:0:0:
160,84,199329,1,0,0:0:0:0:
160,88,199465,1,0,0:0:0:0:
160,84,199534,1,0,0:0:0:0:
160,88,199602,1,8,0:0:0:0:
188,88,199739,1,0,0:0:0:0:
188,60,199875,1,8,0:0:0:0:
172,88,199943,1,8,0:0:0:0:
136,100,200011,1,0,0:0:0:0:
172,88,200146,1,0,0:0:0:0:
172,88,200283,1,8,0:0:0:0:
172,92,200419,1,0,0:0:0:0:
204,120,200489,1,0,0:0:0:0:
168,96,200555,1,0,0:0:0:0:
168,96,200692,1,8,0:0:0:0:
204,120,200830,1,0,0:0:0:0:
168,88,200965,1,0,0:0:0:0:
200,92,201034,1,0,0:0:0:0:
172,88,201101,1,8,0:0:0:0:
172,88,201237,1,0,0:0:0:0:
172,88,201374,1,0,0:0:0:0:
160,88,201510,1,8,0:0:0:0:
160,88,201578,1,8,0:0:0:0:
192,56,201646,1,0,0:0:0:0:
160,84,201784,1,8,0:0:0:0:
160,84,201921,1,8,0:0:0:0:
136,100,202057,1,4,0:0:0:0:
172,88,202329,1,8,0:0:0:0:
172,88,202466,1,8,0:0:0:0:
172,88,202534,1,8,0:0:0:0:
172,92,202602,1,0,0:0:0:0:
168,96,202738,1,0,0:0:0:0:
168,96,202875,1,8,0:0:0:0:
168,88,203148,1,0,0:0:0:0:
172,88,203284,1,8,0:0:0:0:
172,88,203352,1,8,0:0:0:0:
172,88,203420,1,0,0:0:0:0:
172,88,203557,1,8,0:0:0:0:
160,84,203693,1,0,0:0:0:0:
160,84,203761,1,0,0:0:0:0:
160,88,203829,1,0,0:0:0:0:
160,88,203966,1,8,0:0:0:0:
136,100,204238,1,0,0:0:0:0:
172,88,204510,1,8,0:0:0:0:
172,88,204647,1,8,0:0:0:0:
172,88,204715,1,8,0:0:0:0:
172,92,204783,1,0,0:0:0:0:
168,96,204919,1,0,0:0:0:0:
168,96,205056,1,8,0:0:0:0:
168,88,205329,1,0,0:0:0:0:
172,88,205465,1,8,0:0:0:0:
172,88,205533,1,8,0:0:0:0:
172,88,205601,1,0,0:0:0:0:
172,88,205738,1,8,0:0:0:0:
160,84,205874,1,0,0:0:0:0:
160,84,205942,1,0,0:0:0:0:
192,56,206011,1,0,0:0:0:0:
160,88,206079,1,0,0:0:0:0:
160,88,206147,1,8,0:0:0:0:
136,100,206420,1,0,0:0:0:0:
172,88,206692,1,8,0:0:0:0:
172,88,206829,1,8,0:0:0:0:
172,88,206897,1,8,0:0:0:0:
172,92,206965,1,0,0:0:0:0:
168,96,207101,1,0,0:0:0:0:
168,96,207238,1,8,0:0:0:0:
168,88,207511,1,0,0:0:0:0:
172,88,207647,1,8,0:0:0:0:
172,88,207715,1,8,0:0:0:0:
172,88,207783,1,0,0:0:0:0:
184,56,207852,1,0,0:0:0:0:
172,88,207920,1,8,0:0:0:0:
160,84,208056,1,0,0:0:0:0:
160,88,208192,1,0,0:0:0:0:
160,84,208261,1,0,0:0:0:0:
160,88,208329,1,8,0:0:0:0:
188,88,208466,1,0,0:0:0:0:
188,60,208602,1,8,0:0:0:0:
172,88,208670,1,8,0:0:0:0:
136,100,208738,1,0,0:0:0:0:
172,88,208873,1,0,0:0:0:0:
172,88,209010,1,8,0:0:0:0:
172,92,209146,1,0,0:0:0:0:
204,120,209216,1,0,0:0:0:0:
168,96,209282,1,0,0:0:0:0:
168,96,209419,1,8,0:0:0:0:
204,120,209557,1,0,0:0:0:0:
168,88,209692,1,0,0:0:0:0:
200,92,209761,1,0,0:0:0:0:
172,88,209828,1,8,0:0:0:0:
172,88,209964,1,0,0:0:0:0:
172,88,210101,1,0,0:0:0:0:
160,88,210237,1,8,0:0:0:0:
160,88,210373,1,8,0:0:0:0:
160,84,210511,1,8,0:0:0:0:
192,56,210580,1,8,0:0:0:0:
160,84,210648,1,8,0:0:0:0:
256,192,210784,5,4,0:0:0:0:
176,136,228239,5,4,0:0:0:0:
168,80,228511,1,8,0:0:0:0:
168,80,228648,1,0,0:0:0:0:
168,80,228716,1,0,0:0:0:0:
168,80,228784,1,8,0:0:0:0:
168,80,228921,1,0,0:0:0:0:
168,80,229057,1,8,0:0:0:0:
176,32,229193,1,0,0:0:0:0:
192,80,229261,1,8,0:0:0:0:
192,80,229330,1,0,0:0:0:0:
164,32,229466,1,0,0:0:0:0:
164,32,229602,1,8,0:0:0:0:
200,40,229739,1,8,0:0:0:0:
200,40,229807,1,8,0:0:0:0:
200,40,229875,1,0,0:0:0:0:
200,40,230011,1,0,0:0:0:0:
200,40,230148,1,8,0:0:0:0:
200,80,230284,1,8,0:0:0:0:
184,44,230421,1,0,0:0:0:0:
196,68,230693,1,8,0:0:0:0:
196,68,230830,1,0,0:0:0:0:
196,68,230898,1,0,0:0:0:0:
196,68,230966,1,0,0:0:0:0:
196,68,231102,1,8,0:0:0:0:
192,68,231239,1,8,0:0:0:0:
192,68,231307,1,8,0:0:0:0:
192,68,231375,1,0,0:0:0:0:
192,68,231443,1,0,0:0:0:0:
192,68,231511,1,8,0:0:0:0:
188,76,231648,1,0,0:0:0:0:
188,76,231784,1,8,0:0:0:0:
188,76,231921,1,0,0:0:0:0:
152,80,231989,1,0,0:0:0:0:
152,80,232057,1,0,0:0:0:0:
184,72,232193,1,0,0:0:0:0:
200,48,232330,1,8,0:0:0:0:
200,48,232398,1,0,0:0:0:0:
200,48,232466,1,8,0:0:0:0:
200,48,232534,1,0,0:0:0:0:
200,48,232602,1,0,0:0:0:0:
168,80,232875,1,8,0:0:0:0:
168,80,233012,1,0,0:0:0:0:
168,80,233080,1,8,0:0:0:0:
168,80,233148,1,8,0:0:0:0:
168,80,233285,1,0,0:0:0:0:
168,80,233421,1,8,0:0:0:0:
196,68,233489,1,8,0:0:0:0:
176,32,233557,1,0,0:0:0:0:
192,80,233625,1,8,0:0:0:0:
192,80,233694,1,0,0:0:0:0:
164,32,233830,1,0,0:0:0:0:
164,32,233966,1,8,0:0:0:0:
200,40,234034,1,0,0:0:0:0:
200,40,234103,1,8,0:0:0:0:
200,40,234239,1,0,0:0:0:0:
200,40,234375,1,0,0:0:0:0:
160,64,234443,1,0,0:0:0:0:
200,40,234512,1,8,0:0:0:0:
200,80,234648,1,0,0:0:0:0:
232,160,234784,1,8,0:0:0:0:
192,56,234853,1,8,0:0:0:0:
224,72,234921,1,0,0:0:0:0:
236,152,235057,1,0,0:0:0:0:
216,152,235194,1,8,0:0:0:0:
172,56,235331,1,0,0:0:0:0:
180,64,235399,1,0,0:0:0:0:
236,160,235466,1,0,0:0:0:0:
216,152,235603,1,8,0:0:0:0:
216,152,235740,1,0,0:0:0:0:
244,164,235876,1,0,0:0:0:0:
220,144,235944,1,0,0:0:0:0:
236,160,236012,1,8,0:0:0:0:
236,160,236148,1,0,0:0:0:0:
232,152,236217,1,0,0:0:0:0:
236,160,236284,1,0,0:0:0:0:
236,160,236421,1,8,0:0:0:0:
232,160,236455,1,8,0:0:0:0:
236,160,236557,1,8,0:0:0:0:
236,160,236694,1,0,0:0:0:0:
176,84,236727,1,0,0:0:0:0:
236,160,236830,1,0,0:0:0:0:
232,160,236966,1,8,0:0:0:0:
192,56,237035,1,8,0:0:0:0:
224,72,237103,1,0,0:0:0:0:
236,152,237239,1,0,0:0:0:0:
216,152,237376,1,8,0:0:0:0:
172,56,237513,1,0,0:0:0:0:
180,64,237581,1,0,0:0:0:0:
236,160,237648,1,0,0:0:0:0:
216,152,237785,1,8,0:0:0:0:
216,152,237922,1,0,0:0:0:0:
244,164,238058,1,0,0:0:0:0:
220,144,238126,1,0,0:0:0:0:
236,160,238194,1,8,0:0:0:0:
236,160,238330,1,0,0:0:0:0:
232,152,238399,1,0,0:0:0:0:
236,160,238466,1,0,0:0:0:0:
236,160,238603,1,8,0:0:0:0:
176,84,238739,1,0,0:0:0:0:
236,160,238807,1,0,0:0:0:0:
232,160,238875,1,8,0:0:0:0:
236,160,239012,1,8,0:0:0:0:
164,136,256602,5,4,0:0:0:0:
208,136,256875,1,8,0:0:0:0:
200,152,257011,1,0,0:0:0:0:
200,152,257080,1,0,0:0:0:0:
200,152,257148,1,0,0:0:0:0:
200,152,257284,1,0,0:0:0:0:
200,152,257421,1,8,0:0:0:0:
196,136,257693,1,0,0:0:0:0:
192,144,257830,1,0,0:0:0:0:
192,144,257898,1,0,0:0:0:0:
192,144,257966,1,8,0:0:0:0:
192,144,258102,1,0,0:0:0:0:
188,144,258239,1,8,0:0:0:0:
188,144,258307,1,8,0:0:0:0:
188,144,258375,1,0,0:0:0:0:
184,144,258511,1,8,0:0:0:0:
156,64,258784,1,0,0:0:0:0:
208,136,259057,1,8,0:0:0:0:
200,152,259193,1,0,0:0:0:0:
200,152,259261,1,0,0:0:0:0:
200,152,259330,1,0,0:0:0:0:
200,152,259466,1,0,0:0:0:0:
200,152,259602,1,8,0:0:0:0:
196,136,259875,1,0,0:0:0:0:
192,144,259943,1,0,0:0:0:0:
192,144,260011,1,0,0:0:0:0:
192,144,260148,1,8,0:0:0:0:
192,144,260284,1,0,0:0:0:0:
176,76,260352,1,0,0:0:0:0:
188,144,260421,1,8,0:0:0:0:
188,144,260489,1,8,0:0:0:0:
188,144,260557,1,0,0:0:0:0:
184,144,260693,1,8,0:0:0:0:
152,76,260830,1,0,0:0:0:0:
148,80,260898,1,8,0:0:0:0:
156,64,260966,1,0,0:0:0:0:
208,136,261239,1,8,0:0:0:0:
200,152,261375,1,0,0:0:0:0:
200,152,261511,1,0,0:0:0:0:
200,152,261580,1,0,0:0:0:0:
200,152,261648,1,0,0:0:0:0:
200,152,261784,1,8,0:0:0:0:
196,136,262057,1,0,0:0:0:0:
192,144,262125,1,0,0:0:0:0:
192,144,262193,1,0,0:0:0:0:
192,144,262330,1,8,0:0:0:0:
192,144,262466,1,0,0:0:0:0:
188,144,262602,1,8,0:0:0:0:
188,144,262671,1,8,0:0:0:0:
188,144,262739,1,0,0:0:0:0:
168,84,262807,1,0,0:0:0:0:
184,144,262875,1,8,0:0:0:0:
168,84,263011,1,0,0:0:0:0:
168,84,263148,1,8,0:0:0:0:
168,84,263216,1,8,0:0:0:0:
168,84,263284,1,0,0:0:0:0:
200,152,263421,1,0,0:0:0:0:
208,136,263557,1,8,0:0:0:0:
200,152,263693,1,0,0:0:0:0:
200,152,263761,1,0,0:0:0:0:
200,152,263830,1,0,0:0:0:0:
200,152,263966,1,8,0:0:0:0:
176,76,264102,1,0,0:0:0:0:
196,136,264239,1,0,0:0:0:0:
192,144,264307,1,0,0:0:0:0:
192,144,264375,1,8,0:0:0:0:
192,144,264511,1,0,0:0:0:0:
192,144,264648,1,0,0:0:0:0:
188,144,264784,1,8,0:0:0:0:
188,144,264852,1,8,0:0:0:0:
188,144,264921,1,0,0:0:0:0:
184,144,265057,1,8,0:0:0:0:
152,76,265091,1,8,0:0:0:0:
148,80,265193,1,0,0:0:0:0:
164,136,265330,5,4,0:0:0:0:
208,136,265602,1,8,0:0:0:0:
200,152,265739,1,0,0:0:0:0:
200,152,265807,1,0,0:0:0:0:
200,152,265875,1,0,0:0:0:0:
200,152,266011,1,0,0:0:0:0:
200,152,266148,1,8,0:0:0:0:
196,136,266421,1,0,0:0:0:0:
192,144,266557,1,0,0:0:0:0:
192,144,266625,1,0,0:0:0:0:
192,144,266693,1,8,0:0:0:0:
192,144,266830,1,0,0:0:0:0:
188,144,266966,1,8,0:0:0:0:
188,144,267034,1,8,0:0:0:0:
188,144,267102,1,0,0:0:0:0:
184,144,267239,1,8,0:0:0:0:
156,64,267511,1,0,0:0:0:0:
208,136,267784,1,8,0:0:0:0:
200,152,267921,1,0,0:0:0:0:
200,152,267989,1,0,0:0:0:0:
200,152,268057,1,0,0:0:0:0:
200,152,268193,1,0,0:0:0:0:
200,152,268330,1,8,0:0:0:0:
196,136,268602,1,0,0:0:0:0:
192,144,268671,1,0,0:0:0:0:
192,144,268739,1,0,0:0:0:0:
192,144,268875,1,8,0:0:0:0:
192,144,269011,1,0,0:0:0:0:
188,144,269148,1,8,0:0:0:0:
188,144,269216,1,0,0:0:0:0:
188,144,269284,1,0,0:0:0:0:
176,76,269352,1,0,0:0:0:0:
184,144,269421,1,8,0:0:0:0:
148,80,269489,1,8,0:0:0:0:
152,76,269557,1,0,0:0:0:0:
156,64,269693,1,0,0:0:0:0:
208,136,269966,1,8,0:0:0:0:
200,152,270102,1,0,0:0:0:0:
200,152,270239,1,0,0:0:0:0:
200,152,270307,1,0,0:0:0:0:
200,152,270375,1,0,0:0:0:0:
200,152,270511,1,8,0:0:0:0:
196,136,270784,1,0,0:0:0:0:
192,144,270852,1,0,0:0:0:0:
192,144,270921,1,0,0:0:0:0:
192,144,271057,1,8,0:0:0:0:
192,144,271193,1,0,0:0:0:0:
188,144,271261,1,0,0:0:0:0:
188,144,271330,1,8,0:0:0:0:
160,72,271398,1,8,0:0:0:0:
188,144,271466,1,0,0:0:0:0:
168,84,271534,1,0,0:0:0:0:
184,144,271602,1,8,0:0:0:0:
168,84,271739,1,0,0:0:0:0:
168,84,271875,1,8,0:0:0:0:
168,84,271943,1,8,0:0:0:0:
168,84,272011,1,0,0:0:0:0:
200,152,272148,1,0,0:0:0:0:
208,136,272284,1,8,0:0:0:0:
200,152,272421,1,0,0:0:0:0:
200,152,272489,1,0,0:0:0:0:
200,152,272557,1,0,0:0:0:0:
200,152,272693,1,8,0:0:0:0:
176,76,272830,1,0,0:0:0:0:
196,136,272966,1,0,0:0:0:0:
192,144,273034,1,0,0:0:0:0:
192,144,273102,1,8,0:0:0:0:
192,144,273239,1,0,0:0:0:0:
192,144,273375,1,0,0:0:0:0:
188,144,273511,1,8,0:0:0:0:
188,144,273580,1,8,0:0:0:0:
188,144,273648,1,8,0:0:0:0:
176,124,273716,1,8,0:0:0:0:
184,144,273784,1,0,0:0:0:0:
152,76,273852,1,0,0:0:0:0:
148,80,273921,1,0,0:0:0:0:
156,64,274057,1,0,0:0:0:0:
128,148,282784,5,4,0:0:0:0:
176,108,282921,1,8,0:0:0:0:
176,108,282989,1,8,0:0:0:0:
176,108,283057,1,8,0:0:0:0:
176,108,283193,1,8,0:0:0:0:
176,108,283330,1,0,0:0:0:0:
168,36,283398,1,0,0:0:0:0:
168,36,283466,1,0,0:0:0:0:
168,68,283602,1,8,0:0:0:0:
176,80,283739,1,8,0:0:0:0:
176,80,283807,1,8,0:0:0:0:
176,80,283875,1,0,0:0:0:0:
168,84,284011,1,8,0:0:0:0:
208,20,284148,1,0,0:0:0:0:
208,20,284216,1,0,0:0:0:0:
208,20,284284,1,0,0:0:0:0:
200,20,284421,1,8,0:0:0:0:
200,24,284557,1,0,0:0:0:0:
196,24,284625,1,0,0:0:0:0:
196,24,284693,1,8,0:0:0:0:
196,24,284830,1,0,0:0:0:0:
128,148,284966,5,8,0:0:0:0:
176,108,285034,1,8,0:0:0:0:
176,108,285102,1,8,0:0:0:0:
176,108,285239,1,8,0:0:0:0:
176,108,285375,1,8,0:0:0:0:
168,36,285443,1,8,0:0:0:0:
176,108,285511,1,0,0:0:0:0:
168,36,285648,1,0,0:0:0:0:
168,68,285784,1,8,0:0:0:0:
240,48,285852,1,0,0:0:0:0:
176,80,285921,1,8,0:0:0:0:
176,80,285989,1,8,0:0:0:0:
176,80,286057,1,0,0:0:0:0:
168,84,286193,1,8,0:0:0:0:
208,20,286330,1,0,0:0:0:0:
208,20,286398,1,0,0:0:0:0:
208,20,286466,1,0,0:0:0:0:
200,20,286602,1,8,0:0:0:0:
248,48,286739,1,8,0:0:0:0:
196,24,286807,1,8,0:0:0:0:
196,24,286875,1,8,0:0:0:0:
200,24,286943,1,8,0:0:0:0:
196,24,287011,1,8,0:0:0:0:
200,144,287080,1,8,0:0:0:0:
128,148,287148,5,0,0:0:0:0:
176,108,287284,1,8,0:0:0:0:
176,108,287352,1,8,0:0:0:0:
176,108,287421,1,8,0:0:0:0:
176,108,287557,1,8,0:0:0:0:
176,108,287693,1,0,0:0:0:0:
168,36,287761,1,0,0:0:0:0:
168,36,287830,1,0,0:0:0:0:
168,68,287966,1,8,0:0:0:0:
192,84,288034,1,0,0:0:0:0:
176,80,288102,1,8,0:0:0:0:
176,80,288171,1,8,0:0:0:0:
176,80,288239,1,0,0:0:0:0:
168,84,288375,1,8,0:0:0:0:
208,20,288511,1,0,0:0:0:0:
208,20,288580,1,0,0:0:0:0:
208,20,288648,1,0,0:0:0:0:
200,20,288784,1,8,0:0:0:0:
200,24,288921,1,0,0:0:0:0:
196,24,288989,1,0,0:0:0:0:
196,24,289057,1,8,0:0:0:0:
188,60,289125,1,8,0:0:0:0:
196,24,289193,1,0,0:0:0:0:
128,148,289330,5,8,0:0:0:0:
176,108,289466,1,8,0:0:0:0:
176,108,289534,1,8,0:0:0:0:
176,108,289602,1,8,0:0:0:0:
176,108,289739,1,8,0:0:0:0:
176,108,289875,1,0,0:0:0:0:
168,36,289943,1,0,0:0:0:0:
168,36,290011,1,0,0:0:0:0:
240,48,290080,1,0,0:0:0:0:
168,68,290148,1,8,0:0:0:0:
176,80,290284,1,0,0:0:0:0:
176,80,290421,1,8,0:0:0:0:
168,84,290557,1,8,0:0:0:0:
136,80,290625,1,8,0:0:0:0:
208,20,290693,1,0,0:0:0:0:
208,20,290830,1,0,0:0:0:0:
200,20,290966,1,0,0:0:0:0:
220,88,291034,1,0,0:0:0:0:
248,48,291102,1,0,0:0:0:0:
196,24,291171,1,0,0:0:0:0:
196,24,291239,1,8,0:0:0:0:
200,24,291307,1,8,0:0:0:0:
196,24,291375,1,8,0:0:0:0:
200,144,291443,1,8,0:0:0:0:
196,148,291511,1,4,0:0:0:0:
216,108,291648,1,0,0:0:0:0:
208,148,291784,1,8,0:0:0:0:
208,152,291921,1,0,0:0:0:0:
208,152,291989,1,0,0:0:0:0:
208,152,292057,1,0,0:0:0:0:
180,112,292193,1,0,0:0:0:0:
180,112,292330,1,8,0:0:0:0:
216,112,292398,1,8,0:0:0:0:
212,112,292466,1,0,0:0:0:0:
196,148,292602,1,0,0:0:0:0:
216,108,292739,1,0,0:0:0:0:
208,148,292875,1,8,0:0:0:0:
208,152,293011,1,0,0:0:0:0:
208,152,293148,1,0,0:0:0:0:
208,152,293216,1,0,0:0:0:0:
180,112,293284,1,0,0:0:0:0:
180,112,293421,1,8,0:0:0:0:
212,112,293557,1,0,0:0:0:0:
216,112,293625,1,8,0:0:0:0:
196,148,293693,1,0,0:0:0:0:
216,108,293830,1,0,0:0:0:0:
208,148,293966,1,8,0:0:0:0:
208,152,294102,1,0,0:0:0:0:
208,152,294171,1,0,0:0:0:0:
208,152,294239,1,0,0:0:0:0:
180,112,294375,1,0,0:0:0:0:
180,112,294511,1,8,0:0:0:0:
216,112,294580,1,8,0:0:0:0:
212,112,294648,1,0,0:0:0:0:
132,144,294716,1,0,0:0:0:0:
196,148,294784,1,0,0:0:0:0:
216,108,294921,1,0,0:0:0:0:
208,148,295057,1,8,0:0:0:0:
208,152,295193,1,0,0:0:0:0:
208,152,295330,1,0,0:0:0:0:
208,152,295398,1,0,0:0:0:0:
180,112,295466,1,0,0:0:0:0:
216,112,295534,1,0,0:0:0:0:
180,112,295602,1,8,0:0:0:0:
212,112,295739,1,0,0:0:0:0:
196,148,295875,1,0,0:0:0:0:
216,108,296011,1,0,0:0:0:0:
208,152,296080,1,0,0:0:0:0:
208,148,296148,1,8,0:0:0:0:
208,152,296284,1,0,0:0:0:0:
208,152,296421,1,0,0:0:0:0:
176,68,296489,1,0,0:0:0:0:
180,112,296557,1,0,0:0:0:0:
180,112,296693,1,8,0:0:0:0:
212,112,296830,1,8,0:0:0:0:
216,112,296898,1,8,0:0:0:0:
196,116,296966,1,0,0:0:0:0:
184,108,297102,1,0,0:0:0:0:
176,104,297171,1,0,0:0:0:0:
180,112,297239,1,8,0:0:0:0:
188,120,297375,1,0,0:0:0:0:
184,116,297511,1,8,0:0:0:0:
200,96,297580,1,8,0:0:0:0:
200,96,297648,1,0,0:0:0:0:
200,96,297784,1,8,0:0:0:0:
200,96,297921,1,0,0:0:0:0:
168,104,298057,1,8,0:0:0:0:
172,104,298125,1,8,0:0:0:0:
168,120,298193,1,0,0:0:0:0:
168,120,298261,1,0,0:0:0:0:
168,120,298330,1,8,0:0:0:0:
168,120,298398,1,0,0:0:0:0:
160,136,298466,1,8,0:0:0:0:
164,136,298534,1,8,0:0:0:0:
160,132,298602,1,0,0:0:0:0:
160,132,298671,1,8,0:0:0:0:
160,104,298739,1,0,0:0:0:0:
156,96,298807,1,0,0:0:0:0:
168,104,298875,1,8,0:0:0:0:
172,104,298943,1,8,0:0:0:0:
168,120,299011,1,0,0:0:0:0:
168,120,299080,1,0,0:0:0:0:
168,120,299148,1,8,0:0:0:0:
168,120,299216,1,0,0:0:0:0:
160,136,299284,1,8,0:0:0:0:
164,136,299352,1,8,0:0:0:0:
160,132,299421,1,0,0:0:0:0:
160,132,299489,1,8,0:0:0:0:
160,104,299557,1,0,0:0:0:0:
156,96,299625,1,0,0:0:0:0:
168,104,299693,1,8,0:0:0:0:
172,104,299761,1,8,0:0:0:0:
168,120,299830,1,0,0:0:0:0:
168,120,299898,1,0,0:0:0:0:
168,120,299966,1,8,0:0:0:0:
168,120,300034,1,0,0:0:0:0:
160,136,300102,1,8,0:0:0:0:
164,136,317693,5,4,0:0:0:0:
208,136,317966,1,8,0:0:0:0:
200,152,318102,1,0,0:0:0:0:
200,152,318171,1,0,0:0:0:0:
200,152,318239,1,0,0:0:0:0:
200,152,318375,1,0,0:0:0:0:
200,152,318512,1,8,0:0:0:0:
196,136,318784,1,0,0:0:0:0:
192,144,318921,1,0,0:0:0:0:
192,144,318989,1,0,0:0:0:0:
192,144,319057,1,8,0:0:0:0:
192,144,319193,1,0,0:0:0:0:
188,144,319330,1,8,0:0:0:0:
188,144,319398,1,8,0:0:0:0:
188,144,319466,1,0,0:0:0:0:
184,144,319602,1,8,0:0:0:0:
156,64,319875,1,0,0:0:0:0:
208,136,320148,1,8,0:0:0:0:
200,152,320284,1,0,0:0:0:0:
200,152,320353,1,0,0:0:0:0:
200,152,320421,1,0,0:0:0:0:
200,152,320557,1,0,0:0:0:0:
200,152,320694,1,8,0:0:0:0:
196,136,320966,1,0,0:0:0:0:
192,144,321034,1,0,0:0:0:0:
192,144,321103,1,0,0:0:0:0:
192,144,321239,1,8,0:0:0:0:
192,144,321375,1,0,0:0:0:0:
176,76,321443,1,0,0:0:0:0:
188,144,321512,1,8,0:0:0:0:
188,144,321580,1,8,0:0:0:0:
188,144,321648,1,0,0:0:0:0:
184,144,321784,1,8,0:0:0:0:
152,76,321921,1,0,0:0:0:0:
148,80,321989,1,8,0:0:0:0:
156,64,322057,1,0,0:0:0:0:
208,136,322330,1,8,0:0:0:0:
200,152,322466,1,0,0:0:0:0:
200,152,322603,1,0,0:0:0:0:
200,152,322671,1,0,0:0:0:0:
200,152,322739,1,0,0:0:0:0:
200,152,322876,1,8,0:0:0:0:
196,136,323148,1,0,0:0:0:0:
192,144,323216,1,0,0:0:0:0:
192,144,323285,1,0,0:0:0:0:
192,144,323421,1,8,0:0:0:0:
192,144,323557,1,0,0:0:0:0:
188,144,323694,1,8,0:0:0:0:
188,144,323762,1,8,0:0:0:0:
188,144,323830,1,0,0:0:0:0:
168,84,323898,1,0,0:0:0:0:
184,144,323966,1,8,0:0:0:0:
168,84,324102,1,0,0:0:0:0:
168,84,324239,1,8,0:0:0:0:
168,84,324307,1,8,0:0:0:0:
168,84,324375,1,0,0:0:0:0:
200,152,324512,1,0,0:0:0:0:
208,136,324648,1,8,0:0:0:0:
200,152,324784,1,0,0:0:0:0:
200,152,324852,1,0,0:0:0:0:
200,152,324921,1,0,0:0:0:0:
200,152,325058,1,8,0:0:0:0:
176,76,325193,1,0,0:0:0:0:
196,136,325330,1,0,0:0:0:0:
192,144,325398,1,0,0:0:0:0:
192,144,325467,1,8,0:0:0:0:
192,144,325603,1,0,0:0:0:0:
192,144,325739,1,0,0:0:0:0:
188,144,325876,1,8,0:0:0:0:
188,144,325944,1,8,0:0:0:0:
188,144,326012,1,0,0:0:0:0:
184,144,326148,1,8,0:0:0:0:
152,76,326182,1,8,0:0:0:0:
148,80,326284,1,0,0:0:0:0:
164,136,326421,5,4,0:0:0:0:
208,136,326694,1,8,0:0:0:0:
200,152,326830,1,0,0:0:0:0:
200,152,326899,1,0,0:0:0:0:
200,152,326967,1,0,0:0:0:0:
200,152,327103,1,0,0:0:0:0:
200,152,327240,1,8,0:0:0:0:
196,136,327512,1,0,0:0:0:0:
192,144,327649,1,0,0:0:0:0:
192,144,327717,1,0,0:0:0:0:
192,144,327785,1,8,0:0:0:0:
192,144,327921,1,0,0:0:0:0:
188,144,328058,1,8,0:0:0:0:
188,144,328126,1,8,0:0:0:0:
188,144,328194,1,0,0:0:0:0:
184,144,328330,1,8,0:0:0:0:
156,64,328603,1,0,0:0:0:0:
208,136,328876,1,8,0:0:0:0:
200,152,329012,1,0,0:0:0:0:
200,152,329081,1,0,0:0:0:0:
200,152,329149,1,0,0:0:0:0:
200,152,329285,1,0,0:0:0:0:
200,152,329422,1,8,0:0:0:0:
196,136,329694,1,0,0:0:0:0:
192,144,329762,1,0,0:0:0:0:
192,144,329831,1,0,0:0:0:0:
192,144,329967,1,8,0:0:0:0:
192,144,330103,1,0,0:0:0:0:
188,144,330240,1,8,0:0:0:0:
188,144,330308,1,0,0:0:0:0:
188,144,330376,1,0,0:0:0:0:
176,76,330443,1,0,0:0:0:0:
184,144,330512,1,8,0:0:0:0:
148,80,330580,1,8,0:0:0:0:
152,76,330649,1,0,0:0:0:0:
156,64,330785,1,0,0:0:0:0:
208,136,331058,1,8,0:0:0:0:
200,152,331194,1,0,0:0:0:0:
200,152,331331,1,0,0:0:0:0:
200,152,331399,1,0,0:0:0:0:
200,152,331467,1,0,0:0:0:0:
200,152,331604,1,8,0:0:0:0:
196,136,331876,1,0,0:0:0:0:
192,144,331944,1,0,0:0:0:0:
192,144,332013,1,0,0:0:0:0:
192,144,332149,1,8,0:0:0:0:
192,144,332285,1,0,0:0:0:0:
188,144,332352,1,0,0:0:0:0:
188,144,332422,1,8,0:0:0:0:
160,72,332489,1,8,0:0:0:0:
188,144,332558,1,0,0:0:0:0:
168,84,332626,1,0,0:0:0:0:
184,144,332694,1,8,0:0:0:0:
168,84,332830,1,0,0:0:0:0:
168,84,332967,1,8,0:0:0:0:
168,84,333035,1,8,0:0:0:0:
168,84,333103,1,0,0:0:0:0:
200,152,333240,1,0,0:0:0:0:
208,136,333376,1,8,0:0:0:0:
200,152,333512,1,0,0:0:0:0:
200,152,333580,1,0,0:0:0:0:
200,152,333649,1,0,0:0:0:0:
200,152,333786,1,8,0:0:0:0:
176,76,333921,1,0,0:0:0:0:
196,136,334058,1,0,0:0:0:0:
192,144,334126,1,0,0:0:0:0:
192,144,334195,1,8,0:0:0:0:
192,144,334331,1,0,0:0:0:0:
192,144,334467,1,0,0:0:0:0:
188,144,334604,1,8,0:0:0:0:
188,144,334672,1,8,0:0:0:0:
188,144,334740,1,8,0:0:0:0:
176,124,334807,1,8,0:0:0:0:
184,144,334876,1,0,0:0:0:0:
152,76,334943,1,0,0:0:0:0:
148,80,335012,1,0,0:0:0:0:
156,64,335149,1,0,0:0:0:0:
