osu file format v14

[General]
AudioFilename: who is afraid of the big German.mp3
AudioLeadIn: 0
PreviewTime: 38095
Countdown: 0
SampleSet: Soft
StackLeniency: 0.7
Mode: 0
LetterboxInBreaks: 0
WidescreenStoryboard: 0

[Editor]
DistanceSpacing: 1.6
BeatDivisor: 4
GridSize: 4
TimelineZoom: 2

[Metadata]
Title:Willst du
TitleUnicode:Willst du
Artist:Alligatoah
ArtistUnicode:Alligatoah
Creator:Desperate-kun
Version:Wrack
Source:
Tags:Triebwerke Kaliba 69 Rap Cut Version
BeatmapID:635407
BeatmapSetID:280801

[Difficulty]
HPDrainRate:7
CircleSize:4
OverallDifficulty:7.5
ApproachRate:8.7
SliderMultiplier:2.3
SliderTickRate:2

[Events]
//Background and Video events
0,0,"bg.jpg",0,0
//Break Periods
//Storyboard Layer 0 (Background)
//Storyboard Layer 1 (Fail)
//Storyboard Layer 2 (Pass)
//Storyboard Layer 3 (Foreground)
//Storyboard Sound Samples

[TimingPoints]
119,476.190476190476,4,2,1,69,1,0
21071,-133.333333333333,4,2,1,55,0,0
22261,-100,4,2,1,69,0,0
28690,-133.333333333333,4,2,1,55,0,0
29880,-100,4,2,1,69,0,0
36309,-133.333333333333,4,2,1,55,0,0
53452,-100,4,2,1,69,0,1
68690,-100,4,2,1,69,0,0

[Colours]
Combo1 : 232,250,5
Combo2 : 90,219,4
Combo3 : 215,215,215

[HitObjects]
52,70,14880,6,0,L|111:64,1,57.5,0|0,1:0|0:0,0:0:0:0:
94,155,15118,2,0,L|153:149,1,57.5
138,241,15357,6,0,P|195:253|234:300,1,115,4|8,0:3|0:0,0:0:0:0:
311,339,15714,1,4,0:3:0:0:
357,260,15833,2,0,P|369:204|411:167,1,115,0|8,1:0|0:0,0:0:0:0:
502,179,16190,1,0,0:0:0:0:
445,252,16309,2,0,L|432:317,1,57.5,4|0,0:3|0:0,0:0:0:0:
356,358,16547,2,0,L|344:301,1,57.5,8|0,0:0|0:0,0:0:0:0:
268,249,16785,2,0,L|255:314,1,57.5,0|0,1:0|0:0,0:0:0:0:
179,355,17023,2,0,L|167:298,1,57.5,8|0,0:0|0:0,0:0:0:0:
104,142,17261,6,0,B|46:140|46:140|4:177,1,115,4|8,0:3|0:0,0:0:0:0:
77,232,17618,1,4,0:3:0:0:
167,211,17738,1,0,1:0:0:0:
241,43,17976,2,0,P|271:108|385:97,1,201.25,8|0,0:0|0:0,0:0:0:0:
392,84,18452,2,0,L|387:47,2,28.75,8|0|0,0:0|0:0|0:0,0:0:0:0:
467,136,18690,2,0,L|453:259,1,115,0|2,1:0|0:0,0:0:0:0:
496,331,19047,1,0,0:0:0:0:
384,369,19166,6,0,P|343:338|321:279,1,115,4|8,0:3|0:0,0:0:0:0:
256,214,19523,1,4,0:3:0:0:
191,280,19642,2,0,P|173:334|129:370,2,115,0|8|4,1:0|0:0|0:3,0:0:0:0:
163,97,20357,1,8,0:0:0:0:
333,26,20595,2,0,L|326:86,1,57.5,0|0,1:0|0:0,0:0:0:0:
375,160,20833,2,0,L|368:220,1,57.5,8|0,0:0|0:0,0:0:0:0:
417,294,21071,6,4,L|405:383,1,86.2500032901765,4|0,0:3|0:0,0:3:0:0:
279,322,21547,2,0,L|267:236,2,86.2500032901765,2|0|0,0:0|0:0|0:0,0:0:0:0:
100,367,22261,6,0,L|67:365,2,28.75,8|0|0,0:0|0:0|0:0,0:0:0:0:
165,301,22499,1,2,1:2:0:0:
99,236,22618,2,0,P|75:183|78:122,1,115,4|0,0:3|0:0,0:0:0:0:
211,51,22976,6,0,P|212:108|188:159,1,115,4|8,0:3|0:0,0:0:0:0:
234,239,23333,1,4,0:3:0:0:
318,202,23452,2,0,L|326:139,1,57.5,0|0,1:0|0:0,0:0:0:0:
416,136,23690,2,0,L|408:193,1,57.5,8|0,0:0|0:0,0:0:0:0:
456,271,23928,2,0,L|426:324,1,57.5,4|0,0:3|0:0,0:0:0:0:
341,352,24166,2,0,L|312:301,1,57.5,8|0,0:0|0:0,0:0:0:0:
228,264,24404,2,0,P|178:297|112:297,1,115,0|8,1:0|0:0,0:0:0:0:
42,258,24761,1,0,0:0:0:0:
54,124,24880,6,0,B|102:156|102:156|121:211,1,115,4|8,0:3|0:0,0:0:0:0:
206,175,25238,1,4,0:3:0:0:
228,264,25357,2,0,L|222:327,1,57.5,0|0,1:0|0:0,0:0:0:0:
311,299,25595,2,0,L|317:362,1,57.5,8|0,0:0|0:0,0:0:0:0:
400,319,25833,2,0,L|422:372,1,57.5,4|0,0:3|0:0,0:0:0:0:
490,310,26071,2,0,L|494:268,2,28.75,8|0|0,0:0|0:0|0:0,0:0:0:0:
419,238,26309,2,0,P|405:180|438:135,1,115,0|8,1:0|0:0,0:0:0:0:
450,129,26785,6,0,L|334:148,1,115,4|8,0:3|0:0,0:0:0:0:
256,101,27142,1,4,0:3:0:0:
175,147,27261,2,0,L|62:129,1,115,0|8,1:0|0:0,0:0:0:0:
41,218,27618,1,0,0:0:0:0:
114,274,27738,2,0,L|173:265,1,57.5,4|0,0:3|0:0,0:0:0:0:
260,284,27976,2,0,L|254:345,1,57.5,8|0,0:0|0:0,0:0:0:0:
344,357,28214,2,0,P|392:338|454:347,1,115,0|8,1:0|0:0,0:0:0:0:
506,218,28690,6,0,P|466:236|423:237,1,86.2500032901765,4|0,0:3|0:0,0:0:0:0:
404,228,29047,1,4,0:3:0:0:
384,219,29166,1,0,1:0:0:0:
366,82,29404,2,0,P|408:83|448:100,1,86.2500032901765,4|0,0:3|0:0,0:0:0:0:
274,161,29880,6,0,L|234:166,2,28.75,8|0|0,0:0|0:0|0:0,0:0:0:0:
243,74,30118,2,0,B|201:78|201:78|179:100|179:100|134:105,1,115,0|8,1:0|0:0,0:0:0:0:
78,279,30595,6,0,P|117:323|180:334,1,115,4|8,0:3|0:0,0:0:0:0:
256,305,30952,1,4,0:3:0:0:
341,274,31071,2,0,P|395:287|433:330,1,115,0|8,1:0|0:0,0:0:0:0:
388,151,31547,2,0,L|272:160,1,115,4|8,0:3|0:0,0:0:0:0:
439,25,32023,2,0,L|323:34,1,115,0|8,1:0|0:0,0:0:0:0:
166,172,32499,5,4,0:3:0:0:
25,51,32738,2,0,L|35:119,1,57.5,8|4,0:0|0:3,0:0:0:0:
15,198,32976,2,0,P|32:252|76:291,1,115,0|8,1:0|0:0,0:0:0:0:
254,329,33452,1,4,0:3:0:0:
315,155,33690,2,0,L|326:124,2,28.75,8|0|0,0:0|0:0|0:0,0:0:0:0:
284,241,33928,1,0,1:0:0:0:
223,67,34166,1,8,0:0:0:0:
406,62,34404,6,0,P|438:112|441:168,1,115,4|8,0:3|0:0,0:0:0:0:
408,252,34761,1,4,0:3:0:0:
375,338,34880,1,0,1:0:0:0:
256,197,35118,1,8,0:0:0:0:
137,338,35357,2,0,B|78:342|78:342|31:309,1,115,4|8,0:3|0:0,0:0:0:0:
9,127,35833,2,0,B|68:123|68:123|115:156,1,115,0|8,1:0|0:0,0:0:0:0:
256,320,36309,5,4,0:3:0:0:
256,320,36428,1,0,0:0:0:0:
375,251,36666,2,0,P|397:203|374:133,1,129.375004935265,2|0,0:0|0:0,0:0:0:0:
256,64,37261,1,2,0:0:0:0:
256,64,37738,2,0,L|256:158,1,86.2500032901765,2|0,0:0|0:0,0:0:0:0:
256,236,38214,6,0,P|200:374|81:284,1,345.000013160706,4|0,0:0|0:0,0:0:0:0:
36,211,39404,1,2,0:0:0:0:
71,131,39642,1,0,0:0:0:0:
158,120,39880,1,2,0:0:0:0:
210,191,40118,2,0,P|261:219|371:183,1,172.500006580353,4|2,0:0|0:0,0:0:0:0:
417,119,40833,1,0,0:0:0:0:
468,50,41071,2,0,L|444:231,1,172.500006580353,2|2,0:0|0:0,0:0:0:0:
478,301,41785,2,0,B|384:301|361:397|430:399|490:362|422:291|341:337,1,258.75000987053
300,261,42738,5,2,0:0:0:0:
213,261,42976,1,0,0:0:0:0:
170,337,43214,1,2,0:0:0:0:
84,337,43452,1,0,0:0:0:0:
41,260,43690,1,2,0:0:0:0:
84,183,43928,2,0,B|100:88|37:110|54:13,1,172.500006580353,4|2,0:0|0:0,0:0:0:0:
225,23,44880,2,0,B|208:114|271:92|255:187,1,172.500006580353,2|2,0:0|0:0,0:0:0:0:
203,256,45595,2,0,P|252:348|308:255,1,258.75000987053
376,201,46547,5,2,0:0:0:0:
362,117,46785,1,0,0:0:0:0:
298,62,47023,1,2,0:0:0:0:
213,62,47261,1,0,0:0:0:0:
149,117,47499,1,2,0:0:0:0:
135,200,47738,2,0,P|116:253|1:272,1,172.500006580353,4|2,0:0|0:0,0:0:0:0:
49,199,48452,1,0,0:0:0:0:
63,114,48690,1,2,0:0:0:0:
256,44,49166,1,2,0:0:0:0:
449,114,49642,6,0,B|470:148|462:204|424:229|424:229|385:261|381:314|401:345|401:345|363:322|316:331,1,345.000013160706,4|0,0:0|0:0,0:0:0:0:
256,269,50833,1,2,0:0:0:0:
193,330,51071,1,0,0:0:0:0:
110,307,51309,1,2,0:0:0:0:
172,245,51547,2,0,P|186:184|123:98,1,172.500006580353,4|2,0:0|0:0,0:0:0:0:
82,195,52261,1,4,0:3:0:0:
22,109,52499,1,2,0:0:0:0:
85,26,52738,1,4,0:3:0:0:
184,61,52976,1,0,1:0:0:0:
184,61,53095,1,4,0:3:0:0:
427,26,53452,6,0,P|401:91|430:193,1,172.5,4|4,0:0|0:3,0:0:0:0:
488,254,53928,1,0,1:0:0:0:
328,345,54166,1,4,0:3:0:0:
215,199,54404,2,0,P|156:194|88:228,1,115,0|8,0:0|0:0,0:0:0:0:
272,272,54880,1,0,1:0:0:0:
373,118,55118,1,8,0:0:0:0:
195,65,55357,6,0,P|136:60|68:94,1,115,4|0,0:3|0:0,0:0:0:0:
29,153,55714,1,4,0:3:0:0:
58,240,55833,2,0,P|53:299|14:347,1,115,0|4,1:0|0:3,0:0:0:0:
161,176,56309,2,0,L|186:271,1,86.25
195,267,56547,2,0,L|191:306,2,28.75,8|0|0,0:0|0:0|0:0,0:0:0:0:
269,213,56785,2,0,P|274:154|313:106,1,115,0|8,1:0|0:0,0:0:0:0:
469,237,57261,6,0,P|464:296|425:344,1,115,4|0,0:0|0:0,0:0:0:0:
339,347,57618,1,4,0:3:0:0:
369,259,57738,1,0,1:0:0:0:
424,83,57976,1,4,0:3:0:0:
256,159,58214,2,0,P|217:163|138:128,1,115,0|8,0:0|0:0,0:0:0:0:
321,81,58690,1,0,1:0:0:0:
369,259,58928,1,8,0:0:0:0:
206,345,59166,6,0,P|167:349|88:314,1,115,4|0,0:3|0:0,0:0:0:0:
61,237,59523,1,4,0:3:0:0:
25,152,59642,2,0,P|80:161|135:145,1,115,0|4,1:0|0:3,0:0:0:0:
285,38,60118,1,0,0:0:0:0:
256,221,60357,2,0,L|249:270,2,28.75,8|0|0,0:0|0:0|0:0,0:0:0:0:
329,166,60595,2,0,P|385:164|437:188,1,115,0|8,1:0|0:0,0:0:0:0:
348,349,61071,6,0,L|227:363,1,115,4|0,0:0|0:0,0:0:0:0:
144,339,61428,1,4,0:3:0:0:
54,317,61547,1,0,1:0:0:0:
13,137,61785,1,4,0:3:0:0:
184,69,62023,2,0,P|196:128|179:186,1,115,0|8,0:0|0:0,0:0:0:0:
256,348,62499,1,0,1:0:0:0:
329,180,62738,1,8,0:0:0:0:
198,308,62976,6,0,L|320:307,1,115,4|0,0:3|0:0,0:0:0:0:
398,273,63333,1,4,0:3:0:0:
426,185,63452,2,0,P|411:129|422:73,1,115,0|4,1:0|0:3,0:0:0:0:
256,155,63928,1,0,0:0:0:0:
398,273,64166,2,0,L|428:273,2,28.75,8|0|0,0:0|0:0|0:0,0:0:0:0:
312,307,64404,2,0,L|198:308,1,115,0|8,1:0|0:0,0:0:0:0:
37,217,64880,6,0,P|97:222|148:199,1,115,4|0,0:0|0:0,0:0:0:0:
201,126,65238,1,4,0:3:0:0:
256,52,65357,1,0,1:0:0:0:
365,200,65595,1,4,0:3:0:0:
256,348,65833,1,0,0:0:0:0:
281,165,66071,1,8,0:0:0:0:
353,108,66190,1,0,0:0:0:0:
437,143,66309,2,0,P|456:199|436:261,1,115,0|8,1:0|0:0,0:0:0:0:
360,292,66666,1,0,0:0:0:0:
236,250,66785,6,0,B|177:250|177:250|128:279,1,115,4|0,0:3|0:0,0:0:0:0:
41,250,67142,1,4,0:3:0:0:
76,164,67261,2,0,P|134:165|185:138,1,115,0|4,1:0|0:3,0:0:0:0:
332,30,67738,1,0,0:0:0:0:
437,180,67976,2,0,L|442:218,2,28.75,8|0|0,0:0|0:0|0:0,0:0:0:0:
350,148,68214,2,0,L|340:266,2,115,0|8|2,1:0|0:0|0:0,0:0:0:0:
