osu file format v14

[General]
AudioFilename: who is afraid of the big German.mp3
AudioLeadIn: 0
PreviewTime: 38095
Countdown: 0
SampleSet: Soft
StackLeniency: 0.7
Mode: 0
LetterboxInBreaks: 0
WidescreenStoryboard: 0

[Editor]
Bookmarks: 14894,68704
DistanceSpacing: 1.3
BeatDivisor: 4
GridSize: 4
TimelineZoom: 2

[Metadata]
Title:Willst du
TitleUnicode:Willst du
Artist:Alligatoah
ArtistUnicode:Alligatoah
Creator:Desperate-kun
Version:Normal
Source:
Tags:Triebwerke Kaliba 69 Rap Cut Version
BeatmapID:635513
BeatmapSetID:280801

[Difficulty]
HPDrainRate:4
CircleSize:3.5
OverallDifficulty:4
ApproachRate:5
SliderMultiplier:1.3
SliderTickRate:2

[Events]
//Background and Video events
0,0,"bg.jpg",0,0
//Break Periods
//Storyboard Layer 0 (Background)
//Storyboard Layer 1 (Fail)
//Storyboard Layer 2 (Pass)
//Storyboard Layer 3 (Foreground)
//Storyboard Sound Samples

[TimingPoints]
119,476.190476190476,4,2,1,69,1,0
21071,-117.647058823529,4,2,1,55,0,0
22261,-100,4,2,1,69,0,0
28690,-117.647058823529,4,2,1,55,0,0
29880,-100,4,2,1,69,0,0
36309,-117.647058823529,4,2,1,55,0,0
53452,-100,4,2,1,69,0,1
68690,-100,4,2,1,69,0,0

[Colours]
Combo1 : 232,250,5
Combo2 : 90,219,4
Combo3 : 215,215,215

[HitObjects]
71,173,14880,5,0,1:0:0:0:
225,104,15357,2,0,L|213:244,1,130,4|0,0:3|1:0,0:0:0:0:
247,311,16071,1,8,0:0:0:0:
328,334,16309,2,0,P|379:327|437:275,1,130,4|0,0:3|1:0,0:0:0:0:
436,107,17261,6,0,P|390:62|328:50,1,130,4|0,0:3|1:0,0:0:0:0:
269,111,17976,2,0,P|201:129|144:111,1,130,8|8,0:0|0:0,0:0:0:0:
96,42,18690,1,0,1:0:0:0:
18,192,19166,6,0,B|29:238|29:238|60:253|60:253|72:301,1,130,4|0,0:3|1:0,0:0:0:0:
142,345,19880,2,0,P|206:346|269:302,1,130,8|8,0:0|0:0,0:0:0:0:
285,230,20595,1,0,1:0:0:0:
421,185,21071,6,0,L|413:301,2,110.50000210762,4|2|0,0:3|0:0|0:0,0:0:0:0:
394,104,22261,2,0,L|398:39,1,65,8|2,0:0|1:2,0:0:0:0:
228,37,22976,6,0,P|160:44|112:91,1,130,4|0,0:3|1:0,0:0:0:0:
96,166,23690,1,8,0:0:0:0:
131,242,23928,2,0,L|190:280,1,65,4|8,0:3|0:0,0:0:0:0:
266,300,24404,2,0,L|325:262,1,65,0|8,1:0|0:0,0:0:0:0:
366,193,24880,6,0,B|406:184|406:184|445:200|445:200|493:189,1,130,4|0,0:3|1:0,0:0:0:0:
511,107,25595,1,8,0:0:0:0:
430,80,25833,2,0,B|384:90|384:90|345:74|345:74|305:83,1,130,4|0,0:3|1:0,0:0:0:0:
142,38,26785,6,0,P|118:88|40:116,1,130,4|0,0:3|1:0,0:0:0:0:
15,192,27499,1,8,0:0:0:0:
52,267,27738,2,0,P|111:289|142:346,1,130,4|0,0:3|1:0,0:0:0:0:
256,258,28690,6,0,L|256:138,2,110.50000210762,4|0|0,0:3|1:0|0:0,0:0:0:0:
303,327,29880,2,0,P|330:333|370:332,1,65,8|0,0:0|1:0,0:0:0:0:
481,207,30595,6,0,P|482:140|443:82,1,130,4|0,0:3|1:0,0:0:0:0:
372,53,31309,1,8,0:0:0:0:
310,110,31547,1,4,0:3:0:0:
146,66,32023,2,0,P|112:68|76:82,1,65,0|8,1:0|0:0,0:0:0:0:
37,149,32499,5,4,0:3:0:0:
71,226,32738,2,0,P|117:247|198:233,1,130,8|8,0:0|0:0,0:0:0:0:
256,179,33452,1,4,0:3:0:0:
414,237,33928,2,0,L|423:303,1,65,0|8,1:0|0:0,0:0:0:0:
356,353,34404,5,4,0:3:0:0:
296,292,34642,2,0,B|289:243|289:243|305:216|305:216|298:164,1,130,8|8,0:0|0:0,0:0:0:0:
272,86,35357,2,0,P|245:67|205:60,1,65,4|8,0:3|0:0,0:0:0:0:
130,67,35833,2,0,L|2:98,1,130,0|4,1:0|0:3,0:0:0:0:
320,311,38214,6,0,P|392:377|446:296,1,221.000004215241,4|0,0:0|0:0,0:0:0:0:
436,223,39404,2,0,L|441:166,2,55.2500010538101,2|0|2,0:0|0:0|0:0,0:0:0:0:
379,270,40118,2,0,P|336:252|307:195,1,110.50000210762,4|2,0:0|0:0,0:0:0:0:
256,62,41071,1,2,0:0:0:0:
204,197,41547,2,0,P|133:269|48:193,1,221.000004215241,2|0,0:0|0:0,0:0:0:0:
33,138,42738,5,2,0:0:0:0:
60,70,42976,2,0,P|112:43|164:50,1,110.50000210762,0|0,0:0|0:0,0:0:0:0:
209,106,43690,1,2,0:0:0:0:
258,162,43928,2,0,P|312:167|359:141,1,110.50000210762,4|2,0:0|0:0,0:0:0:0:
478,59,44880,1,2,0:0:0:0:
481,203,45357,2,0,P|455:268|319:294,1,221.000004215241,2|0,0:0|0:0,0:0:0:0:
256,256,46547,5,2,0:0:0:0:
193,293,46785,2,0,P|139:303|68:272,1,110.50000210762,0|0,0:0|0:0,0:0:0:0:
39,232,47499,1,2,0:0:0:0:
26,160,47738,2,0,L|51:44,1,110.50000210762,4|2,0:0|0:0,0:0:0:0:
191,29,48690,2,0,L|167:137,1,110.50000210762,2|2,0:0|0:0,0:0:0:0:
184,279,49642,6,0,P|204:327|327:276,1,221.000004215241,4|0,0:0|0:0,0:0:0:0:
307,208,50833,2,0,L|247:187,2,55.2500010538101,2|0|2,0:0|0:0|0:0,0:0:0:0:
369,168,51547,2,0,P|382:128|311:36,1,165.75000316143,4|4,0:0|0:3,0:0:0:0:
242,39,52499,2,0,L|132:52,1,110.50000210762,2|0,0:0|1:0,0:0:0:0:
48,199,53452,6,0,P|65:267|116:308,1,130,4|0,0:0|1:0,0:0:0:0:
189,329,54166,1,4,0:3:0:0:
267,297,54404,1,0,0:0:0:0:
329,140,54880,2,0,L|321:70,1,65,0|8,1:0|0:0,0:0:0:0:
397,36,55357,6,0,L|414:178,1,130,4|0,0:3|1:0,0:0:0:0:
426,248,56071,1,4,0:3:0:0:
383,320,56309,1,0,0:0:0:0:
258,205,56785,2,0,P|219:202|188:208,1,65,0|8,1:0|0:0,0:0:0:0:
123,253,57261,6,0,P|69:254|11:200,1,130,4|0,0:0|1:0,0:0:0:0:
7,121,57976,1,4,0:3:0:0:
73,69,58214,1,0,0:0:0:0:
238,32,58690,2,0,L|245:106,1,65,0|8,1:0|0:0,0:0:0:0:
316,140,59166,6,0,B|311:183|311:183|327:213|327:213|318:268,1,130,4|0,0:3|1:0,0:0:0:0:
376,326,59880,1,4,0:3:0:0:
460,331,60118,1,0,0:0:0:0:
497,165,60595,2,0,P|462:153|425:157,1,65,0|8,1:0|0:0,0:0:0:0:
364,201,61071,6,0,P|309:244|245:243,1,130,4|0,0:0|1:0,0:0:0:0:
174,209,61785,1,4,0:3:0:0:
91,225,62023,1,0,0:0:0:0:
32,66,62499,2,0,L|91:25,1,65,0|8,1:0|0:0,0:0:0:0:
169,41,62976,6,0,P|183:98|249:130,1,130,4|0,0:3|1:0,0:0:0:0:
325,144,63690,1,4,0:3:0:0:
392,92,63928,1,0,0:0:0:0:
484,233,64404,2,0,L|457:297,1,65,0|8,1:0|0:0,0:0:0:0:
388,340,64880,6,0,P|344:332|259:365,1,130,4|0,0:0|1:0,0:0:0:0:
180,364,65595,1,4,0:3:0:0:
116,307,65833,1,0,0:0:0:0:
108,138,66309,2,0,L|172:143,1,65,0|8,1:0|0:0,0:0:0:0:
247,103,66785,6,0,P|279:95|315:95,1,65,4|0,0:3|0:0,0:0:0:0:
313,179,67261,2,0,P|281:187|245:187,1,65,0|4,1:0|0:3,0:0:0:0:
172,224,67738,2,0,P|164:271|203:346,2,130,0|0|2,0:0|1:0|0:0,0:0:0:0:
