osu file format v5

[General]
AudioFilename: 02 - Happy Material (31 person ver. TV Size).mp3
AudioLeadIn: 0
PreviewTime: -1
Countdown: 3
SampleSet: Normal
StackLeniency: 0.7
Mode: 0
LetterboxInBreaks: 1
EditorBookmarks: 23916,46735,59801

[Metadata]
Title:Happy Material (31 person ver. TV Size)
Artist:All students in 3-A
Creator:landbreezezz
Version:Normal
Source:Magister Negi Magi, Mahou.Sensei.Negima
Tags:Magister Negi Magi, Mahou.Sensei.Negima

[Difficulty]
HPDrainRate:4
CircleSize:4
OverallDifficulty:4
SliderMultiplier:1.4
SliderTickRate:1

[Events]
//Background and Video events
0,0,"n11.jpg"
//Break Periods
//Storyboard Layer 0 (Background)
//Storyboard Layer 1 (Failing)
//Storyboard Layer 2 (Passing)
//Storyboard Layer 3 (Foreground)
//Storyboard Sound Samples
//Background Colour Transformations
3,100,163,162,255

[TimingPoints]
6208,736.105999263894,4,1,0,100,1

[HitObjects]
128,64,5655,5,0
160,96,5839,1,8
192,128,6023,1,8
224,160,6208,1,0
288,128,6576,1,8
352,128,6944,1,0
416,128,7312,1,8
448,160,7496,2,8,L|416:256,1,70
416,256,8048,1,8
384,288,8232,1,8
384,288,8416,1,4
352,320,8968,5,8
320,288,9152,1,0
288,256,9520,1,8
256,192,9888,2,0,L|192:128,1,70
192,128,10440,1,8
160,96,10808,1,8
128,96,10992,1,8
128,96,11176,1,4
224,160,11912,5,8
192,192,12096,2,0,L|96:224,1,70
96,224,12648,1,8
64,192,13016,1,0
96,128,13385,1,8
96,128,13569,1,8
96,128,13753,1,0
160,160,14305,1,8
224,160,14673,1,8
256,192,15041,2,0,L|512:128,1,245
256,192,17249,12,0,23138
192,128,23874,6,0,L|288:128,1,70
256,160,24426,2,0,L|352:160,1,70
384,192,25162,1,0
352,224,25530,1,0
320,256,25714,1,0
320,288,25898,1,4
192,288,26634,5,0
192,256,26818,2,0,L|128:192,1,70
160,192,27371,1,0
192,160,27739,1,0
160,96,28107,1,8
96,96,28475,1,8
32,128,28843,1,8
0,192,29211,1,4
64,224,29579,5,0
96,224,29763,2,0,L|192:256,1,70
192,224,30315,2,0,L|288:192,1,70
288,160,31051,1,0
352,192,31419,1,0
384,224,31603,1,0
416,256,31787,1,4
320,288,32523,5,0
352,256,32707,2,0,L|384:160,1,70
384,160,33259,1,0
352,128,33627,1,0
288,96,33996,1,0
224,96,34364,1,4
192,256,35468,5,0
224,256,35652,2,0,L|288:192,1,70
288,192,36204,2,0,L|384:160,1,70
384,128,36940,1,0
416,96,37308,1,0
448,128,37492,1,0
480,160,37676,1,4
384,224,38412,5,0
352,192,38596,2,0,L|288:128,1,70,0|0
288,128,39148,1,0
224,96,39516,1,0
160,64,39884,1,8
96,96,40252,1,8
96,160,40620,1,8
96,224,40989,1,4
160,224,41357,5,0
192,224,41541,2,0,L|288:224,1,70
288,224,42093,1,0
352,192,42461,1,0
384,128,42829,1,0
448,128,43197,1,0
480,160,43381,1,0
480,192,43565,1,4
384,256,44301,5,0
352,256,44485,2,0,L|320:192,1,70
288,160,45037,1,0
256,96,45405,1,0
224,64,45773,1,0
160,96,46141,1,4
256,160,46877,5,0
256,192,47061,1,0
224,224,47245,1,0
192,256,47429,1,8
128,256,47797,1,0
64,256,48166,1,8
64,192,48534,1,0
64,128,48902,1,8
64,64,49270,1,0
128,64,49638,1,8
192,64,50006,1,0
224,64,50190,1,0
256,64,50374,1,8
320,64,50742,1,0
384,64,51110,1,8
384,128,51478,1,8
384,192,51846,2,0,L|384:320,1,105,8|0
384,320,52582,1,12
416,256,53134,5,8
352,256,53318,2,12,L|256:256,1,70
224,224,54054,2,12,L|224:128,1,70,12|12
224,96,54790,1,12
224,32,55159,1,12
160,32,55527,1,12
96,32,55895,1,12
32,32,56263,1,12
32,128,56999,5,12
96,96,57367,1,12
160,96,57735,1,12
192,128,57919,1,12
224,160,58103,1,12
256,192,58287,1,12
480,32,60127,5,0
448,64,60311,1,0
416,96,60495,1,0
384,128,60679,1,8
320,128,61047,1,0
256,128,61415,1,8
192,160,61784,1,0
160,160,61968,2,8,L|64:160,1,70
64,192,62520,1,8
32,224,62704,1,8
32,224,62888,1,12
96,288,63440,5,0
128,256,63624,1,8
160,224,63992,1,0
224,192,64360,1,8
288,224,64728,1,0
320,224,64912,2,8,L|416:224,1,70,8|8
416,192,65464,1,8
416,160,65648,1,8
416,160,65832,1,12
352,96,66384,5,0
320,96,66568,1,8
256,96,66936,1,0
192,96,67304,1,8
128,128,67672,1,0
128,160,67856,2,8,L|128:256,1,70,8|8
192,256,68592,1,8
256,224,68961,1,8
320,192,69329,1,0
320,160,69513,2,8,L|416:160,1,70
416,160,70065,1,8
480,160,70433,1,8
480,224,70801,1,12
480,64,71905,5,0
448,64,72089,1,0
416,96,72273,1,0
384,128,72457,1,8
320,128,72825,1,0
256,128,73193,1,8
192,160,73561,1,0
160,160,73745,2,8,L|64:160,1,70
64,192,74297,1,8
64,224,74481,1,8
64,224,74665,1,12
128,288,75217,5,0
160,320,75401,1,8
224,288,75770,1,0
288,288,76138,1,8
352,288,76506,1,0
352,256,76690,2,8,L|352:160,1,70
352,160,77242,1,8
352,160,77426,1,12
256,96,78162,5,0
224,96,78346,2,0,L|160:160,1,70
160,160,78898,1,0
160,224,79266,1,0
224,224,79634,1,8
224,224,79818,1,8
224,224,80002,1,8
224,320,80554,1,12
160,352,80922,1,12
96,320,81290,2,12,L|32:64,1,245
