osu file format v5

[General]
AudioFilename: 02 - Happy Material (31 person ver. TV Size).mp3
AudioLeadIn: 0
PreviewTime: -1
Countdown: 1
SampleSet: Normal
StackLeniency: 0.7
Mode: 0
LetterboxInBreaks: 1
EditorBookmarks: 23916,46735,59801

[Metadata]
Title:Happy Material (31 person ver. TV Size)
Artist:All students in 3-A
Creator:landbreezezz
Version:Hard
Source:Magister Negi Magi, Mahou.Sensei.Negima
Tags:Magister Negi Magi, Mahou.Sensei.Negima

[Difficulty]
HPDrainRate:7
CircleSize:5
OverallDifficulty:7
SliderMultiplier:1.4
SliderTickRate:1

[Events]
//Background and Video events
0,0,"n13.jpg"
//Break Periods
2,16571,23016
//Storyboard Layer 0 (Background)
//Storyboard Layer 1 (Failing)
//Storyboard Layer 2 (Passing)
//Storyboard Layer 3 (Foreground)
//Storyboard Sound Samples
//Background Colour Transformations
3,100,163,162,255

[TimingPoints]
6208,368.052999631947,4,1,0,100,1

[HitObjects]
128,64,5697,5,0
160,96,5881,1,8
192,128,6065,1,8
224,160,6207,1,0
320,96,6576,1,8
416,32,6944,1,0
480,128,7312,1,8
512,192,7496,2,8,L|384:288,1,140
352,288,8048,1,8
288,320,8232,1,8
224,288,8416,1,4
64,288,8968,5,8
96,224,9152,1,0
96,96,9520,1,8
192,32,9888,2,0,L|320:128,1,140
352,160,10440,1,8
448,128,10808,1,8
448,192,10992,1,8
448,256,11176,1,4
224,256,11912,5,8
192,192,12096,2,0,L|64:256,1,140
32,192,12648,1,8
64,96,13016,1,0
160,32,13385,1,8
192,64,13569,1,8
224,96,13753,1,0
352,192,14305,1,8
416,192,14673,1,8
416,288,15041,2,0,L|192:288|192:288|0:96,1,490
96,128,23874,6,0,L|256:128,1,140
256,192,24426,2,0,L|416:192,1,140
480,256,25162,1,0
384,288,25530,1,0
352,320,25714,1,0
320,352,25898,1,4
128,256,26634,5,0
160,192,26818,2,0,L|320:160,1,140
352,160,27371,1,0
288,64,27739,1,0
160,64,28107,1,8
96,160,28475,1,8
96,256,28843,1,8
192,320,29211,1,4
288,288,29579,5,0
320,256,29763,2,0,L|448:160,1,140
416,128,30315,2,0,L|288:64,1,140
192,64,31051,1,0
96,96,31419,1,0
96,160,31603,1,0
96,224,31787,1,4
320,288,32523,5,0
352,256,32707,2,0,L|448:128,1,140
384,96,33259,1,0
256,96,33627,1,0
128,96,33996,1,0
32,160,34364,1,4
320,320,35468,5,0
352,256,35652,2,0,L|448:128,1,140
416,96,36204,2,0,L|256:96,1,140
160,96,36940,1,0
64,160,37308,1,0
64,224,37492,1,0
64,288,37676,1,4
288,288,38412,5,0
320,224,38596,2,0,L|384:96,1,140
352,64,39148,1,0
224,64,39516,1,0
96,64,39884,1,8
64,160,40252,1,8
96,256,40620,1,8
192,192,40989,1,4
288,192,41357,5,0
320,160,41541,2,0,L|384:320,1,140
416,256,42093,1,0
480,160,42461,1,0
448,64,42829,1,0
320,64,43197,1,0
256,96,43381,1,0
224,128,43565,1,4
32,256,44301,5,0
96,256,44485,2,0,L|256:256,1,140
288,256,45037,1,0
384,192,45405,1,0
480,256,45773,1,0
416,352,46141,1,4
288,160,46877,5,0
256,192,47061,1,0
224,224,47245,1,0
192,256,47429,1,10
64,256,47797,1,8
64,128,48166,1,10
160,64,48534,1,8
256,64,48902,1,10
352,64,49270,1,8
448,64,49638,1,10
448,160,50006,1,8
448,224,50190,1,8
448,288,50374,1,10
320,288,50742,1,8
192,288,51110,1,10
64,288,51478,1,8
64,160,51846,2,8,L|288:96,1,210
320,96,52582,1,12
416,224,53134,5,8
352,256,53318,2,12,L|192:256,1,140
96,256,54054,2,12,L|96:96,1,140
160,32,54790,1,12
224,128,55159,1,12
288,224,55527,1,12
352,320,55895,1,12
448,320,56263,1,12
448,96,56999,5,12
352,64,57367,1,12
224,64,57735,1,12
192,96,57919,1,12
160,128,58103,1,12
96,96,58287,2,0,L|96:192,8,70
192,160,60127,5,0
224,192,60311,1,0
256,224,60495,1,0
288,256,60679,1,8
384,192,61047,1,0
480,128,61415,1,8
384,64,61784,1,0
320,64,61968,2,8,L|160:64,1,140
128,96,62520,1,8
64,128,62704,1,8
0,96,62888,1,12
96,224,63440,5,0
160,256,63624,1,8
224,160,63992,1,0
320,160,64360,1,8
384,256,64728,1,0
448,256,64912,2,8,L|448:96,1,140
416,64,65464,1,8
352,64,65648,1,8
288,64,65832,1,12
160,160,66384,5,0
128,192,66568,1,8
64,288,66936,1,0
160,288,67304,1,8
256,288,67672,1,0
320,288,67856,2,8,L|448:224,1,140
384,160,68592,1,8
352,64,68961,1,8
224,64,69329,1,0
192,96,69513,2,8,L|96:224,1,140
128,256,70065,1,8
192,352,70433,1,8
288,288,70801,1,12
480,32,71905,5,0
448,64,72089,1,0
416,96,72273,1,0
384,128,72457,1,8
384,224,72825,1,0
320,320,73193,1,8
224,288,73561,1,0
160,288,73745,2,8,L|0:256,1,140
32,192,74297,1,8
96,160,74481,1,8
160,128,74665,1,14
320,64,75217,5,0
352,96,75401,1,8
416,192,75770,1,0
384,288,76138,1,8
256,288,76506,1,0
192,288,76690,2,8,L|32:288,1,140
64,224,77242,1,8
96,192,77426,1,12
320,256,78162,5,0
352,192,78346,2,0,L|352:32,1,140
416,64,78898,1,0
512,128,79266,1,0
448,224,79634,1,8
416,256,79818,1,8
384,288,80002,1,8
224,320,80554,1,12
96,320,80922,1,12
0,256,81290,2,12,L|480:128,1,490
