osu file format v9

[General]
AudioFilename: Smile!.mp3
AudioLeadIn: 0
PreviewTime: 197005
Countdown: 0
SampleSet: Soft
StackLeniency: 0.7
Mode: 0
LetterboxInBreaks: 0

[Editor]
Bookmarks: 38561,61005,61449,62338,75005,75672,76561,122338,154338,161449,165672,167449,198783,199227,199672,205894,206338,206783,213005,213449,213894,220116,220561,221005,227227,227672,228116,229894,234338,234783,235227
DistanceSpacing: 0.9
BeatDivisor: 4
GridSize: 8

[Metadata]
Title:Smile!
Artist:All Levels at Once
Creator:ztrot
Version:Hard
Source:My Little Pony: Friendship is Magic
Tags:Sir Minelli MLP

[Difficulty]
HPDrainRate:5
CircleSize:4
OverallDifficulty:6
ApproachRate:7
SliderMultiplier:1.77
SliderTickRate:2

[Events]
//Background and Video events
0,0,"BG.jpg"
//Break Periods
2,58538,78772
//Storyboard Layer 0 (Background)
//Storyboard Layer 1 (Fail)
//Storyboard Layer 2 (Pass)
//Storyboard Layer 3 (Foreground)
//Storyboard Sound Samples
//Background Colour Transformations
3,100,163,162,255

[TimingPoints]
1450,444.444444444444,4,2,1,100,1,0
42227,-100,4,2,2,100,0,0
43338,-100,4,2,1,100,0,0
92005,-100,4,2,2,100,0,0
93116,-100,4,2,1,100,0,0
197005,-100,4,2,1,100,0,1
226227,-100,4,2,2,100,0,1
227005,-100,4,2,1,100,0,1
239672,-100,4,2,1,100,0,0

[Colours]
Combo1 : 98,138,164
Combo2 : 134,194,255
Combo3 : 244,116,173
Combo4 : 195,166,210
SliderBorder : 247,209,247

[HitObjects]
176,344,29894,2,0,B|120:320|120:224|176:200,1,177,2|0
336,200,30783,2,0,B|392:224|392:320|336:344,1,177,2|0
256,224,31672,2,0,B|256:48,1,177,2|0
120,72,32561,1,2
120,72,33005,1,0
392,72,33449,6,0,B|488:112|472:232,1,177,2|0
474,215,34116,1,0
376,320,34561,2,0,B|312:248|200:248|136:320,1,265.5
184,184,35672,1,0
328,184,36116,1,2
256,64,36561,1,8
184,48,36783,1,0
104,64,37005,6,0,B|24:112|24:224,1,177,2|8
144,296,37894,1,2
200,248,38116,1,0
128,224,38338,1,8
256,344,38783,6,0,B|352:344|400:248,1,177,2|8
272,184,39672,1,2
272,264,39894,1,0
336,224,40116,1,8
344,80,40561,6,0,B|160:80,1,177,2|8
24,64,41449,1,2
96,96,41672,1,0
32,144,41894,1,8
64,272,42338,5,8
128,224,42561,1,8
192,272,42783,1,8
256,224,43005,1,8
320,272,43227,2,0,B|416:272|464:184,1,177,0|8
336,96,44116,6,0,B|256:168|176:96,1,177,2|8
112,216,45005,1,2
56,160,45227,1,0
24,232,45449,1,8
177,286,45894,6,0,B|256:216|336:288,1,177,2|8
488,232,46783,1,2
456,160,47005,1,0
400,216,47227,1,8
368,144,47449,1,0
312,208,47672,6,0,B|248:144|296:48|376:64,2,177,2|8|2
256,256,48783,1,0
200,208,49005,2,0,B|264:144|216:48|136:64,2,177,10|2|10
168,344,50338,5,2
200,240,50635,1,2
312,240,50931,1,2
344,344,51227,6,0,B|448:344|472:240,1,177,2|8
360,160,52116,1,2
320,96,52338,1,0
400,96,52561,1,8
256,168,53005,6,0,B|208:248|312:248|248:336,1,177,2|8
112,328,53894,1,2
32,328,54116,1,0
72,264,54338,1,8
64,120,54783,5,2
144,120,55005,1,0
224,120,55227,1,8
448,120,55672,1,2
368,120,55894,1,0
288,120,56116,1,8
376,232,56561,5,0
360,304,56783,1,0
296,344,57005,1,8
256,280,57227,1,2
216,344,57449,1,8
152,304,57672,1,10
152,304,57894,1,8
136,232,58116,1,10
136,232,58338,1,0
336,40,79672,6,0,B|392:64|392:160|336:184,1,177,2|0
176,184,80561,2,0,B|120:160|120:64|176:40,1,177,2|0
256,160,81450,2,0,B|256:336,1,177,2|0
328,216,82339,1,2
184,216,82783,1,2
256,96,83227,6,0,B|344:56|432:96,1,177,2|0
256,96,84116,2,0,B|168:56|80:96,1,177,2|0
168,208,85005,2,0,B|256:224|344:208,1,177,2|0
360,352,85894,5,2
320,248,86190,1,2
192,248,86487,1,2
152,352,86783,6,0,B|64:312|64:208,1,177,2|8
24,72,87672,1,2
96,40,87894,1,0
88,120,88116,1,8
200,32,88561,6,0,B|200:216,1,177,2|8
152,352,89449,1,2
208,296,89672,1,0
232,376,89894,1,8
360,352,90338,5,2
280,376,90561,1,0
304,296,90783,1,8
212,188,91227,2,0,B|308:188,2,88.5,2|0|8
88,120,92116,5,8
144,72,92338,1,8
200,120,92561,1,8
256,72,92783,1,8
312,120,93005,2,0,B|400:120|464:200,1,177
320,272,93894,5,2
256,144,94338,1,8
192,272,94783,1,2
140,320,95005,1,0
76,292,95227,1,8
32,156,95672,5,2
32,156,96116,1,8
136,60,96561,1,2
188,108,96783,1,0
256,84,97005,1,8
324,108,97227,1,0
376,60,97449,5,2
436,188,97894,2,0,B|464:284,1,88.5,8|0
400,348,98338,2,0,B|372:252,1,88.5,2|0
304,216,98783,2,0,B|288:308|224:308|208:216,1,177,8|0
164,84,99672,1,0
348,84,100116,1,0
256,228,100561,1,0
344,336,101005,5,2
344,336,101449,2,0,B|256:360|168:336,1,177,8|2
100,328,102116,1,0
32,308,102338,1,8
64,168,102783,5,0
132,44,103227,1,0
256,112,103672,1,0
380,44,104116,1,0
448,168,104561,5,2
384,292,105005,1,2
324,328,105227,1,0
256,312,105449,1,2
188,328,105672,1,0
128,292,105894,1,2
128,292,106116,1,0
72,248,106338,6,0,B|48:160,1,88.5,2|0
112,92,106783,2,0,B|136:184,1,88.5,2|0
224,208,107227,2,0,B|200:120,1,88.5,2|0
202,122,107671,1,0
256,340,108116,5,8
136,268,108561,2,0,B|80:244|80:148|136:124,1,177,2|0
256,48,109449,2,0,B|256:232,1,177,2|8
376,116,110338,2,0,B|432:140|432:236|376:260,1,177
188,324,111227,5,0
256,348,111449,1,0
324,324,111672,1,2
324,324,112116,1,8
256,84,112783,1,0
256,84,113005,1,8
144,168,113449,6,0,B|98:197|123:245,1,88.5,2|0
180,336,113894,2,0,B|225:306|200:258,1,88.5,8|0
332,336,114338,2,0,B|286:306|311:258,1,88.5,2|0
368,168,114783,2,0,B|413:197|388:245,1,88.5,8|0
389,244,115227,5,2
199,332,115672,1,8
256,302,115894,1,0
313,332,116116,1,2
336,192,116561,2,0,B|381:162|356:114,2,88.5,8|0|2
176,192,117449,2,0,B|130:162|155:114,2,88.5,8|0|2
256,308,118338,1,8
144,128,118783,1,2
368,128,119227,1,8
256,308,119672,1,2
128,128,120116,5,10
184,72,120338,1,0
256,32,120561,1,2
328,72,120783,1,0
384,128,121005,2,0,B|424:148|440:196,1,88.5,8|0
424,292,121449,2,0,B|384:272|368:224,1,88.5,2|0
368,225,121894,1,8
256,304,122338,6,0,B|256:120,1,177,8|2
184,88,123005,1,8
184,160,123227,1,0
256,304,123672,1,2
256,376,123894,1,0
328,336,124116,2,0,B|328:152,1,177,8|2
400,192,124783,1,8
400,120,125005,5,0
256,104,125449,1,0
88,336,126338,1,0
256,112,127227,5,0
256,184,127449,1,0
256,192,127672,12,0,129449
256,48,129894,6,0,B|168:48|96:120,1,177,0|8
256,136,130783,2,0,B|344:136|416:64,1,177,0|2
256,224,131672,2,0,B|168:224|96:152,1,177,0|8
256,312,132561,2,0,B|344:312|416:240,1,177,0|2
480,120,133449,5,0
360,48,133894,1,8
256,144,134338,1,0
152,48,134783,5,2
32,120,135227,2,0,B|16:224|112:272,1,177,0|8
168,224,135894,1,0
176,304,136116,1,0
336,304,136561,6,0,B|432:304|464:192,3,177,2|0|8|0
376,88,138338,5,2
360,160,138561,1,0
312,216,138783,1,0
136,88,139227,1,8
152,160,139449,1,0
200,216,139672,1,0
256,336,140116,5,2
216,272,140338,1,0
296,272,140561,1,0
256,208,140783,1,0
216,144,141005,2,0,B|256:112|296:144,2,88.5,8|0|0
400,64,141894,5,2
400,64,142338,1,0
112,64,142783,1,8
112,64,143227,1,0
48,192,143672,6,0,B|112:264|224:248,1,177,2|0
464,192,144561,2,0,B|400:264|288:248,1,177,2|0
168,168,145449,2,0,B|256:136|344:168,3,177,2|0|2|0
256,328,147227,5,2
184,208,147672,1,2
328,208,148116,1,2
256,88,148561,1,2
112,88,149005,6,0,B|24:144|64:256,2,177,2|0|2
160,168,150190,1,2
256,176,150487,1,2
352,168,150783,6,0,B|416:240|384:344,1,177,2|0
256,280,151672,1,2
256,280,151894,1,0
256,280,152116,2,0,B|176:336|80:296,1,177,2|2
48,168,153005,1,2
112,40,153449,1,2
216,136,153894,1,2
256,192,154338,12,0,157449
400,320,157893,6,0,B|480:272|480:160,1,177,2|8
368,88,158782,1,0
312,136,159004,1,0
384,160,159226,1,8
256,40,159671,6,0,B|160:40|112:136,1,177,2|8
240,200,160560,1,0
240,120,160782,1,0
176,160,161004,1,8
168,304,161449,6,0,B|352:304,1,177,2|8
488,320,162337,1,0
416,288,162560,1,0
480,240,162782,1,8
416,112,163226,5,2
360,160,163449,1,0
304,112,163671,1,8
256,168,163893,1,0
208,112,164115,2,0,B|112:112|64:200,1,177,0|10
176,288,165004,6,0,B|256:216|336:288,1,177,2|8
400,168,165893,1,0
464,224,166115,1,0
480,144,166337,1,8
335,98,166782,6,0,B|256:168|176:96,1,177,2|8
24,152,167671,1,0
56,224,167893,1,0
112,168,168115,1,8
144,240,168337,1,0
200,176,168560,6,0,B|264:240|216:336|136:320,2,177,2|8|0
256,128,169671,1,0
312,176,169893,2,0,B|248:240|296:336|376:320,2,177,8|0|8
344,40,171226,5,8
304,128,171449,1,2
208,128,171672,1,8
256,56,171894,1,10
168,40,172115,6,0,B|64:40|40:144,1,177,8|2
112,144,172783,1,8
184,144,173004,1,0
328,144,173449,1,2
328,288,173894,6,0,B|432:288|456:184,1,177,8|2
440,120,174561,1,8
400,56,174782,1,0
480,56,175004,1,0
440,120,175226,1,0
448,264,175671,5,2
368,264,175893,1,0
288,264,176115,1,8
64,264,176560,1,2
144,264,176782,1,0
224,264,177004,1,8
136,152,177449,5,2
152,80,177671,1,0
216,40,177893,1,8
256,104,178115,1,0
296,40,178337,1,2
360,80,178560,1,0
360,80,178782,1,8
376,152,179004,1,0
376,152,179226,5,0
440,280,179672,1,8
416,208,179894,1,0
344,176,180116,1,0
168,176,180561,1,8
96,208,180783,1,0
72,280,181005,1,2
211,300,181449,2,0,B|307:300,2,88.5,8|0|2
96,208,182338,6,0,B|40:128|80:40,1,177,8|0
184,136,183227,1,8
328,136,183672,2,0,B|376:136|416:96,2,88.5,0|0|8
256,256,184561,6,0,B|176:304|72:280,2,177,2|0|2
312,312,185672,1,0
328,232,185894,1,8
384,288,186116,1,0
408,208,186338,6,0,B|464:128|392:40,1,177,8|2
336,96,187005,2,0,B|240:48|216:160|72:64,1,265.5,8|2
16,112,187894,1,2
80,152,188116,2,0,B|32:224|128:232|64:320,1,177,8|0
136,344,188783,2,0,B|208:288|296:376|416:312,1,265.5,8|2
256,224,189894,5,0
256,64,190338,1,2
392,112,190783,1,2
392,256,191227,1,2
256,208,191672,1,4
120,256,192116,1,2
120,112,192561,1,8
256,160,193005,1,2
176,272,193449,5,2
176,272,193672,1,0
176,272,193894,1,2
336,272,194338,1,2
336,272,194561,1,0
336,272,194783,1,2
336,128,195227,6,2,B|352:88|328:40,3,88.5
272,88,196116,2,2,B|248:136|280:176,3,88.5,2|2|10|2
344,208,197005,5,0
360,280,197227,1,0
312,336,197449,1,0
256,288,197672,1,0
200,336,197894,2,0,B|120:320|112:248|168:208,1,177
256,96,198783,5,8
328,216,199227,1,8
184,216,199672,2,0,B|88:248|88:352,1,177,8|0
128,152,200561,5,2
256,88,201005,1,0
384,152,201449,1,8
256,208,201894,1,0
344,320,202338,2,0,B|136:320,3,177,2|8|2|8
104,192,204116,6,0,B|280:192,1,177,2|8
368,80,205005,2,0,B|192:80,1,177,2|8
312,152,205894,1,2
256,280,206338,1,8
200,152,206783,2,0,B|96:152|56:256,1,177,2|8
160,344,207672,6,0,B|344:344,1,177,2|8
224,256,208561,2,0,B|408:256,1,177,2|8
424,120,209449,2,0,B|256:24|80:120,1,354
168,352,211227,5,2
152,280,211449,1,0
200,224,211671,1,0
256,272,211894,1,0
312,224,212116,2,0,B|392:240|400:312|344:352,1,177,8|0
256,272,213005,5,2
184,152,213449,1,2
328,152,213894,2,0,B|424:120|424:16,1,177,2|2
384,232,214783,5,2
256,296,215227,1,0
128,232,215671,1,8
256,176,216116,1,2
168,64,216560,2,2,B|376:64,3,177
408,192,218338,6,0,B|232:192,1,177,2|0
144,304,219227,2,0,B|320:304,1,177,8|0
200,232,220116,1,2
256,104,220560,1,2
312,232,221005,2,0,B|416:232|456:128,1,177,8|2
352,40,221894,6,0,B|168:40,1,177,2|0
288,128,222783,2,0,B|104:128,1,177,8|0
88,264,223671,2,0,B|256:360|432:264,1,354
208,88,225449,5,2
192,160,225672,1,0
256,192,225894,1,0
320,160,226116,1,0
304,88,226338,1,8
184,240,226783,1,2
328,240,227227,5,2
256,360,227672,1,2
184,240,228116,1,2
424,88,229005,6,0,B|344:24|256:56,1,177
192,80,229672,1,2
248,128,229894,2,0,B|288:208|240:304,1,177,8|0
136,208,230783,6,0,B|56:152|64:48,1,177
136,40,231449,1,2
208,56,231672,2,0,B|296:80|384:40,1,177,8|0
448,288,232561,5,2
384,336,232783,1,0
320,288,233005,1,0
256,336,233227,1,0
192,288,233449,1,8
128,336,233672,1,0
64,288,233894,1,0
128,160,234338,5,2
256,56,234783,1,2
384,160,235227,1,2
256,224,235672,1,0
376,304,236116,5,2
256,376,236561,2,0,B|208:360|192:320,2,88.5,0|0|8
256,232,237449,1,0
136,160,237894,2,0,B|144:64|256:0|368:64|376:160,2,354,0|8|2
256,192,239894,12,0,243227
