osu file format v11

[General]
AudioFilename: Changeling.mp3
AudioLeadIn: 0
PreviewTime: 68419
Countdown: 0
SampleSet: Normal
StackLeniency: 0.7
Mode: 0
LetterboxInBreaks: 0

[Editor]
Bookmarks: 14875,29188
DistanceSpacing: 0.8
BeatDivisor: 4
GridSize: 8

[Metadata]
Title:Changeling
TitleUnicode:Changeling
Artist:All Levels at Once
ArtistUnicode:All Levels at Once
Creator:ztrot
Version:Normal
Source:My Little Pony: Friendship is Magic
Tags:Stefan MLP electropop dubstep cover
BeatmapID:200743
BeatmapSetID:68169

[Difficulty]
HPDrainRate:3
CircleSize:3
OverallDifficulty:4
ApproachRate:4
SliderMultiplier:1.5
SliderTickRate:1

[Events]
//Background and Video events
0,0,"redirect.jpg"
//Break Periods
2,115235,124330
2,170619,172330
//Storyboard Layer 0 (Background)
//Storyboard Layer 1 (Fail)
//Storyboard Layer 2 (Pass)
//Storyboard Layer 3 (Foreground)
//Storyboard Sound Samples
//Background Colour Transformations
3,100,163,162,255

[TimingPoints]
112,461.538461538462,4,1,1,100,1,0
177342,-100,4,2,1,100,0,0

[Colours]
Combo1 : 128,255,0
Combo2 : 255,255,0
Combo3 : 128,0,255
Combo4 : 0,255,255

[HitObjects]
256,328,14881,1,2,0:0:0
360,272,15342,1,2,0:0:0
448,352,15804,1,8,0:0:0
472,112,16727,5,2,0:0:0
376,48,17188,1,2,0:0:0
320,48,17419,1,0,0:0:0
264,48,17650,1,8,0:0:0
264,288,18573,6,0,P|208:328|120:296,2,150,2|2|8,0:0|0:0|0:0,0:0:0
176,200,19958,2,0,P|96:176|40:224,1,150,2|2,0:0|0:0,0:0:0
48,88,20881,5,0,0:0:0
96,56,21112,1,2,0:0:0
152,56,21342,2,0,P|208:104|288:88,1,150,8|0,0:0|0:0,0:0:0
392,136,22265,6,0,P|440:184|432:272,1,150,2|0,0:0|0:0,0:0:0
400,312,22958,1,0,0:0:0
344,328,23188,2,0,P|248:320|200:360,1,150,8|0,0:0|0:0,0:0:0
88,320,24112,6,0,P|160:272|160:208,1,150,2|0,0:0|0:0,0:0:0
128,168,24804,1,0,0:0:0
72,152,25035,2,0,P|80:80|160:48,1,150,8|0,0:0|0:0,0:0:0
256,80,25958,6,0,P|320:120|384:72,1,150,2|0,0:0|0:0,0:0:0
424,48,26650,1,0,0:0:0
480,72,26881,2,0,P|496:168|456:208,1,150,8|0,0:0|0:0,0:0:0
464,320,27804,1,2,0:0:0
55,331,28727,5,2,0:0:0
98,217,29188,1,2,0:0:0
181,307,29650,2,0,P|236:255|314:281,2,150,2|2|2,0:0|0:0|0:0,0:0:0
256,80,31496,6,0,P|184:96|128:40,2,150,2|0|0,0:0|0:0|0:0,0:0:0
376,80,32881,2,0,P|432:96|448:112,1,75
440,168,33342,5,0,0:0:0
456,224,33573,1,0,0:0:0
432,280,33804,2,0,P|400:320|400:352,2,75
336,208,34727,5,0,0:0:0
256,120,35188,1,0,0:0:0
256,192,35419,12,4,38881,0:0:0
112,80,39804,6,0,P|56:136|64:216,2,150,2|0|2,0:0|0:0|0:0,0:0:0
176,176,41188,1,0,0:0:0
256,88,41650,2,0,P|312:136|384:112,1,150,2|0,0:0|0:0,0:0:0
424,80,42342,2,0,P|472:128|464:224,1,150
440,256,43035,5,2,0:0:0
368,352,43496,1,2,0:0:0
264,296,43958,1,2,0:0:0
256,192,44881,12,0,46265,0:0:0
256,328,46727,5,2,0:0:0
152,264,47188,1,0,0:0:0
64,352,47650,1,2,0:0:0
24,240,48112,2,0,P|48:160,2,75
128,176,49035,1,0,0:0:0
104,56,49496,1,0,0:0:0
216,104,49958,6,0,P|304:72|360:96,1,150,0|8,0:0|0:0,0:0:0
296,200,50881,2,0,P|352:256|424:224,1,150,0|8,0:0|0:0,0:0:0
384,352,51804,2,0,P|304:352,3,75,0|0|8|0,0:0|0:0|0:0|0:0,0:0:0
192,352,52958,6,0,P|96:352,3,75,0|8|0|0,0:0|0:0|0:0|0:0,0:0:0
88,240,54112,1,8,0:0:0
200,192,54573,1,0,0:0:0
256,168,54804,1,0,0:0:0
312,192,55035,1,8,0:0:0
256,296,55496,6,0,P|336:320|400:272,2,150,0|8|0,0:0|0:0|0:0,0:0:0
200,312,56650,1,0,0:0:0
144,296,56881,1,8,0:0:0
72,200,57342,5,0,0:0:0
40,152,57573,1,0,0:0:0
56,96,57804,2,0,P|96:40|176:40,1,150,8|0,0:0|0:0,0:0:0
256,120,58727,1,8,0:0:0
328,216,59188,6,0,P|408:216,2,75,0|0|8,0:0|0:0|0:0,0:0:0
256,304,60112,2,0,P|256:384,2,75,0|0|8,0:0|0:0|0:0,0:0:0
184,216,61035,6,0,P|96:192|88:144,1,150,0|8,0:0|0:0,0:0:0
192,88,61958,2,0,P|256:122|320:88,1,150,0|8,0:0|0:0,0:0:0
424,144,62881,2,0,P|416:192|328:216,1,150,0|8,0:0|0:0,0:0:0
256,312,63804,5,0,0:0:0
256,312,64035,1,0,0:0:0
256,312,64265,1,8,0:0:0
256,192,64727,5,0,0:0:0
256,192,64958,1,0,0:0:0
256,192,65188,1,8,0:0:0
200,88,65650,6,0,P|112:96,3,75,0|0|8|0,0:0|0:0|0:0|0:0,0:0:0
200,184,66804,1,0,0:0:0
256,160,67035,1,8,0:0:0
304,120,67265,2,0,P|344:120|384:88,5,75,0|8|0|8|0|8,0:0|0:0|0:0|0:0|0:0|0:0,0:0:0
464,192,68881,5,0,0:0:0
440,312,69342,2,0,P|376:312|344:240,2,150
464,192,70727,1,0,0:0:0
376,112,71188,1,0,0:0:0
256,88,71650,5,0,0:0:0
136,112,72112,2,0,P|254:189|376:112,1,300,4|0,0:0|0:0,0:0:0
424,224,73496,5,0,0:0:0
320,280,73958,1,8,0:0:0
192,280,74419,1,0,0:0:0
88,224,74881,1,8,0:0:0
256,48,75804,6,0,P|344:128|224:120,1,300,4|0,0:0|0:0,0:0:0
128,72,77188,1,0,0:0:0
88,184,77650,2,0,P|144:304|176:224,1,300,4|0,0:0|0:0,0:0:0
256,144,79035,1,0,0:0:0
256,264,79496,5,4,0:0:0
256,264,79958,1,8,0:0:0
360,328,80419,1,0,0:0:0
360,328,80881,1,8,0:0:0
256,192,81342,12,4,83188,0:0:0
256,56,83650,5,8,0:0:0
144,104,84112,2,0,P|192:192|160:248,1,150,0|8,0:0|0:0,0:0:0
64,192,85035,2,0,P|48:264|120:336,1,150,0|8,0:0|0:0,0:0:0
208,352,85958,1,0,0:0:0
208,352,86419,1,8,0:0:0
312,296,86881,2,0,P|432:296|344:208,1,300
240,224,88265,5,8,0:0:0
144,296,88727,1,0,0:0:0
128,176,89188,2,0,P|56:128|72:80,1,150,8|0,0:0|0:0,0:0:0
312,64,90573,6,0,P|256:128|392:128,1,300,4|0,0:0|0:0,0:0:0
448,248,91958,1,8,0:0:0
368,344,92419,2,0,P|296:312|296:360|216:328,1,150,0|8,0:0|0:0,0:0:0
104,296,93342,2,0,P|48:232|72:160,1,150
168,232,94265,5,0,0:0:0
136,120,94727,1,8,0:0:0
248,152,95188,1,0,0:0:0
216,32,95650,1,8,0:0:0
328,80,96112,6,0,P|424:160|336:152,1,300
400,280,97496,1,0,0:0:0
256,192,97958,12,4,99804,0:0:0
256,360,100265,5,8,0:0:0
144,320,100727,1,0,0:0:0
96,288,100958,1,0,0:0:0
64,240,101188,1,8,0:0:0
64,120,101650,6,0,P|128:112|176:16,1,150,0|8,0:0|0:0,0:0:0
256,136,102573,1,0,0:0:0
312,104,102804,1,0,0:0:0
368,88,103035,2,0,P|456:112|472:176,2,150,8|0|8,0:0|0:0|0:0,0:0:0
384,208,104419,5,0,0:0:0
352,256,104650,1,0,0:0:0
296,272,104881,1,8,0:0:0
272,152,105342,2,0,P|192:112|152:192|48:144,1,225
40,264,106496,5,0,0:0:0
88,296,106727,1,8,0:0:0
152,296,106958,1,0,0:0:0
208,312,107188,6,0,P|272:352|296:296|360:328,1,150,0|8,0:0|0:0,0:0:0
456,264,108112,1,0,0:0:0
432,144,108573,1,8,0:0:0
320,104,109035,6,0,P|240:136|184:96,2,150,0|8|0,0:0|0:0|0:0,0:0:0
304,224,110419,2,0,P|224:232|184:288,1,150,8|0,0:0|0:0,0:0:0
136,320,111112,1,0,0:0:0
72,320,111342,2,0,P|32:256|56:176,2,150,8|0|8,0:0|0:0|0:0,0:0:0
152,232,112727,6,0,P|208:176|192:112,1,150,0|8,0:0|0:0,0:0:0
136,88,113419,1,0,0:0:0
152,32,113650,2,0,P|240:24|288:64,1,150,0|8,0:0|0:0,0:0:0
336,96,114342,1,0,0:0:0
352,152,114573,1,0,0:0:0
448,224,115035,1,0,0:0:0
256,192,125650,12,4,127035,0:0:0
256,336,127496,6,0,P|176:328|144:264,1,150,0|8,0:0|0:0,0:0:0
256,224,128419,2,0,P|328:232|376:288,1,150,0|8,0:0|0:0,0:0:0
456,200,129342,1,0,0:0:0
432,80,129804,1,8,0:0:0
432,80,130035,2,0,P|336:48|288:72,1,150
352,176,130958,5,0,0:0:0
360,296,131419,1,0,0:0:0
256,352,131881,1,0,0:0:0
152,296,132342,1,0,0:0:0
160,176,132804,1,0,0:0:0
160,176,133035,5,0,0:0:0
160,176,133265,1,0,0:0:0
160,176,133496,1,0,0:0:0
200,64,133958,5,0,0:0:0
256,88,134188,1,0,0:0:0
312,64,134419,1,0,0:0:0
312,64,134650,1,0,0:0:0
256,192,135112,12,4,136727,0:0:0
48,192,137188,5,8,0:0:0
72,72,137649,2,0,P|136:72|168:144,2,150,0|8|0,0:0|0:0|0:0,0:0:0
48,192,139034,1,8,0:0:0
136,272,139495,1,0,0:0:0
256,296,139957,5,8,0:0:0
376,272,140419,2,0,P|256:196|136:272,1,300
88,160,141803,5,8,0:0:0
192,104,142265,1,0,0:0:0
320,104,142726,1,8,0:0:0
424,160,143188,1,0,0:0:0
256,336,144111,6,0,P|168:256|288:264,1,300,4|0,0:0|0:0,0:0:0
384,312,145495,1,8,0:0:0
424,200,145957,2,0,P|368:80|336:160,1,300
256,240,147342,1,8,0:0:0
256,120,147803,5,8,0:0:0
256,120,148265,1,8,0:0:0
152,56,148726,1,8,0:0:0
152,56,149188,1,8,0:0:0
80,152,149650,6,8,P|112:232|80:320,4,150,8|8|8|8|12,0:0|0:0|0:0|0:0|0:0,0:0:0
256,192,151958,12,0,155188,0:0:0
256,24,155650,5,0,0:0:0
368,64,156112,1,8,0:0:0
416,96,156343,1,0,0:0:0
448,144,156573,1,0,0:0:0
448,264,157035,6,0,P|384:272|336:368,1,150
256,248,157958,1,8,0:0:0
200,280,158189,1,0,0:0:0
144,296,158420,2,0,P|56:272|40:208,2,150
128,176,159804,5,8,0:0:0
160,128,160035,1,0,0:0:0
216,112,160266,1,0,0:0:0
240,232,160727,2,0,P|320:272|360:192|464:240,1,225
472,120,161881,5,0,0:0:0
424,88,162112,1,0,0:0:0
360,88,162343,1,0,0:0:0
304,72,162573,6,0,P|240:32|216:88|152:56,1,150,0|8,0:0|0:0,0:0:0
56,120,163497,1,0,0:0:0
80,240,163958,1,8,0:0:0
192,280,164420,6,0,P|272:248|328:288,2,150,0|8|0,0:0|0:0|0:0,0:0:0
208,160,165804,2,0,P|288:152|328:96,1,150,8|0,0:0|0:0,0:0:0
376,64,166497,1,0,0:0:0
440,64,166727,2,0,P|480:128|456:208,2,150,8|0|8,0:0|0:0|0:0,0:0:0
360,152,168112,6,0,P|304:208|320:272,1,150,0|8,0:0|0:0,0:0:0
376,296,168804,1,0,0:0:0
360,352,169035,2,0,P|272:360|224:320,1,150,0|8,0:0|0:0,0:0:0
176,288,169727,1,0,0:0:0
160,232,169958,1,0,0:0:0
56,168,170419,1,0,0:0:0
448,336,173650,6,0,P|408:352|376:344,2,75
400,224,174573,1,0,0:0:0
344,248,174804,1,0,0:0:0
288,232,175035,1,0,0:0:0
232,248,175265,2,0,P|168:264|112:328,1,150
144,280,177342,5,4,0:0:0
48,192,177804,1,0,0:0:0
72,72,178265,2,0,P|136:72|168:144,2,150,0|0|8,0:0|0:0|0:0,0:0:0
48,192,179650,1,0,0:0:0
136,272,180111,1,0,0:0:0
256,296,180573,5,0,0:0:0
376,272,181035,2,0,P|256:196|136:272,1,300
88,160,182419,5,0,0:0:0
192,104,182881,1,8,0:0:0
320,104,183342,1,0,0:0:0
424,160,183804,1,0,0:0:0
256,336,184727,6,0,P|168:256|288:264,1,300,0|0,0:0|0:0,0:0:0
384,312,186111,1,0,0:0:0
424,200,186573,2,0,P|368:80|336:160,1,300,8|0,0:0|0:0,0:0:0
256,240,187958,1,0,0:0:0
256,120,188419,5,0,0:0:0
256,120,188881,1,0,0:0:0
152,56,189342,1,0,0:0:0
152,56,189804,1,0,0:0:0
256,192,190265,12,0,192111,0:0:0
256,328,192573,5,0,0:0:0
368,280,193035,2,0,P|320:192|352:136,1,150
448,192,193958,2,0,P|464:120|392:48,1,150,8|0,0:0|0:0,0:0:0
304,32,194881,1,0,0:0:0
304,32,195342,1,0,0:0:0
200,88,195804,6,0,P|80:88|168:176,1,300
272,160,197188,1,0,0:0:0
368,88,197650,2,0,P|464:200|384:312,1,300,8|0,0:0|0:0,0:0:0
152,328,199496,6,0,P|208:264|72:264,1,300
64,136,200881,1,0,0:0:0
144,48,201342,2,0,P|216:80|216:32|296:64,1,150,8|0,0:0|0:0,0:0:0
408,88,202265,2,0,P|464:152|440:224,1,150
344,152,203188,5,0,0:0:0
376,264,203650,1,0,0:0:0
264,232,204111,1,0,0:0:0
296,352,204573,1,0,0:0:0
184,320,205035,1,8,0:0:0
256,192,205496,12,0,206881,0:0:0
