osu file format v11

[General]
AudioFilename: Changeling.mp3
AudioLeadIn: 0
PreviewTime: 68419
Countdown: 0
SampleSet: Normal
StackLeniency: 0.7
Mode: 0
LetterboxInBreaks: 0

[Editor]
Bookmarks: 14875
DistanceSpacing: 0.9
BeatDivisor: 4
GridSize: 8

[Metadata]
Title:Changeling
TitleUnicode:Changeling
Artist:All Levels at Once
ArtistUnicode:All Levels at Once
Creator:ztrot
Version:Hard
Source:My Little Pony: Friendship is Magic
Tags:Stefan MLP electropop dubstep cover
BeatmapID:197523
BeatmapSetID:68169

[Difficulty]
HPDrainRate:5
CircleSize:4
OverallDifficulty:6
ApproachRate:7
SliderMultiplier:1.7
SliderTickRate:1

[Events]
//Background and Video events
0,0,"redirect.jpg"
//Break Periods
2,122157,126596
//Storyboard Layer 0 (Background)
//Storyboard Layer 1 (Fail)
//Storyboard Layer 2 (Pass)
//Storyboard Layer 3 (Foreground)
//Storyboard Sound Samples
//Background Colour Transformations
3,100,163,162,255

[TimingPoints]
112,461.538461538462,4,1,1,100,1,0
177342,-100,4,2,1,100,0,0

[Colours]
Combo1 : 128,255,0
Combo2 : 255,255,0
Combo3 : 128,0,255
Combo4 : 0,255,255

[HitObjects]
464,120,14881,2,0,P|400:69|321:120,1,170,2|0,0:0|0:0,0:0:0
393,145,15573,1,0,0:0:0
322,175,15804,2,0,P|256:126|278:51,1,170,8|0,0:0|0:0,0:0:0
112,128,16727,5,2,0:0:0
72,192,16958,1,0,0:0:0
152,192,17188,2,0,P|192:272|263:262,1,170,0|8,0:0|0:0,0:0:0
220,205,17881,1,2,0:0:0
296,200,18112,2,0,P|331:285|272:335,1,170,0|2,0:0|0:0,0:0:0
404,141,19035,6,0,P|329:93|348:18,1,170,0|8,0:0|0:0,0:0:0
396,69,19727,1,0,0:0:0
465,101,19958,2,0,P|468:173|380:209,1,170,2|2,0:0|0:0,0:0:0
256,296,20881,1,0,0:0:0
184,160,21342,5,8,0:0:0
256,88,21573,1,2,0:0:0
328,160,21804,1,0,0:0:0
208,248,22265,6,0,P|192:288|152:304,1,85,2|2,0:0|0:0,0:0:0
72,280,22727,2,0,P|32:256|24:216,2,85,0|0|8,0:0|0:0|0:0,0:0:0
104,208,23419,1,2,0:0:0
56,152,23650,2,0,P|96:128|136:144,1,85
184,192,24112,1,2,0:0:0
184,192,24342,1,2,0:0:0
200,120,24573,5,0,0:0:0
256,72,24804,1,0,0:0:0
312,120,25035,1,8,0:0:0
184,48,25265,1,2,0:0:0
328,48,25496,2,0,P|368:72|384:120,2,85,0|2|2,0:0|0:0|0:0,0:0:0
328,48,26188,1,0,0:0:0
256,72,26419,5,0,0:0:0
200,120,26650,1,0,0:0:0
128,96,26881,2,0,P|128:136|160:184,3,85,8|2|0|0,0:0|0:0|0:0|0:0,0:0:0
200,232,27804,1,2,0:0:0
256,280,28035,2,0,P|288:304|336:296,1,85
312,224,28496,2,0,P|352:224|392:256,1,85,2|0,0:0|0:0,0:0:0
387,250,29188,1,0,0:0:0
256,56,29650,2,0,P|192:112|112:80,2,170,2|2|2,0:0|0:0|0:0,0:0:0
464,280,31496,6,0,P|376:264|336:328,2,170,4|0|0,0:0|0:0|0:0,0:0:0
400,144,32881,1,0,0:0:0
328,112,33112,1,0,0:0:0
256,128,33342,1,0,0:0:0
184,112,33573,1,0,0:0:0
112,144,33804,2,0,P|80:176|32:168,1,85
48,96,34265,1,0,0:0:0
184,312,34727,5,0,0:0:0
256,280,34958,1,0,0:0:0
328,312,35188,1,2,0:0:0
328,232,35419,6,0,P|360:152,2,85,0|2|0,0:0|0:0|0:0,0:0:0
256,208,36112,2,0,P|256:120,2,85
184,232,36804,2,0,P|160:144,2,85,0|0|0,0:0|0:0|0:0,0:0:0
128,288,37496,2,0,P|80:216,3,85,0|0|0|2,0:0|0:0|0:0|0:0,0:0:0
28,273,38419,2,0,P|15:176|79:142,1,170,2|0,0:0|0:0,0:0:0
176,40,39342,1,0,0:0:0
256,168,39804,1,0,0:0:0
336,40,40265,1,0,0:0:0
184,160,40727,2,0,P|219:234|299:228,1,170
359,184,41419,5,0,0:0:0
368,264,41650,1,0,0:0:0
312,312,41881,1,0,0:0:0
232,320,42112,1,0,0:0:0
160,296,42342,2,0,P|96:240|88:160,1,170
168,168,43035,1,0,0:0:0
64,56,43496,5,0,0:0:0
136,32,43727,1,0,0:0:0
208,64,43958,1,0,0:0:0
240,136,44188,1,0,0:0:0
256,192,44881,12,4,46265,0:0:0
256,320,46727,5,2,0:0:0
384,192,47188,1,2,0:0:0
256,64,47650,1,2,0:0:0
128,192,48112,1,0,0:0:0
256,272,48573,5,0,0:0:0
296,208,48804,1,0,0:0:0
216,208,49035,1,0,0:0:0
184,280,49265,1,0,0:0:0
328,280,49496,2,0,P|344:312|392:328,2,85
432,120,50419,5,8,0:0:0
320,336,50881,1,0,0:0:0
256,128,51342,1,8,0:0:0
192,336,51804,1,0,0:0:0
256,288,52035,1,0,0:0:0
320,336,52265,1,8,0:0:0
328,256,52496,2,0,P|256:216|184:256,1,170
120,296,53188,6,8,P|104:264|120:216,2,85,8|0|0,0:0|0:0|0:0,0:0:0
256,144,54112,1,8,0:0:0
392,296,54573,2,0,P|408:264|392:216,2,85,0|0|8,0:0|0:0|0:0,0:0:0
352,152,55496,1,0,0:0:0
160,152,55958,1,8,0:0:0
256,32,56419,5,0,0:0:0
256,40,56650,1,0,0:0:0
256,48,56881,1,8,0:0:0
200,256,57342,5,0,0:0:0
168,328,57573,1,0,0:0:0
120,264,57804,2,0,P|160:184|240:184,2,170,8|0|8,0:0|0:0|0:0,0:0:0
168,328,58958,1,0,0:0:0
240,336,59188,5,0,0:0:0
288,272,59419,1,0,0:0:0
320,344,59650,2,0,P|360:368|400:360,1,85,8|0,0:0|0:0,0:0:0
376,288,60112,1,0,0:0:0
448,304,60342,1,0,0:0:0
432,232,60573,2,0,P|395:214|348:214,1,85,8|0,0:0|0:0,0:0:0
277,194,61035,2,0,P|255:109|308:54,2,170,0|8|0,0:0|0:0|0:0,0:0:0
56,152,62419,5,8,0:0:0
32,224,62650,2,0,P|120:224,1,85
160,304,63112,2,0,P|64:304,1,85,0|8,0:0|0:0,0:0:0
104,376,63573,1,0,0:0:0
184,376,63804,1,0,0:0:0
264,376,64035,1,0,0:0:0
264,376,64265,1,8,0:0:0
392,256,64727,6,0,P|432:248|464:208,2,85,0|0|8,0:0|0:0|0:0,0:0:0
392,176,65419,1,0,0:0:0
320,200,65650,1,0,0:0:0
312,280,65881,2,0,P|336:320|384:336,2,85,0|8|0,0:0|0:0|0:0,0:0:0
136,288,66804,5,0,0:0:0
56,264,67035,1,8,0:0:0
112,216,67265,2,0,P|72:184,8,42.5,8|0|8|0|8|0|8|0|8,0:0|0:0|0:0|0:0|0:0|0:0|0:0|0:0|0:0,0:0:0
184,232,68419,6,0,P|256:176|232:104,1,170,0|8,0:0|0:0,0:0:0
328,232,69342,2,0,P|272:304|312:368,1,170,0|8,0:0|0:0,0:0:0
448,304,70265,2,0,P|488:224|456:144,2,170,0|8|0,0:0|0:0|0:0,0:0:0
256,275,71650,1,8,0:0:0
208,328,72112,6,0,P|256:205|304:328,1,340,4|8,0:0|0:0,0:0:0
400,208,73496,1,0,0:0:0
256,120,73958,1,8,0:0:0
112,208,74419,1,0,0:0:0
256,275,74881,5,8,0:0:0
256,275,75112,1,0,0:0:0
256,275,75342,1,8,0:0:0
360,136,75804,6,0,P|256:24|152:136,1,340,4|0,0:0|0:0,0:0:0
256,192,77188,1,0,0:0:0
152,248,77650,2,0,P|256:360|360:248,1,340,4|0,0:0|0:0,0:0:0
80,360,79035,5,0,0:0:0
256,248,79496,1,4,0:0:0
432,360,79958,1,8,0:0:0
432,168,80419,1,0,0:0:0
256,72,80881,1,8,0:0:0
80,168,81342,1,0,0:0:0
256,192,81458,12,4,83188,0:0:0
96,88,83650,5,8,0:0:0
72,240,84112,2,0,P|160:232|192:312,1,170,0|8,0:0|0:0,0:0:0
192,144,85035,2,0,P|248:192|336:144,1,170,0|8,0:0|0:0,0:0:0
328,312,85958,1,0,0:0:0
472,256,86419,1,8,0:0:0
432,80,86881,6,0,P|352:32|280:64,2,170,0|8|0,0:0|0:0|0:0,0:0:0
224,120,88265,2,0,P|192:208|240:280,2,170,8|0|8,0:0|0:0|0:0,0:0:0
400,184,89650,1,0,0:0:0
368,352,90112,1,8,0:0:0
160,336,90573,5,0,0:0:0
352,336,91035,1,8,0:0:0
144,320,91496,1,0,0:0:0
368,320,91958,1,8,0:0:0
136,296,92419,1,0,0:0:0
376,296,92881,1,8,0:0:0
136,272,93342,1,0,0:0:0
376,272,93804,1,8,0:0:0
192,104,94265,2,0,P|264:152|320:96,4,170,0|8|0|8|0,0:0|0:0|0:0|0:0|0:0,0:0:0
256,192,96342,12,0,99342,0:0:0
256,56,99804,6,0,P|208:136|128:112,1,170,4|8,0:0|0:0,0:0:0
288,176,100727,1,0,0:0:0
352,216,100958,1,0,0:0:0
288,256,101188,1,8,0:0:0
352,304,101419,1,0,0:0:0
224,214,101650,2,0,P|214:291|286:331,2,170,0|8|0,0:0|0:0|0:0,0:0:0
392,56,103035,5,8,0:0:0
320,72,103265,1,0,0:0:0
368,128,103496,1,0,0:0:0
144,128,103958,1,8,0:0:0
192,72,104188,1,0,0:0:0
120,56,104419,1,0,0:0:0
256,128,104881,5,8,0:0:0
296,192,105112,1,0,0:0:0
216,192,105342,2,0,P|225:231|281:266,1,85
334,265,105804,1,8,0:0:0
376,201,106035,2,0,P|409:284|339:348,1,170
288,329,106727,1,8,0:0:0
264,224,106958,1,0,0:0:0
376,200,107188,6,0,P|384:104|328:56,2,170,4|8|0,0:0|0:0|0:0,0:0:0
312,152,108342,1,0,0:0:0
256,96,108573,1,8,0:0:0
200,152,108804,1,0,0:0:0
256,208,109035,2,0,P|176:232|120:168,2,170,0|8|0,0:0|0:0|0:0,0:0:0
416,88,110419,6,0,P|464:112|480:152,1,85,8|0,0:0|0:0,0:0:0
408,160,110881,1,0,0:0:0
464,208,111112,1,0,0:0:0
392,232,111342,2,0,P|352:208|336:168,1,85,8|0,0:0|0:0,0:0:0
344,104,111804,2,0,P|281:128|285:224,2,170,0|8|0,0:0|0:0|0:0,0:0:0
137,36,113188,6,0,P|137:124,1,85,8|0,0:0|0:0,0:0:0
57,124,113650,2,0,P|57:212,1,85
137,196,114112,2,0,P|137:292,1,85,8|0,0:0|0:0,0:0:0
207,261,114573,2,0,P|190:328|97:342,1,170,0|8,0:0|0:0,0:0:0
336,328,115496,5,0,0:0:0
400,264,115727,1,0,0:0:0
416,344,115958,1,8,0:0:0
320,256,116188,2,0,P|368:192|456:208,1,170
464,112,116881,1,8,0:0:0
376,56,117112,1,0,0:0:0
456,32,117342,1,0,0:0:0
384,136,117573,2,0,P|344:128|312:88,2,85,0|8|0,0:0|0:0|0:0,0:0:0
256,48,118496,5,0,0:0:0
200,120,118727,1,8,0:0:0
312,120,118958,1,0,0:0:0
256,192,119188,2,0,P|216:208|176:200,1,85
256,192,119650,2,0,P|296:208|336:200,1,85,8|0,0:0|0:0,0:0:0
400,336,120342,6,0,P|368:360|320:352,1,85,0|8,0:0|0:0,0:0:0
344,280,120804,2,0,P|296:280|264:312,1,85
248,376,121265,2,0,P|208:352|192:312,1,85,0|8,0:0|0:0,0:0:0
216,248,121727,2,0,P|176:240|136:272,1,85,0|4,0:0|0:0,0:0:0
240,80,127496,5,0,0:0:0
288,144,127727,1,0,0:0:0
320,72,127958,2,0,P|360:48|400:56,1,85,8|0,0:0|0:0,0:0:0
376,128,128420,1,0,0:0:0
448,112,128650,1,0,0:0:0
432,184,128881,2,0,P|395:202|348:202,1,85,8|0,0:0|0:0,0:0:0
277,222,129343,2,0,P|255:307|308:362,2,170,0|8|0,0:0|0:0|0:0,0:0:0
56,264,130727,5,8,0:0:0
32,192,130958,2,0,P|120:192,1,85
160,112,131420,2,0,P|64:112,1,85,0|8,0:0|0:0,0:0:0
104,40,131881,1,0,0:0:0
184,40,132112,1,0,0:0:0
264,40,132343,1,0,0:0:0
264,40,132573,1,8,0:0:0
392,160,133035,6,0,P|432:168|464:208,2,85,0|0|8,0:0|0:0|0:0,0:0:0
392,240,133727,1,0,0:0:0
320,216,133958,1,0,0:0:0
312,136,134189,2,0,P|336:96|384:80,2,85,0|8|0,0:0|0:0|0:0,0:0:0
256,192,135112,12,0,136727,0:0:0
88,80,137188,5,8,0:0:0
48,224,137650,1,0,0:0:0
96,296,137881,1,0,0:0:0
144,216,138112,1,8,0:0:0
296,328,138573,2,0,P|384:344|424:280,2,170,0|8|0,0:0|0:0|0:0,0:0:0
350,280,139727,1,0,0:0:0
280,256,139958,2,0,P|232:296|264:392,2,170,8|0|8,0:0|0:0|0:0,0:0:0
296,328,141112,1,0,0:0:0
350,288,141342,2,0,P|350:240|326:200,1,85
256,184,141804,2,0,P|192:216|176:320,2,170,8|0|8,0:0|0:0|0:0,0:0:0
328,48,143188,6,0,P|240:48,1,85
288,128,143650,2,0,P|392:128,1,85,8|0,0:0|0:0,0:0:0
408,56,144112,2,0,P|452:113|416:196,2,170,4|8|0,0:0|0:0|0:0,0:0:0
381,127,145265,1,0,0:0:0
338,190,145496,1,8,0:0:0
256,323,145958,6,0,P|170:332|148:241,2,170,0|8|0,0:0|0:0|0:0,0:0:0
209,272,147112,1,0,0:0:0
209,272,147342,1,8,0:0:0
256,128,147804,5,8,0:0:0
192,176,148035,1,0,0:0:0
256,128,148265,1,8,0:0:0
320,176,148496,1,0,0:0:0
256,128,148727,1,8,0:0:0
184,96,148958,1,0,0:0:0
256,128,149188,1,8,0:0:0
328,96,149419,1,0,0:0:0
256,48,149650,1,8,0:0:0
256,216,149881,6,0,P|256:237,4,21.25,8|8|8|8|8,0:0|0:0|0:0|0:0|0:0,0:0:0
208,304,150342,1,8,0:0:0
304,304,150573,2,0,P|384:336,1,85,8|0,0:0|0:0,0:0:0
208,304,151035,2,0,P|112:344,1,85
256,192,151496,12,0,154727,0:0:0
256,328,155188,6,0,P|304:248|384:272,1,170,4|8,0:0|0:0,0:0:0
224,208,156111,1,0,0:0:0
160,168,156342,1,0,0:0:0
224,128,156572,1,8,0:0:0
160,80,156803,1,0,0:0:0
288,170,157034,2,0,P|298:93|226:53,2,170,0|8|0,0:0|0:0|0:0,0:0:0
120,328,158419,5,8,0:0:0
192,312,158649,1,0,0:0:0
144,256,158880,1,0,0:0:0
368,256,159342,1,8,0:0:0
320,312,159572,1,0,0:0:0
392,328,159803,1,8,0:0:0
256,256,160265,5,8,0:0:0
216,192,160496,1,0,0:0:0
296,192,160726,2,0,P|287:153|231:118,1,85
178,119,161188,1,8,0:0:0
136,183,161419,2,0,P|103:100|173:36,1,170
224,55,162111,1,8,0:0:0
240,160,162342,1,0,0:0:0
136,184,162572,6,0,P|128:280|184:328,2,170,4|8|0,0:0|0:0|0:0,0:0:0
200,232,163726,1,0,0:0:0
256,288,163957,1,8,0:0:0
312,232,164188,1,0,0:0:0
256,176,164419,2,0,P|336:152|392:216,2,170,0|8|0,0:0|0:0|0:0,0:0:0
96,296,165803,6,0,P|48:272|32:232,1,85,8|0,0:0|0:0,0:0:0
104,224,166265,1,0,0:0:0
48,176,166496,1,0,0:0:0
120,152,166726,2,0,P|160:176|176:216,1,85,8|0,0:0|0:0,0:0:0
168,280,167188,2,0,P|231:256|227:160,2,170,0|8|0,0:0|0:0|0:0,0:0:0
375,348,168572,6,0,P|375:260,1,85,8|0,0:0|0:0,0:0:0
455,260,169034,2,0,P|455:172,1,85
375,188,169496,2,0,P|375:92,1,85,8|0,0:0|0:0,0:0:0
305,123,169957,2,0,P|322:56|415:42,2,170,0|8|0,0:0|0:0|0:0,0:0:0
376,104,171112,1,0,0:0:0
376,104,171342,1,8,0:0:0
256,240,171804,1,0,0:0:0
136,104,172265,1,8,0:0:0
256,240,172727,1,0,0:0:0
256,240,172958,1,0,0:0:0
256,240,173188,1,8,0:0:0
256,192,173650,12,0,176881,0:0:0
328,184,177342,6,0,P|256:240|280:312,1,170,0|0,0:0|0:0,0:0:0
184,184,178265,2,0,P|240:112|200:48,1,170,0|0,0:0|0:0,0:0:0
64,112,179188,2,0,P|24:192|56:272,2,170,8|0|0,0:0|0:0|0:0,0:0:0
257,141,180573,1,0,0:0:0
304,88,181035,6,0,P|256:211|208:88,1,340,0|0,0:0|0:0,0:0:0
112,208,182419,1,0,0:0:0
256,296,182881,1,8,0:0:0
400,208,183342,1,0,0:0:0
256,141,183804,5,0,0:0:0
256,141,184035,1,0,0:0:0
256,141,184265,1,0,0:0:0
152,272,184727,6,0,P|256:384|360:272,1,340,8|0,0:0|0:0,0:0:0
256,216,186111,1,0,0:0:0
360,160,186573,2,0,P|256:48|152:160,1,340,8|0,0:0|0:0,0:0:0
432,56,187958,5,0,0:0:0
256,168,188419,1,0,0:0:0
80,56,188881,1,0,0:0:0
80,248,189342,1,0,0:0:0
256,344,189804,1,0,0:0:0
432,248,190265,1,8,0:0:0
256,192,190381,12,0,192111,0:0:0
256,64,192573,5,0,0:0:0
376,160,193035,1,0,0:0:0
336,312,193496,1,0,0:0:0
184,312,193958,1,8,0:0:0
136,160,194419,1,0,0:0:0
256,64,194881,1,0,0:0:0
256,200,195342,1,0,0:0:0
419,256,195804,2,0,P|252:17|92:256,1,680,0|8,0:0|0:0,0:0:0
256,320,198112,1,0,0:0:0
362,195,198573,6,0,P|256:85|150:210,1,340
328,280,199958,1,0,0:0:0
184,280,200419,1,0,0:0:0
256,144,200881,1,0,0:0:0
216,80,201112,1,0,0:0:0
296,80,201342,2,0,P|328:160|272:216,2,170,8|0|0,0:0|0:0|0:0,0:0:0
144,184,202727,5,0,0:0:0
256,344,203188,1,0,0:0:0
368,184,203650,1,0,0:0:0
168,296,204112,1,0,0:0:0
344,296,204573,1,0,0:0:0
256,136,205035,1,8,0:0:0
256,192,205150,12,0,206881,0:0:0
