osu file format v9

[General]
AudioFilename: Test.mp3
AudioLeadIn: 0
PreviewTime: 72777
Countdown: 0
SampleSet: Normal
StackLeniency: 0.7
Mode: 0
LetterboxInBreaks: 1

[Editor]
DistanceSpacing: 0.8
BeatDivisor: 2
GridSize: 8

[Metadata]
Title:When You Leave (Numa Numa) (Nightcore Mix)
Artist:Alina Puscau
Creator:-Bakari-
Version:Easy
Source:
Tags:o-zone FoxShift Roddie Dragostea Din Tei hybrid579 Basshunter

[Difficulty]
HPDrainRate:2
CircleSize:3
OverallDifficulty:3
ApproachRate:3
SliderMultiplier:0.9
SliderTickRate:2

[Events]
//Background and Video events
0,0,"Konachan.com - 118133 capura_lin hatsune_miku vocaloid.jpg"
//Break Periods
2,85370,96515
//Storyboard Layer 0 (Background)
//Storyboard Layer 1 (Fail)
//Storyboard Layer 2 (Pass)
//Storyboard Layer 3 (Foreground)
//Storyboard Sound Samples
//Background Colour Transformations
3,100,0,0,0

[TimingPoints]
918,370.37037037037,4,1,0,78,1,0
11289,-100,4,1,0,35,0,0
11659,-100,4,1,0,75,0,0
24621,-100,4,2,0,60,0,0
36103,-100,4,1,0,55,0,0
36288,-100,4,2,0,62,0,0
48325,-100,4,1,0,66,0,1
72029,-100,4,1,0,74,0,0
83880,-100,4,2,0,78,0,0
85362,-100,4,1,0,56,0,0
101288,-100,4,2,0,31,0,0
103510,-100,4,1,0,57,0,0
112029,-100,4,1,0,77,0,1
135732,-100,4,1,0,77,0,0

[Colours]
Combo1 : 190,190,190
Combo2 : 0,255,255
Combo3 : 113,231,109

[HitObjects]
256,192,9621,12,4,11288
256,176,12769,5,4
344,296,13510,2,0,B|256:352|160:288,1,180
300,262,14992,5,0
340,202,15362,1,8
328,130,15732,1,4
213,216,16473,5,0
154,258,16843,1,8
86,234,17214,2,0,B|46:194|78:146,1,89.9999999999999,0|8
115,93,17955,6,0,B|299:93|307:261,1,270,0|12
266,301,19436,2,0,B|82:301|74:133,1,270,0|12
112,90,20917,5,0
176,123,21288,1,8
231,168,21658,1,4
289,299,22399,5,0
354,268,22769,1,8
400,216,23140,2,0,B|416:144|376:96,1,90,0|8
288,168,24251,5,0
248,112,24621,1,8
192,72,24992,1,0
48,104,25732,2,0,B|48:296|216:296,1,270
280,296,27214,6,0,B|464:296|456:112,1,270
448,64,28695,2,0,B|264:64|272:248,1,270
208,248,30177,1,0
136,272,30547,6,0,B|128:336|208:360,1,90
232,304,31288,1,0
272,248,31658,2,0,B|319:168|456:168|504:256,1,270
440,296,33140,6,0,B|344:296,2,90
472,232,34251,1,0
440,168,34621,1,0
376,200,34992,2,0,B|256:200,1,90
216,80,36103,6,0,B|400:80,1,180,4|2
404,154,37214,1,0
440,216,37584,2,0,B|472:328|336:360,1,180
248,264,39066,5,2
272,192,39436,1,0
224,136,39806,2,0,B|136:72|32:136|32:136,1,180,2|2
16,192,40917,6,0,B|16:304,1,89.9999999999999,0|2
88,288,41658,2,0,B|88:400|280:400|280:256,1,270,0|2
216,248,43140,6,0,B|216:152|88:152,1,180
24,128,44251,1,2
30,54,44621,1,0
100,39,44992,1,2
152,88,45362,6,0,B|240:176|344:104,2,180,4|0|0
128,160,47214,1,0
272,272,48325,5,4
224,208,48695,2,0,B|224:96,1,89.9999999999999,8|2
264,56,49436,2,0,B|360:56,1,89.9999999999999,10|6
419,83,50177,1,8
467,135,50547,6,0,B|459:247|331:247,1,180,0|6
277,249,51658,1,8
208,248,52029,2,4,B|48:248|48:56,1,270,0|10
96,16,53510,6,0,B|152:48|152:104,1,90,0|8
152,160,54251,2,0,B|152:216|80:240,1,90,4|8
112,304,54992,2,0,B|200:304|200:376|320:376,1,180
336,336,56103,5,8
376,280,56473,1,0
400,208,56843,2,0,B|425:149|401:69|305:37|233:85,2,270,8|0|8
328,208,59436,5,0
256,200,59806,1,8
184,184,60177,2,4,B|144:144|192:88,1,89.9999999999999,4|8
240,64,60917,2,0,B|344:40,2,89.9999999999999,2|10|6
200,200,62399,5,0
256,248,62769,1,8
304,192,63140,1,6
320,120,63510,2,0,B|392:40,2,90,8|0|8
256,96,64621,2,0,B|152:96,1,90,2|10
144,160,65362,5,0
216,176,65732,1,8
288,160,66103,1,4
432,160,66843,5,0
384,208,67214,1,8
320,240,67584,1,4
184,288,68325,5,0
120,264,68695,2,0,B|80:216|120:168,1,90
184,176,69436,1,8
256,152,69806,1,0
328,176,70177,1,8
320,248,70547,2,0,B|368:280|368:280|320:328|256:312|256:312|192:328|144:280|144:280|192:248,1,360
272,128,72769,5,0
216,176,73140,1,8
176,240,73510,2,0,B|152:296|200:352,1,90,4|8
248,352,74251,1,0
312,312,74621,1,8
336,248,74992,1,4
480,240,75732,6,0,B|504:184|456:120,1,89.9999999999999,0|8
408,136,76473,2,0,B|360:112|320:152,1,89.9999999999999,4|8
264,184,77214,1,0
192,176,77584,1,8
168,104,77955,6,0,B|104:104,2,45,4|8|8
240,88,78695,1,0
312,88,79066,1,8
384,96,79436,1,4
440,144,79806,1,8
424,216,80177,2,0,B|296:216|296:320,1,180,0|4
240,256,81288,1,0
168,232,81658,6,8,B|168:136,1,89.9999999999999,8|4
208,80,82399,1,0
256,24,82769,1,8
304,80,83140,1,0
328,144,83510,2,8,B|328:240,2,89.9999999999999
222,254,97955,5,0
200,185,98325,2,0,B|296:185,1,89.9999999999999,0|2
362,187,99066,1,0
416,136,99436,5,0
456,197,99806,1,2
427,263,100177,1,0
356,278,100547,1,0
208,272,101288,6,0,B|56:240,1,135,0|2
72,176,102214,2,0,B|112:128|72:56,2,90
184,160,103510,5,8
256,136,103880,1,0
320,168,104251,2,0,B|280:232|288:288|352:320|408:312,1,180
376,232,105362,1,0
416,176,105732,1,0
256,192,106103,12,0,109066
256,128,111288,6,0,B|320:128|320:128|344:88,2,89.9999999999999,2|8|4
208,184,112399,2,0,B|208:272,2,89.9999999999999,8|0|8
144,152,113510,1,6
144,272,114251,6,0,B|192:320|240:280,1,89.9999999999999,0|8
296,272,114992,2,0,B|344:320|408:272,1,89.9999999999999,6|8
416,232,115732,2,0,B|480:136,2,89.9999999999999
360,184,116843,1,0
400,128,117214,5,0
336,104,117584,2,0,B|208:104,2,89.9999999999999,8|4|8
400,64,118695,1,2
464,104,119066,1,8
432,168,119436,2,0,B|488:240,1,90
432,280,120177,6,0,B|432:360|352:360,1,89.9999999999999,4|8
320,360,120917,2,2,B|200:360,1,89.9999999999999,2|8
192,296,121658,2,2,B|192:192,1,89.9999999999999,2|10
120,208,122399,2,2,B|-8:208|-8:208,1,89.9999999999999,4|8
48,136,123140,6,0,B|72:80|40:24,2,90
40,208,124251,1,8
40,280,124621,2,0,B|8:336|32:392,2,90
192,256,126103,5,0
192,328,126473,1,8
264,328,126843,2,0,B|368:328,1,89.9999999999999,6|8
360,256,127584,2,0,B|360:160,1,89.9999999999999,0|8
360,96,128325,2,0,B|464:96,2,90,6|10|0
296,136,129436,5,8
296,64,129806,1,4
224,64,130177,2,0,B|144:64|144:64|64:64|64:128,2,180
296,64,132029,6,0,B|408:64,2,89.9999999999999,0|8|4
296,136,133140,2,0,B|296:232,2,90
224,136,134251,2,0,B|32:136,1,180,4|8
208,264,136473,6,0,B|208:344|208:344|192:376,1,89.9999999999999,0|8
128,360,137214,2,0,B|40:360,1,89.9999999999999,4|8
24,288,137955,5,0
0,216,138325,1,8
56,176,138695,2,0,B|152:112,2,89.9999999999999,4|8|0
16,112,139806,5,8
72,72,140177,2,0,B|168:8,2,89.9999999999999,4|8|0
120,136,141288,1,8
184,168,141658,6,0,B|240:208|288:152,1,90,0|0
328,216,142399,2,0,B|368:312,2,89.9999999999999,0|8|4
256,224,143510,1,8
288,160,143880,6,0,B|336:56,2,89.9999999999999,0|8|4
256,224,144992,1,8
192,248,145362,6,0,B|72:248,1,89.9999999999999,0|8
32,216,146103,2,0,B|32:104,1,89.9999999999999,4|8
16,56,146843,6,0,B|128:56,1,90,0|8
176,56,147584,1,4
248,56,147955,1,8
248,128,148325,6,0,B|248:192|320:192,1,89.9999999999999,0|8
368,192,149066,2,0,B|432:192|432:136,1,89.9999999999999,4|8
432,72,149806,5,0
360,72,150177,1,8
288,72,150547,2,0,B|192:72,1,90,4|8
144,120,151288,1,0
112,184,151658,6,0,B|112:280,2,89.9999999999999,8|4|8
184,184,152769,1,0
256,184,153140,2,0,B|256:80,2,89.9999999999999,8|4|8
328,184,154251,1,0
400,184,154621,1,8
400,256,154992,6,0,B|464:256|480:184,1,89.9999999999999,4|8
472,136,155732,2,0,B|472:32,2,89.9999999999999,0|8|4
400,144,156843,1,8
328,144,157214,2,0,B|280:120|224:144,1,90,0|8
168,144,157955,6,0,B|64:144,1,89.9999999999999,4|8
80,216,158695,2,0,B|80:320,1,89.9999999999999,4|8
152,304,159436,6,0,B|264:304,1,90
312,304,160177,1,0
384,304,160547,2,0,B|448:304|448:304|472:264,1,90,0|4
