osu file format v12

[General]
AudioFilename: 23 Lamentation.mp3
AudioLeadIn: 0
PreviewTime: 89269
Countdown: 0
SampleSet: None
StackLeniency: 0.7
Mode: 0
LetterboxInBreaks: 1

[Editor]
DistanceSpacing: 1
BeatDivisor: 4
GridSize: 8

[Metadata]
Title:Lamentation
TitleUnicode:Lamentation
Artist:Alicesoft
ArtistUnicode:Alicesoft
Creator:Master Shake
Version:Rance
Source:Sengoku Rance
Tags:hentai game
BeatmapID:245801
BeatmapSetID:90643

[Difficulty]
HPDrainRate:7
CircleSize:5
OverallDifficulty:7
ApproachRate:7
SliderMultiplier:1.8
SliderTickRate:1

[Events]
//Background and Video events
0,0,"cg013010.jpg",1,1
//Break Periods
//Storyboard Layer 0 (Background)
//Storyboard Layer 1 (Fail)
//Storyboard Layer 2 (Pass)
//Storyboard Layer 3 (Foreground)
//Storyboard Sound Samples
//Background Colour Transformations
3,100,0,0,64

[TimingPoints]
1270.59776759367,769.230769230769,4,3,0,100,1,0

[Colours]
Combo1 : 0,64,64
Combo2 : 0,0,64
Combo3 : 0,64,128
Combo4 : 64,0,64

[HitObjects]
72,128,3578,1,0,0:0:0:0:
72,320,3962,1,0,0:0:0:0:
272,136,4347,1,0,0:0:0:0:
432,136,4732,1,0,0:0:0:0:
416,328,5116,1,0,0:0:0:0:
240,328,5501,1,0,0:0:0:0:
248,224,5885,1,0,0:0:0:0:
248,224,6270,1,0,0:0:0:0:
160,168,6655,1,0,0:0:0:0:
256,40,7039,1,0,0:0:0:0:
368,176,7424,1,0,0:0:0:0:
256,40,7809,2,0,L|256:328,1,270
256,312,9347,1,0,0:0:0:0:
96,232,9732,2,0,L|224:208,1,90
384,136,10501,1,0,0:0:0:0:
328,104,10885,1,0,0:0:0:0:
264,96,11270,1,0,0:0:0:0:
208,112,11655,1,0,0:0:0:0:
208,168,12039,1,0,0:0:0:0:
256,208,12424,1,0,0:0:0:0:
312,184,12809,1,0,0:0:0:0:
320,128,13193,1,0,0:0:0:0:
264,104,13578,1,0,0:0:0:0:
200,112,13962,1,0,0:0:0:0:
168,168,14347,1,0,0:0:0:0:
200,216,14732,1,0,0:0:0:0:
256,192,15116,1,0,0:0:0:0:
296,144,15501,1,0,0:0:0:0:
256,96,15885,1,0,0:0:0:0:
208,88,16078,1,0,0:0:0:0:
128,160,16655,1,0,0:0:0:0:
168,224,17039,1,0,0:0:0:0:
232,248,17424,1,0,0:0:0:0:
280,200,17809,1,0,0:0:0:0:
272,136,18193,1,0,0:0:0:0:
216,104,18578,1,0,0:0:0:0:
160,136,18962,1,0,0:0:0:0:
144,208,19347,1,0,0:0:0:0:
200,248,19732,1,0,0:0:0:0:
264,224,20116,1,0,0:0:0:0:
320,184,20501,1,0,0:0:0:0:
352,128,20885,1,0,0:0:0:0:
296,96,21270,1,0,0:0:0:0:
232,104,21655,1,0,0:0:0:0:
192,160,22039,1,0,0:0:0:0:
224,216,22424,1,0,0:0:0:0:
288,200,22809,1,0,0:0:0:0:
320,144,23193,1,0,0:0:0:0:
272,96,23578,1,0,0:0:0:0:
208,112,23962,1,0,0:0:0:0:
192,168,24347,1,0,0:0:0:0:
224,216,24732,1,0,0:0:0:0:
288,216,25116,1,0,0:0:0:0:
328,168,25501,1,0,0:0:0:0:
288,112,25885,1,0,0:0:0:0:
224,128,26270,1,0,0:0:0:0:
192,184,26655,1,0,0:0:0:0:
232,232,27039,1,0,0:0:0:0:
296,224,27424,1,0,0:0:0:0:
320,160,27809,1,0,0:0:0:0:
272,112,28193,1,0,0:0:0:0:
224,128,28385,1,0,0:0:0:0:
176,192,28770,1,0,0:0:0:0:
208,232,28962,1,0,0:0:0:0:
328,208,29539,1,0,0:0:0:0:
368,184,29732,1,0,0:0:0:0:
408,160,29924,1,0,0:0:0:0:
288,128,30501,1,0,0:0:0:0:
216,112,30885,1,0,0:0:0:0:
216,168,31270,1,0,0:0:0:0:
296,224,31847,1,0,0:0:0:0:
328,200,32039,1,0,0:0:0:0:
344,136,32424,1,0,0:0:0:0:
288,112,32809,1,0,0:0:0:0:
232,120,33193,1,0,0:0:0:0:
216,176,33578,1,0,0:0:0:0:
256,216,33962,1,0,0:0:0:0:
312,208,34347,1,0,0:0:0:0:
360,136,34924,1,0,0:0:0:0:
360,120,35116,1,0,0:0:0:0:
304,96,35501,1,0,0:0:0:0:
248,104,35885,1,0,0:0:0:0:
200,152,36270,1,0,0:0:0:0:
248,192,36655,1,0,0:0:0:0:
320,152,37039,1,0,0:0:0:0:
336,104,37232,1,0,0:0:0:0:
232,80,37809,1,0,0:0:0:0:
192,104,38001,1,0,0:0:0:0:
152,136,38193,1,0,0:0:0:0:
160,216,38578,1,0,0:0:0:0:
224,240,38962,1,0,0:0:0:0:
264,192,39347,1,0,0:0:0:0:
320,152,39732,1,0,0:0:0:0:
360,200,40116,1,0,0:0:0:0:
416,176,40501,1,0,0:0:0:0:
376,128,40885,1,0,0:0:0:0:
312,120,41270,1,0,0:0:0:0:
256,152,41655,1,0,0:0:0:0:
240,176,41847,1,0,0:0:0:0:
232,192,42039,1,0,0:0:0:0:
296,208,42424,1,0,0:0:0:0:
328,192,42616,1,0,0:0:0:0:
344,168,42809,1,0,0:0:0:0:
304,112,43193,1,0,0:0:0:0:
232,96,43578,1,0,0:0:0:0:
176,128,43962,1,0,0:0:0:0:
160,152,44155,1,0,0:0:0:0:
160,176,44347,1,0,0:0:0:0:
160,200,44539,1,0,0:0:0:0:
168,224,44732,1,0,0:0:0:0:
200,248,44924,1,0,0:0:0:0:
248,256,45116,1,0,0:0:0:0:
304,200,45501,1,0,0:0:0:0:
272,144,45885,1,0,0:0:0:0:
208,136,46270,1,0,0:0:0:0:
160,176,46655,1,0,0:0:0:0:
176,248,47039,1,0,0:0:0:0:
200,280,47232,1,0,0:0:0:0:
200,280,47424,1,0,0:0:0:0:
200,280,47616,1,0,0:0:0:0:
232,256,47809,1,0,0:0:0:0:
240,176,48193,1,0,0:0:0:0:
184,128,48578,1,0,0:0:0:0:
136,176,48962,1,0,0:0:0:0:
184,232,49347,1,0,0:0:0:0:
248,224,49732,1,0,0:0:0:0:
296,176,50116,1,0,0:0:0:0:
264,120,50501,1,0,0:0:0:0:
200,120,50885,1,0,0:0:0:0:
160,168,51270,1,0,0:0:0:0:
192,208,51655,1,0,0:0:0:0:
248,216,52039,1,0,0:0:0:0:
288,176,52424,1,0,0:0:0:0:
232,152,52809,1,0,0:0:0:0:
168,160,53193,1,0,0:0:0:0:
152,216,53578,1,0,0:0:0:0:
208,248,53962,1,0,0:0:0:0:
256,200,54347,1,0,0:0:0:0:
168,104,55116,1,0,0:0:0:0:
168,240,55885,1,0,0:0:0:0:
216,232,56078,1,0,0:0:0:0:
304,176,56655,1,0,0:0:0:0:
312,104,57039,1,0,0:0:0:0:
248,96,57424,1,0,0:0:0:0:
192,120,57809,1,0,0:0:0:0:
152,168,58193,1,0,0:0:0:0:
160,232,58578,1,0,0:0:0:0:
224,232,58962,1,0,0:0:0:0:
264,184,59347,1,0,0:0:0:0:
256,128,59732,1,0,0:0:0:0:
200,96,60116,1,0,0:0:0:0:
136,112,60501,1,0,0:0:0:0:
176,200,61078,1,0,0:0:0:0:
216,224,61270,1,0,0:0:0:0:
264,232,61462,1,0,0:0:0:0:
312,248,61655,1,0,0:0:0:0:
368,200,62039,1,0,0:0:0:0:
376,104,62616,1,0,0:0:0:0:
288,80,63193,1,0,0:0:0:0:
232,104,63578,1,0,0:0:0:0:
280,192,64155,1,0,0:0:0:0:
304,208,64347,1,0,0:0:0:0:
328,200,64539,1,0,0:0:0:0:
344,184,64732,1,0,0:0:0:0:
352,128,65116,1,0,0:0:0:0:
264,80,65693,1,0,0:0:0:0:
176,120,66270,1,0,0:0:0:0:
168,184,66655,1,0,0:0:0:0:
264,208,67232,1,0,0:0:0:0:
288,208,67424,1,0,0:0:0:0:
312,200,67616,1,0,0:0:0:0:
328,192,67809,1,0,0:0:0:0:
344,128,68193,1,0,0:0:0:0:
256,88,68770,1,0,0:0:0:0:
168,120,69347,1,0,0:0:0:0:
160,184,69732,1,0,0:0:0:0:
256,104,70501,1,0,0:0:0:0:
208,72,70885,1,0,0:0:0:0:
152,96,71270,1,0,0:0:0:0:
144,152,71655,1,0,0:0:0:0:
168,176,71847,1,0,0:0:0:0:
184,192,72039,1,0,0:0:0:0:
232,224,72424,1,0,0:0:0:0:
288,248,72809,1,0,0:0:0:0:
328,200,73193,1,0,0:0:0:0:
304,144,73578,1,0,0:0:0:0:
240,120,73962,1,0,0:0:0:0:
200,168,74347,1,0,0:0:0:0:
296,272,75116,1,0,0:0:0:0:
336,208,75501,1,0,0:0:0:0:
360,176,75693,1,0,0:0:0:0:
376,128,75885,1,0,0:0:0:0:
320,104,76270,1,0,0:0:0:0:
288,104,76462,1,0,0:0:0:0:
256,104,76655,1,0,0:0:0:0:
224,240,77424,1,0,0:0:0:0:
224,280,77616,1,0,0:0:0:0:
264,272,77809,1,0,0:0:0:0:
312,256,78001,1,0,0:0:0:0:
352,224,78385,1,0,0:0:0:0:
368,208,78578,1,0,0:0:0:0:
376,192,78770,1,0,0:0:0:0:
384,144,78962,1,0,0:0:0:0:
376,72,79347,1,0,0:0:0:0:
344,104,79539,1,0,0:0:0:0:
296,120,79732,1,0,0:0:0:0:
240,176,80116,1,0,0:0:0:0:
192,224,80501,1,0,0:0:0:0:
152,168,80885,1,0,0:0:0:0:
152,240,81270,1,0,0:0:0:0:
176,304,81655,1,0,0:0:0:0:
240,296,82039,1,0,0:0:0:0:
264,232,82424,1,0,0:0:0:0:
224,176,82809,1,0,0:0:0:0:
192,120,83193,1,0,0:0:0:0:
248,88,83578,1,0,0:0:0:0:
304,144,83962,1,0,0:0:0:0:
336,200,84347,1,0,0:0:0:0:
280,224,84732,1,0,0:0:0:0:
224,192,85116,1,0,0:0:0:0:
208,136,85501,1,0,0:0:0:0:
264,104,85885,1,0,0:0:0:0:
312,232,86655,1,0,0:0:0:0:
256,192,87039,1,0,0:0:0:0:
192,216,87424,1,0,0:0:0:0:
160,272,87809,1,0,0:0:0:0:
200,320,88193,1,0,0:0:0:0:
256,296,88578,1,0,0:0:0:0:
256,232,88962,1,0,0:0:0:0:
232,168,89347,1,0,0:0:0:0:
184,136,89732,1,0,0:0:0:0:
216,80,90116,1,0,0:0:0:0:
280,96,90501,1,0,0:0:0:0:
328,144,90885,1,0,0:0:0:0:
320,208,91270,1,0,0:0:0:0:
264,232,91655,1,0,0:0:0:0:
208,216,92039,1,0,0:0:0:0:
168,160,92424,1,0,0:0:0:0:
216,112,92809,1,0,0:0:0:0:
248,104,93001,1,0,0:0:0:0:
280,104,93193,1,0,0:0:0:0:
320,152,93578,1,0,0:0:0:0:
336,168,93770,1,0,0:0:0:0:
352,184,93962,1,0,0:0:0:0:
328,240,94347,1,0,0:0:0:0:
304,256,94539,1,0,0:0:0:0:
280,272,94732,1,0,0:0:0:0:
216,240,95116,1,0,0:0:0:0:
160,200,95501,1,0,0:0:0:0:
288,120,96270,1,0,0:0:0:0:
304,184,96655,1,0,0:0:0:0:
272,240,97039,1,0,0:0:0:0:
208,256,97424,1,0,0:0:0:0:
152,208,97809,1,0,0:0:0:0:
136,136,98193,1,0,0:0:0:0:
264,176,98962,1,0,0:0:0:0:
304,224,99347,1,0,0:0:0:0:
336,168,99732,1,0,0:0:0:0:
288,128,100116,1,0,0:0:0:0:
224,120,100501,1,0,0:0:0:0:
176,168,100885,1,0,0:0:0:0:
216,216,101270,1,0,0:0:0:0:
272,240,101655,1,0,0:0:0:0:
296,184,102039,1,0,0:0:0:0:
264,144,102424,1,0,0:0:0:0:
200,136,102809,1,0,0:0:0:0:
152,176,103193,1,0,0:0:0:0:
168,240,103578,1,0,0:0:0:0:
224,280,103962,1,0,0:0:0:0:
280,248,104347,1,0,0:0:0:0:
312,192,104732,1,0,0:0:0:0:
280,144,105116,1,0,0:0:0:0:
216,120,105501,1,0,0:0:0:0:
160,160,105885,1,0,0:0:0:0:
272,248,106655,1,0,0:0:0:0:
328,216,107039,1,0,0:0:0:0:
312,152,107424,1,0,0:0:0:0:
264,128,107809,1,0,0:0:0:0:
208,152,108193,1,0,0:0:0:0:
192,184,108385,1,0,0:0:0:0:
256,272,108962,1,0,0:0:0:0:
320,128,109732,1,0,0:0:0:0:
192,176,110501,1,0,0:0:0:0:
248,296,111270,1,0,0:0:0:0:
328,176,112039,1,0,0:0:0:0:
208,136,112809,1,0,0:0:0:0:
96,64,113578,1,0,0:0:0:0:
192,152,114347,1,0,0:0:0:0:
296,240,115116,1,0,0:0:0:0:
408,320,115885,1,0,0:0:0:0:
352,208,116462,1,0,0:0:0:0:
200,136,117424,1,0,0:0:0:0:
224,264,118193,1,0,0:0:0:0:
328,176,118962,1,0,0:0:0:0:
192,176,119732,1,0,0:0:0:0:
256,56,120501,1,0,0:0:0:0:
128,104,121270,1,0,0:0:0:0:
176,232,122039,1,0,0:0:0:0:
288,152,122809,1,0,0:0:0:0:
224,280,123578,1,0,0:0:0:0:
224,280,123770,1,0,0:0:0:0:
328,232,124347,1,0,0:0:0:0:
304,96,125116,1,0,0:0:0:0:
208,184,125885,1,0,0:0:0:0:
