osu file format v5

[General]
AudioFilename: Alice in Videoland - Stuck On My Vision.mp3
AudioLeadIn: 0
PreviewTime: 32375
Countdown: 0
SampleSet: Normal
StackLeniency: 1
Mode: 0
LetterboxInBreaks: 1
EditorBookmarks: 1846,28335,38654,45463,50782,66633,85250,98228,109292,114186

[Metadata]
Title:Stuck On My Vision
Artist:Alice In Videoland
Creator:Symbolic
Version:Normal
Source:
Tags:

[Difficulty]
HPDrainRate:4
CircleSize:4
OverallDifficulty:4
SliderMultiplier:1.4
SliderTickRate:2

[Events]
//Background and Video events
0,0,"newbackground.jpg"
//Break Periods
2,28428,31164
2,47365,48185
2,50768,65845
2,81192,83928
2,100131,100951
2,103535,104568
2,111620,112228
//Storyboard Layer 0 (Background)
//Storyboard Layer 1 (Failing)
//Storyboard Layer 2 (Passing)
//Storyboard Layer 3 (Foreground)
//Storyboard Sound Samples
//Background Colour Transformations
3,100,0,0,0

[TimingPoints]
1844,425.531914893617,4,1,0,100,1

[Colours]
Combo1 : 240,0,222
Combo2 : 236,124,0
Combo3 : 192,192,192
Combo4 : 255,250,32
Combo5 : 77,255,17

[HitObjects]
56,160,2482,2,0,B|56:232,1,70
128,232,2907,2,0,B|200:232,1,70
200,160,3333,1,0
128,160,3546,1,0
128,88,3758,1,0
336,88,4397,6,0,B|336:160,1,70
408,160,4822,2,0,B|408:88,1,70
408,160,5248,1,0
200,160,5886,5,0
200,160,6099,1,0
200,232,6312,1,0
200,232,6524,1,0
128,232,6737,1,0
128,232,6950,1,0
336,232,7588,5,0
336,232,7801,1,0
408,232,8014,1,0
408,232,8226,1,0
408,304,8439,2,0,B|336:304,2,70
408,160,9290,6,0,B|336:160,2,70
408,88,9929,2,0,B|336:88,1,70
264,88,10354,1,0
264,160,10567,1,0
56,160,11205,6,0,B|128:160,1,70
126,160,11631,1,0
192,160,11844,1,0
192,232,12056,1,0
400,232,12695,6,0,B|400:160,2,70
400,162,13333,1,0
400,88,13546,1,0
400,88,13758,1,0
192,88,14397,5,8
264,88,14609,1,8
264,224,15035,5,2
264,224,15248,1,2
192,224,15461,1,2
192,224,15673,1,2
48,224,16099,6,2,B|120:224,1,70
120,152,16524,2,2,B|192:152,2,70
48,152,17163,1,2
48,152,17375,1,2
192,152,17801,6,2,L|120:152|120:80|192:80|256:80|256:152,1,350
416,264,19503,6,2,L|344:264|344:192|416:192|416:120|352:120,1,350
144,120,21205,5,8
144,120,21418,1,8
280,120,21843,5,0
280,120,22056,1,0
352,120,22269,1,0
352,120,22482,1,0
352,256,22907,6,0,L|280:256,2,70
282,256,23546,2,0,L|208:256,1,70
144,256,23971,2,0,L|144:184,1,70
144,48,24609,6,0,L|216:48|216:120|144:120|72:120|72:184,1,350
280,176,26312,5,0
280,176,26524,1,0
352,176,26737,1,0
352,176,26950,1,0
424,176,27163,1,0
424,176,27375,1,0
280,328,28014,6,8,L|208:328,1,70
168,328,32482,5,0
168,192,32907,2,0,L|240:192,1,70
304,192,33333,1,0
304,120,33546,1,0
32,192,34397,6,0,L|32:120|32:48|104:48|104:112|104:184|176:184|176:112|176:48|248:48|248:120|248:216,1,770
416,312,37375,5,0
416,312,37588,1,0
344,312,37801,1,0
344,240,38014,1,0
416,240,38226,1,0
416,240,38439,1,0
136,240,39290,5,0
136,96,39716,1,0
136,168,39929,1,0
208,168,40141,1,0
208,96,40354,1,0
256,344,41205,6,0,L|256:272|256:200|328:200|328:264|328:336|400:336|400:264|400:200|472:200|472:272|472:368,1,770
256,344,44184,5,0
184,344,44397,1,0
184,272,44609,1,0
184,272,44822,1,0
256,272,45035,1,0
256,200,45248,1,0
40,40,46099,5,8
176,40,46524,2,8,L|176:112,1,70
176,176,46950,2,8,L|248:176,1,70
256,192,49503,5,8
392,192,49929,2,8,L|320:192,1,70
256,192,50354,2,8,L|256:120,1,70
256,192,67163,5,8
256,192,67375,1,8
400,192,67801,5,2
400,120,68014,1,2
328,120,68226,1,2
328,192,68439,1,2
184,192,68865,6,2,L|184:120,1,70
112,120,69290,1,2
112,192,69503,1,2
112,264,69716,1,2
184,264,69929,1,2
184,264,70141,1,2
320,264,70567,6,2,L|320:192,1,70
248,192,70992,2,2,L|176:192,1,70
176,120,71418,2,2,L|248:120,1,70
456,120,72269,5,2
456,120,72482,1,2
456,192,72695,1,2
456,192,72907,1,2
456,264,73120,1,2
456,264,73333,1,2
248,264,73971,6,8,L|320:264,1,70
248,144,74609,6,0,L|176:144|176:72|248:72,1,210
392,104,75673,6,0,L|392:176,1,70
392,240,76099,1,0
392,240,76312,1,0
320,240,76524,1,0
320,240,76737,1,0
320,240,76950,1,0
112,240,77588,6,0,L|184:240,1,70
248,240,78014,2,0,L|248:168,2,70
456,240,79078,6,0,L|384:240|384:312|312:312|248:312|176:312,1,350
176,104,80780,5,8
248,104,80992,1,8
248,104,85248,5,0
104,104,85673,2,0,L|176:104|176:176|176:248,1,210
456,240,87163,6,0,L|384:240,2,70
386,240,87801,2,0,B|384:144,1,70
456,168,88226,1,0
456,96,88439,2,0,L|384:96,1,70
386,96,88865,1,0
312,96,89078,2,0,L|312:168,1,70
312,166,89503,1,0
56,336,90141,5,0
128,336,90354,1,0
200,336,90567,2,0,L|272:336,1,70
336,336,90992,1,0
408,336,91205,1,0
408,56,92056,5,0
264,56,92482,1,0
264,56,92695,1,0
264,56,92907,1,0
264,56,93120,1,0
264,336,93971,5,0
264,264,94184,2,0,L|336:264,1,70
336,336,94609,1,0
408,336,94822,1,0
408,264,95035,2,0,L|480:264,1,70
480,336,95461,1,0
480,264,95673,1,0
480,192,95886,2,0,L|408:192,1,70
336,192,96312,1,0
120,192,96950,6,0,L|120:120|120:56|200:56|200:120|200:216,1,350
440,320,98865,5,0
296,320,99290,1,0
296,320,99503,1,0
296,320,99716,1,0
296,320,99929,1,0
120,48,102269,6,2,L|48:48,2,70,0|0|0
192,48,102907,2,2,L|264:48,2,70
256,192,105886,6,0,L|328:192|328:120|256:120|192:120|192:192|192:264|264:264|336:264|400:264|400:192,1,700
400,128,108226,5,4
400,56,108439,1,4
328,56,108652,1,4
256,56,108865,1,4
184,56,109078,1,4
456,336,110354,5,4
384,336,110567,2,4,L|344:336|312:336|272:336|240:336,1,140
176,336,111205,1,4
176,336,111418,1,4
256,192,113546,5,4
256,192,113758,1,4
256,192,113971,1,4
