osu file format v5

[General]
AudioFilename: Alice in Videoland - Stuck On My Vision.mp3
AudioLeadIn: 0
PreviewTime: 32375
Countdown: 0
SampleSet: Normal
StackLeniency: 1
Mode: 0
LetterboxInBreaks: 1
EditorBookmarks: 1846,28335,38654,45463,52909,59935,66633,85250,98228,109292,115675,122695,136312,149078

[Metadata]
Title:Stuck On My Vision
Artist:Alice In Videoland
Creator:Symbolic
Version:Hard
Source:
Tags:

[Difficulty]
HPDrainRate:7
CircleSize:5
OverallDifficulty:7
SliderMultiplier:1.7
SliderTickRate:2

[Events]
//Background and Video events
0,0,"newbackground.jpg"
//Break Periods
2,60767,66263
2,116086,121795
//Storyboard Layer 0 (Background)
//Storyboard Layer 1 (Failing)
//Storyboard Layer 2 (Passing)
//Storyboard Layer 3 (Foreground)
//Storyboard Sound Samples
//Background Colour Transformations
3,100,0,0,0

[TimingPoints]
1844,425.531914893617,4,1,0,100,1

[Colours]
Combo1 : 240,0,222
Combo2 : 236,124,0
Combo3 : 192,192,192
Combo4 : 255,250,32
Combo5 : 77,255,17

[HitObjects]
56,160,2482,1,0
56,248,2695,1,0
144,248,2907,2,0,L|232:248|232:272,1,85
232,160,3333,1,0
144,160,3546,1,0
144,72,3758,1,0
400,72,4397,6,0,L|352:72|352:32,1,85
352,120,4822,1,0
352,208,5035,1,0
440,208,5248,1,0
184,224,5886,5,0
272,224,6099,1,0
272,312,6312,1,0
184,312,6524,1,0
96,312,6737,2,0,L|96:216,1,85
336,312,7588,5,0
424,312,7801,1,0
424,224,8014,1,4
336,224,8226,2,0,B|311:161|416:168,1,85
376,80,8652,1,0
376,168,8865,1,0
208,168,9290,6,0,B|136:168|136:120,2,85
208,256,9929,1,0
120,256,10141,1,0
32,256,10354,1,0
32,168,10567,1,0
288,168,11205,5,0
376,168,11418,1,0
376,256,11631,2,0,B|288:256,1,85
376,256,12056,1,0
120,256,12695,5,0
120,344,12907,1,0
208,344,13120,1,0
208,256,13333,1,0
294,256,13546,2,0,B|198:256,1,85
464,256,14397,5,0
376,256,14609,1,0
376,80,15035,5,2
376,168,15248,1,2
288,168,15461,1,2
288,80,15673,1,2
112,80,16099,6,2,B|80:144|160:168,1,85
216,152,16524,2,2,B|248:88|168:64,1,85,0|2
288,80,16950,1,2
288,168,17163,1,2
376,168,17375,1,2
376,336,17801,5,2
288,336,18014,1,2
200,336,18226,1,2
200,248,18439,1,2
288,248,18652,2,2,B|288:160,1,85
32,160,19503,6,2,B|120:160,2,85
32,248,20141,1,2
120,248,20354,1,2
208,248,20567,1,2
464,248,21205,5,8
376,248,21418,1,8
376,72,21843,5,0
288,72,22056,1,0
288,160,22269,2,0,B|368:80,1,85
288,256,22907,5,0
288,344,23120,1,0
361,299,23333,1,0
360,216,23546,1,0
432,256,23758,2,0,B|432:168,2,85
280,160,24609,6,0,B|280:216|216:216,1,85
144,216,25035,2,0,B|144:272|208:272,1,85,0|0
280,272,25461,1,0
239,346,25673,1,0
64,152,26312,5,0
64,64,26524,1,0
152,64,26737,1,0
152,152,26950,1,0
152,240,27163,1,0
64,240,27375,1,0
304,152,28014,5,0
304,64,28226,1,0
392,64,28439,2,4,B|392:152,1,85
392,64,28865,1,4
480,64,29078,5,4
477,150,29290,2,4,B|389:150,1,85
392,232,29716,1,4
304,232,29929,1,4
304,144,30141,1,4
304,320,30567,1,4
128,320,30992,5,4
216,320,31205,2,4,B|216:232,1,85
129,235,31631,2,4,B|217:235,1,85
216,144,32056,1,4
128,144,32269,1,4
128,56,32482,6,0,B|208:56|208:112|296:112,1,170
368,112,33120,1,0
384,200,33333,1,0
296,208,33546,1,0
40,208,34397,5,0
40,120,34609,1,0
40,32,34822,1,0
128,32,35035,1,0
128,120,35248,1,0
128,208,35461,2,0,B|216:208,1,85,0|0
216,120,35886,1,0
216,32,36099,1,0
302,32,36312,2,0,L|214:32,1,85
128,32,36737,1,0
288,224,37375,5,0
376,224,37588,1,0
376,136,37801,1,0
288,136,38014,2,0,B|288:48,2,85,0|0|0
40,344,39290,5,0
208,344,39716,1,0
208,256,39929,1,0
152,192,40141,1,0
208,128,40354,1,0
456,328,41205,5,0
368,328,41418,2,0,B|368:240,1,85
456,240,41843,1,0
456,152,42056,1,0
368,152,42269,1,0
280,152,42482,1,0
280,240,42695,2,0,B|280:328,1,85
192,326,43120,1,0
192,240,43333,1,0
192,152,43546,1,0
448,152,44184,6,0,B|448:88|384:88,1,85
320,88,44609,1,0
320,176,44822,1,0
232,176,45035,2,0,B|168:176|168:112,1,85
440,336,46099,5,8
440,168,46524,2,8,B|440:80,3,85
288,168,47588,5,4
120,168,48014,1,4
120,336,48439,1,4
288,328,48865,1,4
288,328,49078,1,4
288,328,49290,1,4
288,240,49503,5,8
456,240,49929,1,8
456,152,50141,1,8
368,152,50354,1,8
368,240,50567,1,8
200,240,50992,5,4
200,72,51418,1,4
116,72,51631,2,4,B|204:72,1,85
368,72,52269,1,4
368,157,52482,2,4,B|368:69,1,85
280,72,52907,6,0,B|128:72|128:223|285:223|288:344,1,340
448,312,54184,5,0
448,224,54397,2,0,B|360:224,1,85
360,312,54822,1,0
192,312,55248,5,0
192,224,55461,1,0
272,224,55673,1,0
360,224,55886,1,0
360,312,56099,2,0,B|272:312,2,85
360,56,57163,5,0
272,56,57375,1,0
272,144,57588,1,0
358,144,57801,2,0,B|270:144,1,85
80,312,58652,5,0
80,224,58865,1,0
168,224,59078,1,0
256,224,59290,2,0,B|256:312,1,85
168,312,59716,1,0
168,56,60354,5,4
256,56,60567,1,4
256,192,67163,5,10
256,192,67375,1,10
424,192,67801,6,2,B|424:104,1,85
336,104,68226,2,2,B|272:104|272:40,1,85
104,56,68865,6,2,B|192:56|192:72,1,85
192,152,69290,1,2
104,152,69503,1,2
104,232,69716,1,2
192,232,69929,2,2,B|152:296|184:328,1,85
320,232,70567,5,2
408,232,70780,2,2,B|408:144,1,85
320,144,71205,1,2
232,144,71418,1,2
232,232,71631,1,2
40,344,72269,5,2
40,256,72482,1,2
40,168,72695,1,2
40,80,72907,1,2
120,40,73120,1,2
208,40,73333,1,2
208,296,73971,5,8
208,208,74184,1,8
376,208,74609,5,0
288,208,74822,1,0
288,120,75035,2,0,B|200:120,1,85
40,120,75673,6,0,B|40:32,1,85
126,36,76099,1,0
128,120,76312,1,0
216,120,76524,2,0,B|216:32,1,85
216,120,76950,1,0
408,288,77588,5,0
320,288,77801,1,0
320,200,78014,1,0
408,200,78226,1,0
408,112,78439,1,0
152,112,79078,6,0,B|240:112,1,85
240,192,79503,1,0
152,192,79716,1,0
152,277,79929,2,0,B|152:181,1,85
408,192,80780,5,0
408,104,80992,1,0
320,104,81205,6,4,B|256:104|256:168,1,85
336,184,81631,1,4
336,272,81843,1,4
248,272,82056,1,4
248,184,82269,1,4
160,184,82482,2,4,B|160:272,2,85
264,48,83333,6,4,B|352:48|352:120|456:120,1,170
416,200,83971,1,4
328,200,84184,1,4
328,200,84290,1,4
328,200,84397,1,4
328,200,84503,1,4
328,200,84609,1,4
328,112,84822,2,4,B|240:112,1,85
160,112,85248,5,0
160,280,85673,1,0
248,280,85886,1,0
203,208,86099,1,0
288,208,86312,1,0
56,56,87163,5,0
144,56,87375,2,0,B|144:120|216:120,2,85
232,56,88014,1,0
320,56,88226,1,0
408,56,88439,2,0,L|408:152,1,85
320,144,88865,1,0
235,144,89078,2,0,L|136:144,1,85
64,144,89503,1,0
248,312,90141,5,0
160,312,90354,1,0
160,224,90567,2,0,B|160:296|240:296,1,85
287,291,90992,2,0,B|375:291,1,85
112,72,92056,5,0
280,72,92482,1,0
368,72,92695,1,0
368,152,92907,1,0
280,152,93120,1,0
168,72,93971,5,0
256,72,94184,2,0,B|256:144|184:144,1,85
200,224,94609,1,0
280,224,94822,1,0
368,224,95035,1,0
368,136,95248,1,0
280,136,95461,1,0
272,48,95673,2,0,B|200:48|200:120,1,85
120,88,96099,1,0
120,176,96312,1,0
376,176,96950,5,0
376,88,97163,1,0
464,88,97375,2,0,B|464:176,1,85,0|0
376,176,97801,1,0
288,176,98014,1,0
48,336,98865,5,8
48,168,99290,1,8
48,256,99503,1,8
136,256,99716,1,8
224,256,99929,1,8
392,256,100354,6,4,B|392:168|344:168|344:80,2,170
224,256,101631,1,4
224,168,101843,1,4
224,80,102056,1,4
136,80,102269,6,2,B|136:168,1,85
48,168,102695,1,2
48,256,102907,2,2,B|144:256,1,85
136,168,103333,1,2
304,168,103758,5,4
304,336,104184,1,4
392,336,104397,1,4
392,248,104609,1,4
392,80,105035,2,4,B|480:80,2,85
224,80,105886,6,0,B|152:80|152:144,1,85
224,160,106312,2,0,B|152:160|152:96,1,85,0|0
72,120,106737,1,0
72,208,106950,1,0
160,208,107163,2,0,L|160:304,1,85
248,296,107588,1,0
248,208,107801,2,0,L|344:208,1,85
336,120,108226,1,8
248,120,108439,2,8,B|160:120,1,85
160,32,108865,1,8
248,32,109078,1,12
416,32,109503,6,4,B|416:120,1,85
416,288,110141,2,4,B|416:200,1,85
328,200,110567,5,0
328,200,110673,1,0
328,200,110780,1,0
328,200,110886,1,0
328,200,110992,1,0
240,200,111205,6,4,B|144:200,1,85
152,288,111631,1,0
152,288,111737,1,0
152,288,111843,1,0
240,288,112056,1,0
408,288,112482,2,4,B|296:288|296:184,1,170
296,104,113120,1,4
128,104,113546,5,0
216,104,113758,1,0
216,192,113971,1,0
216,280,114184,6,4,B|392:280,1,170
384,192,114822,1,4
384,192,114929,1,4
384,192,115035,1,4
384,192,115141,1,4
384,192,115248,1,4
384,104,115461,1,2
296,104,115673,1,2
208,104,115886,1,4
256,104,122695,5,0
256,192,122908,1,0
344,192,123120,5,4
344,104,123333,1,4
256,104,123546,5,0
88,104,123971,5,0
88,104,124397,2,0,B|88:192,1,85
168,336,125035,1,0
168,336,125249,1,0
256,336,125461,1,4
344,336,125673,2,0,B|344:248,1,85,0|0
344,168,126099,5,4
256,168,126312,1,4
80,168,126737,1,0
168,168,126950,1,0
304,64,127376,1,0
304,64,127801,5,0
392,64,128014,1,0
392,232,128439,1,4
392,232,128652,5,0
392,232,128865,1,0
392,232,129078,1,0
392,232,129290,1,0
304,232,129503,6,0,B|216:232,1,85
136,232,129929,1,0
48,232,130141,1,0
48,144,130354,1,0
136,144,130567,1,0
304,144,130992,5,0
472,144,131418,1,0
472,56,131631,1,0
304,56,132056,1,0
216,56,132269,5,4
128,56,132482,5,0
128,144,132695,5,8
128,144,132801,1,8
128,144,132907,1,8
40,144,133120,5,0
40,232,133333,1,0
128,232,133546,5,4
128,232,133758,1,4
128,320,133971,6,0,B|312:320,1,170
384,320,134609,5,8
384,320,134716,1,8
384,320,134822,1,8
472,320,135035,5,8
472,320,135141,1,8
472,320,135248,1,8
472,232,135461,6,0,B|472:144,3,85
472,64,136312,6,0,B|392:64|392:120|304:120,1,170
224,120,136950,1,0
224,120,137163,2,0,B|224:216,1,85
480,352,138227,5,0
392,352,138439,2,0,B|296:352,3,85
224,352,139290,1,0
224,264,139503,2,0,B|312:264,1,85
392,264,139929,1,0
392,176,140142,2,0,L|304:176,1,85
224,176,140567,1,0
32,32,141205,5,0
96,88,141418,1,0
184,88,141631,1,0
272,88,141844,2,0,B|272:176,2,85,0|0|0
48,344,143120,5,0
216,344,143546,1,0
216,344,143759,1,0
304,344,143971,1,0
304,344,144184,1,0
80,88,145035,5,0
168,88,145248,2,0,B|216:88|224:160,1,85
136,159,145673,2,0,B|142:215|190:215,1,85,0|0
272,216,146099,1,0
360,216,146312,2,0,B|464:216,1,85
360,216,146737,1,0
320,136,146950,2,0,B|416:104,1,85
344,40,147375,1,0
248,264,148014,6,0,B|184:264|184:200,1,85,0|0
184,136,148439,1,0
184,48,148652,1,0
272,48,148865,2,0,B|336:48|336:112,1,85,0|8
334,93,149184,5,8
334,92,149290,1,8
336,176,149503,1,8
464,176,149822,1,8
464,176,149928,1,8
464,344,150354,5,4
288,344,150780,1,4
288,168,151205,1,4
200,168,151418,1,4
200,256,151631,1,4
288,256,151843,1,4
288,168,152056,1,4
200,168,152269,1,4
112,168,152482,2,4,B|24:144,1,85
32,56,152907,1,4
120,56,153120,1,4
208,56,153333,6,0,B|296:56,1,85
376,56,153758,1,0
376,144,153971,2,0,B|376:232,1,85
376,312,154397,1,0
288,312,154609,5,4
112,312,155035,1,4
112,136,155461,1,4
288,136,155886,1,4
288,136,156099,1,4
288,136,156312,1,4
288,136,156524,1,4
376,136,156737,5,2
376,312,157163,1,2
376,312,157375,1,2
376,224,157588,1,2
376,224,157801,1,2
24,224,158652,5,2
112,224,158865,2,2,B|200:224,1,85
280,224,159290,2,2,B|280:320,1,85
367,309,159716,1,2
368,224,159929,2,2,B|368:136,1,85
368,48,160354,1,2
280,48,160567,2,2,B|280:136,1,85
192,133,160992,1,2
40,344,161631,5,2
40,344,161843,1,2
128,344,162056,1,2
128,344,162269,1,2
216,344,162482,1,2
216,344,162695,1,2
480,344,163333,6,4,B|480:248,1,85
480,80,163971,2,4,B|392:80,1,85
304,80,164397,2,4,B|304:176,1,85
