osu file format v5

[General]
AudioFilename: Alice in Videoland - Lay me Down.mp3
AudioLeadIn: 0
PreviewTime: -1
Countdown: 1
SampleSet: Normal
StackLeniency: 0.7
Mode: 0
LetterboxInBreaks: 1
EditorBookmarks: 4437,15637,31637,55637,73237,100837,114837,146837

[Metadata]
Title:Lay Me Down
Artist:Alice In Videoland
Creator:mrtn
Version:Normal
Source:
Tags:

[Difficulty]
HPDrainRate:6
CircleSize:5
OverallDifficulty:5
SliderMultiplier:1.4
SliderTickRate:1

[Events]
//Background and Video events
//Break Periods
2,44212,55012
2,70412,72412
2,98612,100012
2,109410,111210
//Storyboard Layer 0 (Background)
//Storyboard Layer 1 (Failing)
//Storyboard Layer 2 (Passing)
//Storyboard Layer 3 (Foreground)
//Storyboard Sound Samples
//Background Colour Transformations
3,100,163,162,255

[TimingPoints]
4437,400,4,1,0,100,1
100837,400,4,2,0,100,1
114837,400,4,1,0,100,1

[HitObjects]
80,96,16437,1,0
80,96,16637,1,0
80,96,16837,1,0
80,96,17037,2,0,B|152:96,1,70
264,96,17637,6,0,C|264:192,2,70
376,96,18437,5,0
376,152,18637,1,0
376,264,19037,1,4
232,344,19637,6,0,C|144:344,4,70
232,288,20637,1,0
192,248,20837,1,0
232,216,21037,1,0
192,176,21237,1,0
240,144,21437,2,0,C|240:72,4,70
408,128,22837,5,0
408,128,23037,1,0
408,128,23237,1,0
408,128,23437,1,0
408,128,23637,1,4
296,128,24037,5,0
240,128,24237,1,0
184,128,24437,1,0
184,240,24837,5,0
240,240,25037,1,0
296,240,25237,1,0
296,240,25437,1,4
424,128,26037,6,0,C|352:128,2,70
424,240,26837,2,0,C|424:312,1,70
368,312,27237,2,0,C|288:312,2,70
368,312,27837,1,0
368,256,28037,1,0
312,256,28237,1,0
256,256,28437,1,0
256,200,28637,1,4
40,136,29437,1,0
208,136,30037,1,0
40,136,30637,1,0
208,136,31237,1,0
456,64,32037,6,0,C|456:144,2,70
344,64,32837,2,0,C|344:152,1,70
344,192,33237,2,0,C|264:192,1,70
272,136,33637,2,0,C|272:56,1,70
272,66,34037,1,0
160,64,34437,5,2
160,64,34637,1,2
160,176,35037,1,2
160,64,35437,5,0
160,64,35637,1,0
272,64,36037,6,0,C|320:128,1,70
312,176,36437,2,0,C|312:256,1,70
368,248,36837,2,0,C|368:168,1,70
368,178,37237,1,0
256,176,37637,5,2
256,176,37837,1,2
144,176,38237,1,2
256,176,38637,5,0
256,176,38837,1,0
344,240,39237,5,0
344,240,39437,1,0
344,184,39637,2,0,C|264:184,1,70
280,128,40037,2,0,C|280:56,1,70
280,58,40437,1,0
392,56,40837,5,2
392,56,41037,1,2
392,168,41437,1,2
392,336,42037,5,0
392,168,42637,5,2
392,168,42837,1,2
392,168,43037,1,2
224,168,43637,6,0,L|120:168|120:232,1,140,0|0
160,120,56237,5,2
160,120,56437,1,2
160,120,56637,1,2
216,280,57237,6,2,L|304:280|304:200,1,140,2|2
328,120,58037,2,0,L|384:120|384:160,4,70
216,104,59237,1,0
216,104,59437,1,0
216,104,59637,1,0
216,216,60037,2,0,L|216:288,1,70
328,280,60637,1,4
328,112,61237,6,0,L|256:112,1,70
200,112,61637,2,0,L|200:192,1,70,0|0
200,182,62037,1,0
200,240,62237,2,0,L|112:240,1,70,0|0
72,248,62637,2,0,L|72:328,1,70
128,320,63037,2,0,L|200:320,1,70
256,320,63437,2,0,L|256:248,2,70
424,320,64437,5,0
368,320,64637,1,0
384,264,64837,2,0,L|328:208,2,70
280,208,65637,5,0
224,208,65837,1,0
224,152,66037,1,0
112,152,66437,5,0
112,208,66637,1,0
112,152,66837,1,0
112,208,67037,1,0
272,160,67637,5,0
304,112,67837,1,0
360,112,68037,1,0
384,160,68237,1,0
384,216,68437,2,0,L|384:296,1,70
328,288,68837,2,0,L|256:288,1,70
200,288,69237,2,0,L|112:288,1,70
128,232,69637,2,0,L|128:152,1,70
128,104,70037,2,0,L|208:104,1,70
120,152,73637,5,0
120,152,73837,2,0,L|216:152,1,70
152,256,74437,2,0,L|216:312,1,70
248,264,74837,2,0,L|296:208,1,70
320,160,75237,2,0,L|384:216,1,70
372,206,75637,1,0
392,96,76037,5,2
392,96,76237,1,2
280,96,76637,1,2
392,96,77037,5,0
392,96,77237,1,0
384,208,77637,6,0,L|456:208,1,70
456,272,78037,2,0,L|368:272,1,70
384,336,78437,2,0,L|456:336,1,70
454,336,78837,1,0
376,256,79237,5,2
376,256,79437,1,2
264,256,79837,1,2
264,144,80237,5,0
264,144,80437,1,0
376,144,80837,6,0,L|448:144,1,70
448,200,81237,2,0,L|448:280,1,70
448,328,81637,2,0,L|368:328,1,70
320,328,82037,1,0
320,216,82437,5,2
320,216,82637,1,2
208,216,83037,1,2
216,48,83637,5,0
208,216,84237,5,2
208,216,84437,1,2
208,216,84637,1,2
376,216,85237,6,0,L|376:104|320:104,1,140,0|0
352,304,86437,6,0,L|416:344,2,70
240,304,87237,1,0
240,304,87437,1,0
240,304,87637,1,0
240,248,87837,2,0,L|312:248,3,70
312,136,88837,6,2,L|312:48,1,70
200,72,89437,1,2
200,184,89837,6,2,L|272:184,1,70
200,272,90437,5,0
200,272,90637,1,0
200,272,90837,1,0
200,272,91037,2,0,L|200:200,3,70
200,88,92037,5,2
200,88,92237,1,2
312,88,92637,1,2
320,200,93037,5,0
264,200,93237,1,0
152,200,93637,6,0,L|200:136,2,70
192,240,94237,2,0,L|248:288,2,70
152,200,94837,1,0
240,128,95237,5,2
240,128,95437,1,2
304,216,95837,1,2
136,224,96437,5,0
256,112,97037,5,2
256,112,97237,1,2
256,112,97437,1,2
256,280,98037,6,2,L|192:280|192:176,1,140
144,104,101237,6,0,L|144:176,4,70
256,104,102437,1,0
256,104,102637,1,0
256,104,102837,1,0
88,208,104437,6,0,L|144:256,1,70
184,216,104837,2,0,L|240:152,2,70
272,280,105637,2,0,L|352:280,1,70
344,224,106037,2,0,L|344:144,1,70
472,40,107637,6,0,L|400:40,1,70
400,96,108037,2,0,L|400:168,1,70
344,160,108437,1,0
344,272,108837,1,0
312,320,109037,1,0
280,272,109237,1,0
80,72,112437,5,0
80,184,112837,1,0
192,184,113237,1,0
464,336,115237,6,0,L|416:272,1,70
422,280,115637,2,0,L|360:336,1,70
370,326,116037,2,0,L|312:264,1,70
322,274,116437,1,0
208,272,116837,1,0
208,272,117037,1,0
208,272,117237,1,0
144,176,117637,2,0,L|104:112,2,70
256,176,118437,6,0,L|312:120,1,70
305,126,118837,2,0,L|376:126,1,70
374,127,119237,2,0,L|424:184,1,70
421,180,119637,1,0
424,288,120037,1,0
424,288,120237,1,0
424,288,120437,1,0
312,288,120837,1,0
312,288,121037,1,0
312,288,121237,1,0
304,176,121637,6,0,L|232:176,1,70
120,184,122237,2,0,L|120:88,1,70
120,56,122637,2,0,L|200:56,1,70
304,56,123237,1,0
336,104,123437,1,0
368,56,123637,1,0
368,168,124037,1,0
336,216,124237,1,0
304,168,124437,1,0
216,240,124837,5,0
216,240,125037,1,0
104,240,125437,2,0,L|104:168,1,70
160,168,125837,2,0,L|160:256,1,70
272,232,126437,1,0
272,232,126637,1,0
272,232,126837,1,0
384,232,127237,1,0
384,232,127437,1,0
384,232,127637,1,0
384,120,128037,5,0
384,120,128237,1,0
272,120,128637,2,0,L|200:120,1,70
144,120,129037,2,0,L|64:120,1,70
72,232,129637,2,0,L|152:232,2,70
72,344,130437,1,0
128,344,130637,1,0
184,344,130837,1,0
288,304,131237,5,0
288,304,131437,1,0
400,312,131837,2,0,L|352:240,1,70
328,208,132237,2,0,L|392:168,1,70
320,80,132837,1,0
272,104,133037,1,0
224,128,133237,1,0
256,192,134437,5,0
256,192,134637,1,0
256,192,134837,1,0
256,80,135237,2,0,L|184:112,2,70
312,72,135837,2,0,L|376:120,1,70
368,168,136237,2,4,L|368:240,1,70
256,240,136837,5,2
256,240,137037,1,2
256,128,137437,1,2
256,240,137837,5,0
256,240,138037,1,0
144,240,138437,6,0,L|144:160,2,70
144,296,139037,2,0,L|216:296,1,70
216,240,139437,2,0,L|216:160,1,70
328,160,140037,5,2
328,160,140237,1,2
328,272,140637,1,2
328,160,141037,5,0
328,160,141237,1,0
216,160,141637,5,0
216,160,141837,1,0
216,160,142037,2,0,L|160:216,1,70
200,256,142437,2,0,L|248:312,1,70
245,309,142837,1,0
360,304,143237,6,0,L|360:224,1,70
360,120,143837,1,2
192,120,144437,5,0
192,288,145037,5,2
192,288,145237,1,2
192,288,145437,1,2
360,280,146037,6,0,L|360:173|302:173,1,140,0|0
128,320,147237,6,0,L|200:320,1,70
128,320,147637,1,0
128,208,148037,1,0
128,208,148237,2,0,L|208:208,1,70
198,208,148637,1,0
256,208,148837,2,0,L|256:280,2,70
264,96,149637,6,2,L|304:96|304:128,1,70
304,240,150237,1,2
192,240,150637,5,0
192,240,150837,1,0
80,240,151237,6,0,L|80:184|104:184,1,70
94,184,151637,1,0
152,184,151837,2,0,L|152:112,1,70
208,112,152237,2,0,L|280:112,1,70
392,120,152837,5,2
392,120,153037,1,2
392,232,153437,1,2
280,232,153837,5,0
280,232,154037,1,0
280,120,154437,5,0
280,120,154637,1,0
280,120,154837,2,0,L|200:120,1,70
208,120,155237,1,0
152,120,155437,1,0
96,120,155637,1,0
88,232,156037,5,2
88,232,156237,1,2
200,232,156637,1,2
368,240,157237,5,0
200,232,157837,5,2
168,184,158037,1,2
136,232,158237,1,2
176,72,158837,6,0,L|280:72|280:136,1,140,0|0
