osu file format v8

[General]
AudioFilename: Better Off Alone.mp3
AudioLeadIn: 0
PreviewTime: -1
Countdown: 1
SampleSet: Normal
StackLeniency: 0.7
Mode: 0
LetterboxInBreaks: 1
EpilepsyWarning: 1

[Editor]
DistanceSpacing: 1
BeatDivisor: 4
GridSize: 8

[Metadata]
Title:Better Off Alone
Artist:Alice Deejay
Creator:James
Version:Hard
Source:
Tags:

[Difficulty]
HPDrainRate:3
CircleSize:5
OverallDifficulty:7
ApproachRate:7
SliderMultiplier:1.4
SliderTickRate:2

[Events]
//Background and Video events
//Break Periods
//Storyboard Layer 0 (Background)
Sprite,Background,TopLeft,"white.png",0,0 L,1790,1 F,0,0,438,1,0 L,5080,1 F,1,0,219,1,0 L,5300,1 F,0,0,438,1,0 L,8800,1 F,0,0,438,1,0 L,12090,1 F,1,0,219,1,0 L,12310,1 F,0,0,438,1,0 L,15810,26 F,0,0,438,1,0 L,27200,24 F,1,0,109,1,0 L,29820,1 F,2,0,438,1,0 L,43840,1 F,2,0,438,1,0 L,47780,16 F,1,0,219,1,0 L,51280,32 F,1,0,109,1,0 L,54790,18 F,1,0,73,1,0 L,56100,31 F,1,0,55,1,0 L,57850,1 F,2,0,438,1,0 L,58290,153 F,0,0,438,1,0 L,125300,23 F,1,0,109,1,0 L,127920,1 F,2,0,438,1,0 L,141940,1 F,2,0,438,1,0 L,145440,16 F,1,0,219,1,0 L,148950,48 F,1,0,109,1,0 L,154200,1 F,2,0,438,1,0 L,155950,116 F,0,0,438,1,0 L,206760,16 F,1,0,109,1,0 L,208510,24 F,1,0,73,1,0 L,210260,31 F,1,0,55,1,0 L,212010,1 F,2,0,438,1,0 L,212450,2 F,2,0,219,1,0
//Storyboard Layer 1 (Fail)
//Storyboard Layer 2 (Pass)
//Storyboard Layer 3 (Foreground)
//Storyboard Sound Samples
//Background Colour Transformations
3,100,0,0,0

[TimingPoints]
1800,437.950812149533,4,1,0,100,1,0

[Colours]
Combo1 : 247,70,242
Combo2 : 250,80,152
Combo3 : 141,26,236
Combo4 : 248,22,164
Combo5 : 203,35,245

[HitObjects]
80,72,1799,1,0
192,264,5084,5,2
192,264,5303,5,2
400,104,8807,5,0
448,312,12091,5,2
448,312,12312,5,2
48,40,15814,1,0
184,40,16252,1,0
256,40,16471,1,0
464,336,18442,1,2
360,336,18770,1,2
256,336,19099,1,2
184,336,19318,1,2
40,336,19755,1,2
112,336,19974,1,2
464,32,21945,5,2
360,32,22274,1,2
256,32,22602,1,2
184,32,22821,1,2
40,32,23259,1,2
112,32,23478,1,2
40,344,25449,1,2
144,344,25777,1,2
248,344,26106,1,2
320,344,26325,1,2
464,344,26763,1,2
392,344,26982,1,2
48,40,28952,1,2
152,40,29281,1,2
256,40,29609,1,2
328,40,29828,1,2
464,40,30266,5,0
448,104,30485,1,0
352,208,30923,1,0
232,280,31361,1,0
96,328,31799,1,0
128,192,32237,1,0
176,144,32456,1,2
272,96,32785,1,2
376,72,33113,1,2
448,64,33332,1,2
448,200,33770,5,0
416,264,33989,1,0
296,328,34427,1,0
160,352,34865,1,0
16,360,35303,1,0
64,224,35741,1,0
128,192,35960,1,2
232,176,36288,1,2
328,208,36617,1,2
384,248,36836,1,2
472,352,37274,5,0
464,280,37492,1,0
400,152,37930,1,0
288,64,38368,1,0
152,32,38806,1,0
8,24,39244,1,0
16,96,39463,1,2
48,192,39792,1,2
112,280,40120,1,2
160,328,40339,1,2
288,328,40777,5,0
360,328,40996,1,0
496,328,41434,1,0
496,184,41872,1,0
496,40,42310,1,0
352,40,42748,1,0
280,40,42967,1,2
176,40,43295,1,2
72,40,43624,1,2
0,40,43843,1,2
16,248,44500,5,0
88,248,44719,1,0
88,176,44938,1,0
88,32,45376,1,0
160,32,45595,1,0
160,104,45814,1,0
168,240,46252,1,0
240,240,46470,1,0
240,312,46689,1,0
376,304,47125,1,0
448,304,47346,1,0
448,232,47563,1,0
448,128,47894,5,2
448,128,48003,1,2
400,72,48222,1,0
352,128,48441,1,0
264,72,48770,1,2
264,72,48879,1,2
216,128,49098,1,0
168,72,49317,1,0
80,128,49646,5,2
80,128,49755,1,2
32,184,49974,1,0
88,232,50193,1,0
40,328,50522,1,2
40,328,50631,1,2
88,280,50850,1,0
136,328,51069,1,0
208,328,51288,5,0
208,328,51397,1,0
208,328,51507,1,2
272,304,51726,1,0
272,304,51835,1,0
272,304,51945,1,2
320,256,52164,1,0
320,256,52273,1,0
320,256,52383,1,2
328,184,52602,1,0
328,184,52711,1,0
328,184,52821,1,2
272,136,53040,5,0
272,136,53149,1,0
272,136,53259,1,2
200,128,53478,1,0
200,128,53587,1,0
200,128,53697,1,2
136,152,53916,1,0
136,152,54025,1,0
136,152,54135,1,2
112,216,54354,1,0
112,216,54463,1,0
112,216,54573,1,2
152,272,54792,2,0,B|152:304,17,23.3333333333333
176,304,56105,2,0,B|176:280,32,17.5
248,56,58295,5,0
176,56,58514,1,0
32,56,58952,1,0
32,192,59390,1,0
32,328,59828,1,0
168,328,60266,1,0
240,328,60485,1,2
344,328,60813,1,2
448,328,61142,1,2
448,328,61361,1,2
448,184,61799,5,0
448,184,62018,1,0
344,88,62456,1,0
248,192,62894,1,0
152,88,63332,1,0
64,192,63770,1,0
64,192,63989,1,2
64,88,64317,1,2
168,88,64645,1,2
240,88,64864,1,2
376,88,65302,5,0
448,88,65521,1,0
448,224,65959,1,0
448,360,66397,1,0
304,360,66835,1,0
160,360,67273,1,0
160,360,67492,1,2
56,360,67821,1,2
56,256,68149,1,2
56,184,68370,1,2
56,40,68806,5,0
56,40,69025,1,0
192,40,69463,1,0
328,40,69901,1,0
464,40,70339,1,0
464,176,70777,1,0
464,248,70996,1,2
464,352,71324,1,2
360,352,71653,1,2
288,352,71872,1,2
216,352,72091,1,0
216,208,72529,5,0
144,208,72748,1,0
72,208,72967,1,0
72,64,73404,1,0
144,64,73623,1,0
216,64,73842,1,0
352,64,74280,1,0
352,136,74499,1,0
352,208,74718,1,0
456,208,75047,5,2
456,208,75156,1,2
456,280,75375,1,0
384,280,75594,1,0
384,176,75923,1,2
384,176,76032,1,2
384,104,76251,1,0
312,104,76470,1,0
312,208,76799,1,2
312,208,76908,1,2
312,280,77127,1,0
240,280,77346,1,0
240,176,77674,5,2
240,176,77784,1,2
240,104,78003,1,0
168,104,78222,1,0
168,208,78550,1,2
168,208,78660,1,2
168,280,78879,1,0
96,280,79098,1,0
96,208,79317,5,0
96,208,79426,1,0
96,208,79536,1,0
96,136,79755,1,2
96,64,79974,1,2
168,64,80193,1,0
168,64,80302,1,0
168,64,80412,1,0
168,136,80631,1,2
168,208,80850,1,2
240,208,81069,5,0
240,208,81178,1,0
240,208,81288,1,0
240,136,81507,1,2
240,64,81726,1,2
312,64,81944,1,0
312,64,82054,1,0
312,64,82163,1,0
312,136,82382,1,2
312,208,82601,1,2
384,208,82820,5,0
384,208,82930,1,0
384,208,83039,1,0
384,136,83258,1,2
384,64,83477,1,2
456,64,83696,1,2
456,136,83915,1,2
456,208,84134,1,4
456,344,84572,1,4
312,344,85010,1,4
168,344,85448,1,4
24,344,85886,1,4
24,208,86324,5,0
56,144,86543,1,0
112,96,86762,1,0
176,64,86981,1,0
312,56,87419,2,0,B|362:44|406:63|437:81|439:134|420:176|376:192,1,210
344,128,88295,2,0,B|294:116|250:135|219:153|217:206|236:248|280:264,1,210
304,296,89171,2,0,B|339:328|392:280,1,70
424,256,89609,2,0,B|456:221|408:168,2,70
392,120,90485,5,0
296,16,90922,1,0
200,120,91360,1,0
104,16,91798,1,0
56,72,92017,1,2
24,168,92346,1,2
64,264,92674,1,2
96,328,92893,1,2
232,328,93331,5,0
296,304,93550,1,0
344,248,93769,1,0
376,184,93988,1,0
432,56,94426,2,0,B|406:44|380:26|337:14|286:24|248:44|224:64,1,210
232,128,95302,2,0,B|206:140|180:158|137:170|86:160|48:140|24:120,1,210
32,56,96178,2,0,B|73:34|112:64,1,70
160,88,96616,1,0
224,64,96835,1,0
288,88,97054,1,0
424,64,97492,5,0
392,200,97930,1,0
360,264,98149,1,4
232,328,98587,1,4
96,304,99025,1,4
8,192,99463,1,4
144,192,99900,6,0,B|144:104,3,70
216,120,100776,2,0,B|216:192,3,70
288,192,101652,2,0,B|288:96,3,70
360,120,102528,2,0,B|360:216,3,70
360,256,103404,6,0,B|360:336,2,70
288,256,104061,2,0,B|288:336,2,70
216,256,104718,2,0,B|216:336,2,70
144,256,105375,2,0,B|144:336,2,70
72,256,106032,2,0,B|72:336,2,70
72,184,106689,6,0,B|152:184,1,70
208,184,107127,1,2
280,184,107346,2,0,B|360:184,1,70
416,184,107784,1,2
416,256,108003,2,0,B|336:256,1,70
272,256,108441,1,2
200,256,108659,2,0,B|120:256,1,70
56,256,109097,1,2
56,184,109316,2,0,B|56:104,1,70
56,40,109754,1,2
128,40,109973,6,0,B|184:96,1,70
224,144,110411,2,0,B|312:112,1,70
352,96,110849,2,0,B|392:184,1,70
400,224,111287,2,0,B|312:224,1,70
264,224,111725,2,0,B|264:312,1,70
200,328,112163,2,0,B|152:272,1,70
120,216,112601,2,0,B|200:216,1,70
192,144,113039,2,0,B|264:144,1,70
264,72,113477,2,0,B|352:72,1,70
384,24,113915,6,0,B|433:40|467:83|448:160,1,140
454,132,114572,1,0
456,200,114791,2,2,B|376:208,1,70
352,264,115229,2,2,B|272:256,1,70
256,192,115667,12,0,116982
48,336,117419,6,0,B|224:336,1,140
188,336,118075,1,2
328,336,118513,1,2
464,336,118951,1,2
464,192,119389,1,2
464,48,119827,1,2
320,48,120265,1,2
176,48,120703,1,2
104,48,120922,6,0,B|104:96|150:138|216:128,1,140
200,128,121579,1,0
264,136,121798,2,2,B|312:200,1,70
328,256,122236,2,2,B|248:264,1,70
256,192,122674,12,0,123989
480,168,124426,6,0,B|304:168,1,140
344,168,125083,1,0
272,168,125302,1,0
272,168,125411,1,0
272,168,125521,1,2
200,168,125740,1,0
200,168,125849,1,0
200,168,125959,1,2
152,224,126178,5,4
152,224,126287,1,0
152,224,126397,1,2
224,224,126615,1,4
224,224,126725,1,0
224,224,126834,1,2
296,224,127053,1,4
296,224,127163,1,0
296,224,127272,1,2
368,224,127491,1,4
368,224,127601,1,0
368,224,127710,1,2
440,224,127929,5,4
456,360,128367,6,0,B|384:328,1,70
336,368,128805,2,0,B|264:296,1,70
184,224,129462,2,0,B|240:224|280:212|323:171|307:109|266:72,1,210
232,144,130338,2,0,B|180:151|147:156|117:170|97:202|98:238|128:272,1,210
184,232,131214,2,0,B|232:228|272:248|291:291|256:344,1,140
176,352,131980,5,2
176,352,132090,1,2
104,336,132309,1,0
72,272,132528,1,0
168,240,132856,1,2
168,240,132966,1,2
184,168,133185,1,0
248,136,133404,1,0
272,240,133732,5,2
272,240,133842,1,2
344,224,134061,1,0
376,160,134280,1,0
272,136,134608,1,2
272,136,134718,1,2
256,64,134937,1,0
192,32,135156,1,0
120,32,135374,2,0,B|48:32,1,70
48,104,135812,2,0,B|128:104,1,70
256,104,136469,2,0,B|472:104,1,210
464,176,137345,2,0,B|240:176,1,210
184,176,138221,2,0,B|40:176,1,140
256,192,138878,12,4,141944
48,336,142382,5,0
120,336,142601,1,0
256,336,143039,1,0
392,336,143477,1,0
288,240,143915,1,0
176,152,144352,1,0
120,112,144571,1,2
40,40,144900,1,2
144,40,145228,1,2
216,40,145447,1,2
352,40,145885,5,0
352,40,146104,1,0
448,136,146542,1,0
352,240,146980,1,0
448,336,147418,1,0
304,336,147856,1,0
304,336,148075,1,2
200,336,148404,1,2
96,336,148732,1,2
56,272,148951,5,2
56,272,149060,1,0
56,272,149170,1,0
56,200,149389,1,2
56,200,149498,1,0
56,200,149608,1,0
88,136,149827,1,2
88,136,149936,1,0
88,136,150046,1,0
152,104,150265,5,2
152,104,150374,1,0
152,104,150484,1,0
224,96,150703,1,2
224,96,150812,1,0
224,96,150922,1,0
288,112,151141,1,2
288,112,151250,1,0
288,112,151360,1,0
344,152,151579,5,2
344,152,151688,1,0
344,152,151798,1,0
376,208,152017,1,2
376,208,152126,1,0
376,208,152236,1,0
400,272,152455,2,0,B|400:312,16,35
256,120,154863,5,2
205,168,155082,2,2,B|237:193|281:192|317:160,2,105
152,120,155958,1,2
256,32,156396,1,0
352,128,156834,1,0
448,232,157272,1,0
368,344,157710,1,0
280,232,158148,1,0
200,344,158586,1,0
120,232,159024,1,0
56,104,159462,5,2
128,104,159681,1,0
200,104,159900,1,2
272,104,160119,1,2
240,168,160338,5,0
312,168,160557,1,2
384,168,160776,1,0
456,168,160995,1,2
424,232,161214,5,0
352,232,161433,1,2
280,232,161652,1,0
208,232,161871,1,2
240,296,162089,5,2
168,296,162308,1,0
96,296,162527,1,2
24,296,162746,1,2
24,296,162965,5,6
64,152,163403,1,2
96,88,163622,1,2
216,16,164060,1,2
352,32,164498,1,2
424,152,164936,1,2
392,288,165374,1,2
336,328,165593,1,2
232,360,165922,1,2
128,336,166250,1,2
56,336,166469,5,2
64,264,166688,1,0
136,256,166907,1,2
192,208,167126,1,2
248,240,167345,5,0
320,240,167564,1,2
352,304,167783,1,0
392,248,168002,1,2
448,208,168221,5,0
384,184,168440,1,2
312,184,168659,1,0
248,144,168878,1,2
312,112,169097,5,2
384,112,169316,1,0
440,152,169535,1,2
478,93,169754,1,2
416,56,169973,5,2
280,72,170411,1,0
168,152,170849,1,0
96,272,171286,1,0
216,344,171724,1,0
344,288,172162,1,0
408,168,172600,1,0
440,32,173038,1,0
296,32,173476,6,2,B|200:64,1,70
184,104,173914,2,2,B|280:104,1,70
320,128,174352,2,2,B|280:208,1,70
256,248,174790,2,2,B|184:240,1,70
152,176,175228,2,2,B|224:176,1,70
288,200,175666,2,2,B|368:264,1,70
368,304,176104,2,2,B|280:296,1,70
240,256,176542,2,2,B|184:304,1,70
248,336,176980,2,2,B|320:336,1,70
384,336,177418,5,0
448,312,177637,1,0
464,240,177856,1,0
432,176,178075,1,0
336,72,178513,2,0,B|272:31|230:22|164:47|120:96,1,210
144,144,179389,2,0,B|208:185|250:194|316:169|360:120,1,210
384,192,180264,2,0,B|361:221|326:237|276:256|232:248,1,140
120,216,181140,5,2
256,216,181578,1,2
392,216,182016,1,2
320,96,182454,1,2
176,96,182892,1,0
248,96,183111,1,2
248,200,183440,1,2
248,304,183768,1,2
248,304,183987,1,2
104,304,184425,6,0,B|32:264,1,70
88,216,184863,2,0,B|160:208,1,70
296,240,185520,2,0,B|342:229|372:192|379:137|350:94|296:64,1,210
256,112,186396,2,0,B|210:123|180:160|173:215|202:258|256:288,1,210
272,216,187272,2,0,B|316:232|312:296,1,70
240,280,187710,6,0,B|196:296|200:360,2,70
376,240,188586,1,2
240,208,189023,1,2
376,168,189461,1,2
240,136,189899,1,0
240,136,190118,2,2,B|285:126|314:156|312:208,2,105
168,136,190994,6,0,B|104:88,1,70
104,24,191432,2,0,B|184:32,1,70
208,88,191870,2,0,B|312:88,1,70
328,40,192308,2,0,B|368:104,1,70
336,160,192746,6,0,B|264:208,1,70
208,176,193184,2,0,B|168:256,1,70
120,280,193622,2,0,B|200:304,1,70
184,368,194060,2,0,B|272:328,1,70
312,360,194498,6,0,B|296:272,1,70
240,256,194936,2,0,B|320:248,1,70
360,200,195374,2,0,B|400:120,1,70
368,72,195812,2,0,B|304:0,1,70
256,24,196250,5,4
24,200,196688,1,4
256,360,197126,1,4
480,192,197564,1,4
376,96,198001,6,0,B|322:99|281:138|280:192,1,140
280,184,198658,1,0
264,320,199096,1,0
400,320,199534,1,0
400,320,199753,2,0,B|388:274|349:227|280:200,1,140
248,184,200410,2,0,B|202:172|155:133|128:64,1,140
280,72,201286,1,0
288,144,201505,2,0,B|258:180|243:199|204:206|144:200,1,140
104,168,202162,1,2
40,40,202600,5,2
40,176,203038,1,2
40,312,203476,1,2
176,312,203914,1,2
312,312,204352,1,2
448,312,204790,1,0
448,312,205009,1,4
448,168,205447,1,4
448,24,205885,1,4
304,24,206323,1,4
160,24,206760,5,0
136,48,206870,1,0
128,80,206979,1,0
136,112,207089,1,0
158,135,207198,1,0
183,149,207308,1,0
212,157,207417,1,0
241,164,207527,1,0
265,176,207636,1,0
283,199,207746,1,0
287,231,207855,1,0
281,260,207965,1,0
265,288,208074,1,0
243,310,208184,1,0
211,321,208293,1,0
180,322,208403,1,0
144,320,208512,2,0,B|112:320,23,23.3333333333333
120,296,210264,2,0,B|144:296,32,17.5
256,192,212454,5,0
256,192,212673,5,0
