osu file format v5

[General]
AudioFilename: His World [Ali Tabatabaee & Matty Lewis] - Sonic The Hedgehog (2006).mp3
AudioLeadIn: 0
PreviewTime: -1
Countdown: 1
SampleSet: Normal

[Metadata]
Title:His World
Artist:Ali Tabatabaee & Matty Lewis
Creator:Shady11
Version:Mega-Hardrock

[Difficulty]
HPDrainRate:5
CircleSize:5
OverallDifficulty:5
SliderMultiplier:1.4
SliderTickRate:1

[Events]
//Background and Video events
0,0,"The_Legend_of_Zelda_Twilight_Princess_wii_wallpaper3.jpg"
//Break Periods
2,137950,138800
2,142200,142550
2,148200,149800
2,152200,152300
2,177200,179300
2,182450,183800
2,189200,190050
2,201700,204300
2,255200,256300
//Storyboard Layer 0 (Background)
//Storyboard Layer 1 (Failing)
//Storyboard Layer 2 (Passing)
//Storyboard Layer 3 (Foreground)
//Storyboard Sound Samples
//Background Colour Transformations
3,100,163,162,255

[TimingPoints]
0,1000,4,1,0,100

[HitObjects]
288,96,0,1,0
96,96,1000,1,0
256,128,2000,1,0
352,96,4000,1,0
160,128,5000,1,0
224,192,6000,1,0
448,96,7000,1,0
288,32,7750,1,0
352,128,15000,1,0
224,128,16000,1,0
256,192,17000,1,0
352,96,18000,1,0
320,96,19000,1,0
192,96,21000,1,0
256,96,23000,1,0
352,96,24000,1,0
64,64,25000,1,0
32,96,26000,2,0,B|320:96|288:128,3,140
160,128,30000,2,0,B|256:128|256:160|-32:96,1,280
224,96,33000,1,0
384,96,34000,1,0
224,192,35000,1,0
320,96,36000,1,0
288,32,37000,1,0
352,160,38000,1,0
320,160,39000,1,0
128,64,40000,1,0
160,96,41000,1,0
288,96,42000,1,0
352,192,43000,1,0
160,64,44000,1,0
256,192,45000,12,0,47000
96,192,49000,1,0
128,256,52000,1,0
224,192,53000,1,0
192,128,54000,1,0
224,32,55000,1,0
224,160,56000,1,0
160,256,58000,1,0
160,192,59000,1,0
160,96,60000,1,0
224,32,61000,1,0
192,192,62000,1,0
320,224,63000,1,0
352,288,64000,1,0
128,192,65000,1,0
288,96,66000,1,0
352,64,67000,1,0
96,64,68000,1,0
96,160,69000,1,0
64,192,70000,1,0
224,160,71000,1,0
96,192,72000,1,0
416,96,73000,1,0
416,192,74000,1,0
288,192,75000,1,2
480,128,76000,1,2
192,160,77000,5,2
288,192,78000,1,2
96,96,79000,1,2
96,128,80000,1,6
288,192,82000,1,6
288,128,83000,1,6
192,160,84000,1,6
288,224,85000,1,6
320,160,86000,1,6
256,160,86750,5,0
256,160,87000,1,6
352,128,87250,1,0
192,96,88500,1,0
288,64,89000,1,0
128,160,90000,1,0
320,224,90750,1,0
288,32,91000,1,6
128,224,91250,1,0
160,256,91750,1,0
256,128,92000,1,6
224,256,92250,1,0
288,288,92750,1,0
480,224,93000,1,6
352,256,93250,1,0
384,288,93750,1,0
384,128,94000,1,6
352,192,94250,1,0
192,128,94500,1,0
288,192,95000,1,6
192,288,95500,1,0
224,320,95750,1,0
288,96,96000,1,6
288,224,96250,1,0
160,192,96750,1,0
480,192,97000,1,6
256,128,97500,1,0
352,192,98000,1,6
224,32,98750,1,0
352,224,99000,1,6
256,128,99500,1,0
288,320,100000,1,6
160,256,100750,1,0
416,192,101000,1,6
288,256,101250,1,0
192,160,102000,1,6
320,160,102250,1,0
288,96,102750,1,0
256,256,103000,1,6
224,64,103500,1,0
256,192,104000,1,6
160,96,104250,1,0
384,96,105000,1,6
224,160,105500,1,0
192,192,106000,1,6
256,64,106750,1,0
384,224,107000,1,6
192,64,107250,1,0
352,32,108000,1,6
192,192,108500,1,0
384,256,109000,1,6
256,160,109250,1,0
288,96,109750,1,0
448,128,110000,1,6
256,64,110500,1,0
384,256,111000,1,6
160,32,111250,1,0
96,96,111750,1,0
288,256,112000,1,6
64,192,112500,1,0
416,224,113000,1,6
96,256,113250,1,0
192,288,113750,1,0
384,160,114000,1,6
288,256,114500,1,0
192,96,115000,1,6
320,160,115250,1,0
320,96,115750,1,0
192,192,116000,1,6
256,64,116500,1,0
384,224,117000,1,6
96,160,117500,1,0
192,192,118000,1,6
96,224,118250,1,0
160,288,118750,1,0
416,128,119000,1,6
288,256,119500,1,0
128,96,120000,1,6
384,160,120250,1,0
224,256,121000,1,6
256,64,121750,1,0
96,192,122000,1,6
160,64,122250,1,0
256,128,123000,1,6
64,256,123750,1,0
352,64,124000,1,6
160,320,124250,1,0
160,96,125000,1,6
352,256,125750,1,0
128,160,126000,1,6
384,192,126250,1,0
256,192,127000,1,6
288,96,127500,1,0
256,256,128000,1,6
192,64,128250,1,0
160,288,129000,1,6
64,288,129750,1,0
96,96,130000,1,6
192,320,130500,1,0
256,96,131000,1,6
288,320,131250,1,0
192,256,131750,1,0
416,160,132000,1,6
320,192,132500,1,0
96,32,133000,1,6
256,128,133250,1,0
352,64,133750,1,0
64,0,134000,1,6
288,32,134500,1,0
160,64,135000,1,0
128,96,135750,1,0
128,128,136500,1,0
160,192,137250,1,0
256,224,137750,1,0
352,288,140000,5,6
256,256,140500,1,0
256,160,141250,1,0
416,224,142000,1,6
192,96,146000,1,6
352,160,147000,1,6
256,192,143750,12,0,147750
192,224,148000,1,6
96,320,151000,1,0
128,96,152000,1,0
352,128,153000,1,6
352,224,154000,1,6
224,192,155000,1,6
32,288,156000,1,6
288,288,157000,1,6
352,128,158000,1,6
224,32,159000,1,6
64,32,160000,1,6
32,128,161000,1,6
32,224,162000,1,6
96,320,163000,1,6
288,288,164000,1,6
480,288,165000,1,6
128,288,153500,2,0,B|352:32|-32:96,4,420
384,64,166000,1,6
320,192,166250,1,0
256,64,166750,1,0
96,128,167000,1,6
224,192,168000,1,6
416,160,169000,1,6
256,288,169500,1,0
320,64,170000,1,6
416,128,171000,1,6
192,64,171500,1,0
256,224,172000,1,6
192,128,172250,1,0
288,96,173000,1,6
224,256,173500,1,0
352,96,174000,1,6
256,320,174250,1,0
224,288,174750,1,0
384,96,175000,1,6
224,96,176000,1,6
320,64,177000,1,4
288,192,178000,1,6
384,128,179000,1,6
384,96,180000,1,6
258,180,180500,5,6
376,216,181500,1,6
272,146,182000,1,6
272,146,182250,1,6
256,160,184000,1,6
104,196,185000,1,4
431,189,185750,1,4
128,64,186000,1,6
104,203,186500,1,4
224,96,187000,1,6
354,200,187250,1,4
416,160,188000,1,6
256,205,188250,1,4
192,207,188750,1,4
146,196,189000,1,4
232,91,191250,1,4
118,167,192000,1,4
416,128,192333,1,6
264,221,192750,1,4
288,96,193000,1,6
352,160,193333,1,6
512,96,193666,1,6
73,101,194000,1,4
428,100,194250,1,4
70,200,195000,1,4
128,278,195250,1,4
296,256,195750,1,4
415,187,196250,1,4
410,124,196750,1,4
352,64,197250,1,6
288,96,197500,1,6
320,224,198250,1,6
134,37,198500,1,4
416,288,198750,1,6
480,224,199000,1,6
356,116,199500,1,4
288,168,200250,1,4
186,173,200750,1,4
149,156,201250,1,4
133,115,201500,1,4
288,256,203000,1,6
384,320,204750,1,6
448,192,205250,1,6
192,288,205500,1,6
96,128,205750,1,6
224,256,206250,1,6
288,192,206500,1,6
352,320,207000,1,6
384,224,207250,1,6
256,64,208250,1,6
128,224,208750,1,6
128,224,209000,1,6
128,224,209250,1,6
284,104,209500,1,4
224,224,209750,1,6
352,192,210000,1,6
224,288,210250,1,6
128,160,210750,1,6
192,224,211000,1,6
352,224,211250,1,6
224,75,211500,1,4
256,288,211750,1,6
320,256,212000,1,6
147,178,212500,1,4
240,234,213000,1,4
403,184,213500,1,4
397,107,214000,1,4
252,98,214500,1,4
156,199,215000,1,4
432,224,215500,1,4
306,248,216000,1,4
301,36,217000,1,4
144,100,217500,1,4
368,148,218000,1,4
206,167,218500,1,4
397,180,219500,1,4
262,168,220000,1,4
404,175,221000,1,4
280,172,221500,1,4
404,175,222000,1,4
269,178,223000,1,4
411,179,223500,1,4
269,178,224000,1,4
408,175,225000,1,4
271,191,225500,1,4
128,192,226000,1,6
160,96,226500,1,6
384,128,226750,1,6
341,249,227000,1,4
416,160,227250,1,6
128,128,227500,1,6
480,128,228750,1,6
159,136,229000,1,4
256,96,229250,1,6
160,96,229500,1,6
288,160,229750,1,6
352,160,230000,1,6
384,160,230250,1,6
288,192,230500,1,6
192,160,231250,1,6
128,96,231500,1,6
256,192,231750,1,6
301,151,232000,1,2
384,64,232250,1,6
416,192,232500,1,6
256,160,232750,1,6
92,142,233000,1,2
128,128,233500,1,6
384,64,234000,1,6
352,192,234500,1,6
128,160,234750,1,6
164,114,235000,1,2
416,160,235250,1,6
304,44,235500,1,2
192,128,235750,1,6
128,128,236000,1,6
288,128,236250,1,6
352,128,236500,1,6
352,160,236750,1,6
222,148,237000,1,6
192,128,237250,1,6
288,192,237500,1,6
416,96,237750,1,6
384,160,238000,1,6
224,160,238250,1,6
160,128,238500,1,6
288,192,238750,1,6
239,248,239000,1,2
320,64,239250,1,6
288,96,239500,1,6
448,128,239750,1,6
416,160,240000,1,6
192,128,240250,1,6
250,313,240500,1,2
352,160,240750,1,6
239,236,241000,1,2
256,160,241250,1,6
192,192,241500,1,6
320,128,241750,1,6
352,160,242000,1,6
288,160,242250,1,6
224,96,242500,1,6
192,128,242750,1,6
416,128,243000,1,6
384,160,243250,1,6
288,128,243500,1,6
256,128,243750,1,6
288,192,244000,1,6
352,96,244250,1,6
416,128,244500,1,6
416,128,245250,1,6
320,64,245750,1,6
288,192,246250,1,6
160,128,246750,1,6
352,128,247000,1,6
128,32,247750,1,6
384,64,248250,1,6
160,128,249000,1,6
352,160,249500,1,6
352,192,250000,1,6
480,128,250250,1,6
416,96,250500,1,6
288,128,250750,1,6
412,294,251000,1,2
448,128,251250,1,6
384,192,251500,1,6
256,64,252000,1,6
400,93,252500,1,2
416,128,252750,1,6
448,128,253000,1,6
192,96,253250,1,6
160,128,253500,1,6
288,128,253750,1,6
352,128,254000,1,6
160,128,254250,1,6
96,128,254500,1,6
288,192,254750,1,6
352,128,255000,1,6
192,96,256500,1,6
384,96,257000,1,6
155,176,257500,1,2
224,64,257750,1,6
352,32,258250,1,6
192,32,259000,1,6
416,160,259750,1,6
224,192,260500,1,6
384,160,261000,1,6
224,128,261750,1,6
352,64,262500,1,6
288,160,263250,1,6
416,128,263750,1,6
288,128,264500,1,6
384,160,265250,1,6
320,128,265750,1,6
256,128,266500,1,6
224,192,267250,1,6
224,224,267750,1,6
352,192,268750,1,6
352,128,269250,1,6
256,192,263000,12,2,270000
224,64,270250,1,6
256,128,270750,1,6
384,128,271250,1,6
288,128,271750,1,6
384,128,272250,1,6
273,228,272500,1,4
290,144,273500,1,4
156,63,274500,1,4
172,146,275000,1,4
221,224,275500,1,4
338,168,276500,1,4
287,293,277000,1,4
407,252,277500,1,4
130,104,278500,1,4
154,255,279500,1,4
