osu file format v5

[General]
AudioFilename: His World (full).mp3
AudioLeadIn: 0
PreviewTime: -1
Countdown: 1
SampleSet: Normal
StackLeniency: 0.7
Mode: 0
LetterboxInBreaks: 1
EditorBookmarks: 51241,53095,54949,56803,62196,62702,63882,65736,66747,66916,67421,68095,69107,72983,78377,81916,83602,84108,84276,85456,87984,90681,116469,117312,138886,154224,156078,157089,157258,157763,172259,173944,174618,175630,181529,182709,189956,211699
EditorDistanceSpacing: 0.800000011920929

[Metadata]
Title:His World
Artist:Ali Tabatabaee & Matty Lewis
Creator:Mifune24
Version:Normal
Source:
Tags:

[Difficulty]
HPDrainRate:5
CircleSize:4
OverallDifficulty:5
SliderMultiplier:1.4
SliderTickRate:1

[Events]
//Background and Video events
0,0,"Super_Sonic_by_MRi.jpg"
//Break Periods
2,92566,96555
//Storyboard Layer 0 (Background)
//Storyboard Layer 1 (Failing)
//Storyboard Layer 2 (Passing)
//Storyboard Layer 3 (Foreground)
//Storyboard Sound Samples
//Background Colour Transformations
3,100,163,162,255

[TimingPoints]
2717,337.078651685393,4,1,0,100,1,0

[HitObjects]
64,64,23363,2,0,B|0:160|64:320,1,245
160,320,24290,1,0
256,320,24627,1,0
352,320,24964,1,0
448,288,25301,2,0,B|512:192|416:64,1,210
160,64,26649,5,8
64,128,26986,1,8
160,192,27323,1,8
64,256,27660,2,8,B|128:352|288:352|384:256,1,350
448,160,28840,6,0,B|352:64|256:96,1,210
160,128,29683,1,0
70,195,30020,1,0
161,263,30357,2,0,B|301:218|442:265,2,280
128,192,32042,6,4,B|32:192|64:64,1,140
168,115,32717,2,4,B|166:35|266:40,1,140
328,130,33391,2,4,B|415:130|418:236,1,140
306,237,34065,2,4,B|311:321|222:334,1,140
192,192,34739,5,0
64,192,35076,1,0
64,64,35413,1,0
192,64,35750,2,0,B|448:64|448:256,1,350
416,320,37099,5,8
288,320,37436,1,8
288,192,37773,1,8
192,256,38110,1,8
96,320,38447,1,8
96,192,38784,2,4,B|96:64|256:64,1,210
352,64,39627,6,0,B|480:64|480:224,1,210
480,320,40469,1,0
352,320,40806,2,0,B|256:320|256:224,2,140
352,192,41818,1,0
352,192,41986,1,0
192,192,42492,6,0,B|192:288|96:288,1,140
32,224,43166,1,0
96,128,43503,1,0
32,32,43840,1,0
160,32,44177,2,4,B|320:0|448:32,2,280
256,32,46874,5,0
256,128,47211,1,0
256,128,47379,2,0,B|171:124|132:189|140:248|180:300|257:316|320:302|392:258|396:188|305:134,1,490
256,32,48896,5,0
256,32,49233,1,0
354,88,49570,2,0,B|452:138|465:266|395:357|282:366|196:368|120:308|64:232|85:123|158:77,1,700
409,32,51930,1,0
409,32,52099,2,0,B|495:139|506:212|487:292|428:355|336:368,1,420
226,370,53447,6,0,B|134:368|32:304|62:240,1,210
16,167,54290,1,0
111,108,54627,1,0
216,64,54964,2,0,B|280:24|376:24|464:64|488:152|496:264|456:352|328:368|240:352|184:288|152:216|176:152,1,770
32,224,57660,5,0
64,96,57997,1,0
64,96,58166,2,0,B|140:56|219:69,1,140
320,64,58840,1,4
448,64,59683,5,0
416,160,60020,1,0
334,238,60357,2,0,B|289:311|202:344|111:342|38:296|-2:193|-2:103|66:35|206:39|274:38|330:119|341:187,1,770
480,224,62716,6,0,B|512:96|448:0|320:0|224:0|128:0,1,490
75,40,64065,2,0,B|16:98|9:157|18:223|35:278|59:313|86:332|123:360,1,350
175,361,65076,5,0
287,361,65413,1,0
287,208,65750,2,0,B|285:166|373:131|441:178|466:246|424:320|334:319|255:296|205:279,1,420
147,255,66930,2,0,B|70:202|48:147|110:72,1,210
204,32,67773,2,0,B|290:10|369:55,1,140
420,121,68447,2,0,B|454:196|415:312|274:322,1,280
120,313,69627,2,4,B|51:303|20:226|19:185|48:143,1,210
192,32,70638,5,2
192,32,70806,1,2
231,138,71143,2,0,B|253:58|342:23|440:25|505:102|528:192|525:277|479:350|383:368|307:364|241:339|214:241|226:186,1,770
156,55,73503,1,0
42,64,73840,2,0,B|4:163|16:268|132:315,1,280
218,338,74851,1,0
218,338,75020,1,4
255,62,75863,5,0
255,62,76200,1,0
143,74,76537,2,0,B|68:135|72:252|110:341|224:378|342:374|447:315|464:160|433:99|336:47,1,770
256,256,79233,1,0
256,256,79402,2,0,B|256:96,1,140
256,0,80076,1,0
256,0,80413,1,4
256,256,81256,5,2
256,256,81593,1,2
152,296,81930,2,0,B|64:216|72:120|168:24|248:0|384:24|464:112|464:224|368:312,1,700
173,357,84290,2,0,B|134:366|98:363|68:329|36:290|22:259|17:232|12:198|14:162|20:129|39:86|69:56|103:29|138:11|177:21,1,490
224,28,85638,2,0,B|321:31|383:88|414:167|390:255|365:283,1,350
329,344,86649,5,0
257,247,86986,1,0
192,346,87323,2,0,B|96:346|64:186|128:122,1,280
192,32,88334,1,0
192,32,88503,2,0,B|281:77|387:49|405:33,1,210
448,128,89346,2,0,B|481:200|446:275,1,140
384,352,90020,2,0,B|308:288|208:290|134:322|117:361,1,280
152,176,91200,2,4,B|88:112|136:8|264:-8|368:8|432:80|416:136|368:184,1,490
352,288,97773,5,0
448,224,98110,1,0
352,160,98447,1,0
448,96,98784,1,0
352,32,99121,1,0
258,94,99458,2,0,B|180:142|93:114|51:95,1,210
32,224,100806,6,4,B|32:320|128:320,1,140
160,224,101481,2,4,B|160:128|256:128,1,140
288,224,102155,2,4,B|288:320|384:320,1,140
448,224,102829,2,4,B|448:128|352:128,1,140
256,128,103503,5,8
160,64,103840,1,8
64,128,104177,1,8
160,192,104514,1,8
62,247,104851,2,8,B|153:301|281:246,1,210
416,160,105863,6,0,B|384:96|288:64,1,140
192,64,106537,2,0,B|96:64|64:128,1,140
64,224,107211,1,0
128,320,107548,2,4,B|256:352|352:320,1,210
448,224,108559,5,8
448,96,108896,1,8
352,160,109233,1,8
256,96,109570,1,8
160,160,109908,2,0,B|64:160|64:256,1,140
64,352,110582,1,0
64,352,110750,1,0
160,352,111087,5,2
160,352,111256,1,2
256,352,111593,2,0,B|352:352|384:288,1,140
313,208,112267,1,0
384,128,112604,2,0,B|320:32|192:32|128:64|64:160,1,350
64,256,113784,6,0,B|96:320,1,70
160,320,114121,2,0,B|192:256,1,70
256,256,114458,2,0,B|288:320,1,70
384,320,114964,1,0
448,224,115301,2,0,B|480:96|352:32|256:32|192:64,1,350
110,98,116481,6,0,B|16:144|16:205|49:278|112:285|194:320|229:306,1,350
300,237,117660,1,0
224,153,117997,2,0,B|288:89|448:89|480:249|416:313,1,350
256,320,119346,5,8
128,320,119683,2,8,B|32:320|32:224,1,140
128,192,120357,1,8
32,128,120694,2,8,B|32:32|128:64,1,140
128,192,121368,2,4,B|128:288|256:256,1,140
320,192,122042,5,2
384,288,122379,1,2
448,192,122716,1,2
384,96,123054,1,2
256,96,123391,2,4,B|160:64|64:128|64:224|64:256|128:320,1,350
288,320,124739,5,0
384,320,125076,2,0,B|448:256|416:160,1,140
416,64,125750,1,0
352,160,126087,1,0
288,64,126424,2,2,B|160:64|160:224,1,210
64,256,127267,1,2
64,256,127436,1,2
160,320,127773,5,0
224,224,128110,2,0,B|320:224|352:320,1,140
432,344,128784,1,0
440,232,129121,2,2,B|408:168|312:104|248:104,1,210
176,56,129964,1,2
176,56,130132,1,2
96,160,130469,6,0,B|160:256|320:256|352:192,1,280
416,128,131481,1,0
448,224,131818,2,0,B|416:320|288:352,1,210
64,320,132997,5,0
64,320,133166,2,0,B|32:224|64:160,1,140
96,64,133840,1,0
416,64,134514,2,0,B|512:192|416:352,1,280
208,213,135863,6,4,B|162:147|228:86|312:98|349:145|348:178|306:228,2,280
260,312,137548,1,0
260,312,137716,1,0
192,192,139233,5,0
192,192,139570,1,0
158,296,139908,2,0,B|60:246|47:118|117:27|230:18|316:16|392:76|448:152|427:261|354:307,1,700
160,352,142267,1,0
53,321,142604,2,0,B|9:248|8:161|51:59|138:24|246:23,1,420
294,25,143784,2,0,B|422:25|486:121,1,210
496,217,144627,5,0
401,276,144964,1,0
295,317,145301,2,0,B|203:359|92:327|25:220|16:119|118:28|232:5|335:32|416:144|383:219|315:280,1,770
479,123,147997,5,0
457,232,148334,1,0
456,232,148503,2,0,B|420:265|350:279|316:287,1,140
216,312,149177,1,4
64,320,150020,5,2
96,224,150357,1,2
178,146,150694,2,0,B|223:73|310:40|401:42|474:88|514:191|514:281|446:349|306:345|238:346|182:265|171:197,1,770
105,57,153054,6,0,B|32:89|0:152|-2:222|11:271|41:327|96:359|150:372|192:372|230:373|262:366,1,490
298,368,154402,2,0,B|379:370|458:335|489:271|487:200|473:144|457:116,1,350
430,67,155413,5,0
324,28,155750,1,0
220,69,156087,2,0,B|133:70|78:138|89:211|155:280|229:293|314:215,1,420
367,175,157267,2,0,B|416:146|486:169|502:240|440:300,1,210
351,337,158110,2,0,B|265:359|186:314,1,140
115,272,158784,2,0,B|81:197|120:81|261:71,1,280
412,66,159964,2,4,B|495:170|426:282,1,210
320,352,160975,5,2
320,352,161143,1,2
281,246,161481,2,0,B|259:326|170:361|72:359|7:282|-16:192|-13:107|33:34|129:16|205:20|271:45|298:143|286:198,1,770
356,329,163840,1,0
470,320,164177,2,0,B|508:221|496:116|380:69,1,280
294,46,165188,1,0
294,46,165357,1,0
256,288,166200,5,0
256,288,166537,1,0
352,288,166874,2,0,B|427:225|423:108|385:19|271:-18|153:-14|48:45|31:200|62:261|159:313,1,770
256,96,169570,1,0
256,96,169739,2,0,B|256:256,1,140
256,352,170413,1,0
256,352,170750,1,4
256,128,171593,5,2
256,128,171930,1,2
362,92,172267,2,0,B|410:179|410:235|375:298|298:346|213:350|127:323|93:260|74:177|97:103|141:74|181:54|230:48,1,700
449,37,174627,2,0,B|506:130|501:207|487:286|451:326|399:350|337:363|303:358,1,420
212,354,175975,2,0,B|124:352|78:307|46:245|40:197|46:143|79:95,1,350
123,51,176986,5,0
234,51,177323,1,0
345,50,177660,2,0,B|430:27|514:100|490:185|375:211,1,280
288,209,178672,1,0
288,210,178840,2,0,B|181:208|160:268|179:319|231:341,1,210
328,336,179683,2,0,B|406:341|440:290|437:249,1,140
435,155,180357,2,0,B|432:103|336:38|243:33|195:60,1,280
91,184,181537,2,4,B|59:248|99:336|211:376|307:368|395:296|371:208|355:168,1,490
