osu file format v5

[General]
AudioFilename: His World (full).mp3
AudioLeadIn: 0
PreviewTime: -1
Countdown: 1
SampleSet: Normal
StackLeniency: 0.7
Mode: 0
LetterboxInBreaks: 1
EditorBookmarks: 49555,51241,65736,66578,89333,89838,90007,90850,137706,138717,156078,156921,190288
EditorDistanceSpacing: 0.800000011920929

[Metadata]
Title:His World
Artist:Ali Tabatabaee & Matty Lewis
Creator:Mifune24
Version:Hard
Source:
Tags:

[Difficulty]
HPDrainRate:7
CircleSize:5
OverallDifficulty:6
SliderMultiplier:1.7
SliderTickRate:1

[Events]
//Background and Video events
0,0,"Super_Sonic_by_MRi.jpg"
//Break Periods
2,92561,95544
//Storyboard Layer 0 (Background)
//Storyboard Layer 1 (Failing)
//Storyboard Layer 2 (Passing)
//Storyboard Layer 3 (Foreground)
//Storyboard Sound Samples
//Background Colour Transformations
3,100,163,162,255

[TimingPoints]
2717,337.078651685393,4,1,0,100,1,0

[HitObjects]
128,128,23363,2,0,B|202:198|300:66|379:70|417:158,1,297.5
384,288,24290,2,0,B|352:352|288:288,1,85
224,288,24627,2,0,B|192:256|128:320,1,85
64,352,24964,1,0
32,256,25132,1,0
64,160,25301,1,2
160,128,25469,1,2
245,181,25638,2,2,B|309:213|341:149,1,85
416,64,26143,5,0
448,160,26312,1,0
416,256,26481,1,0
320,288,26649,2,0,B|288:224|224:192|160:224,1,170
96,256,27155,1,0
64,352,27323,1,0
160,352,27492,1,0
254,352,27660,2,2,B|304:373|344:345,4,85
259,247,28503,2,4,B|231:201|269:153,1,85
256,64,28840,5,0
160,96,29009,2,0,B|96:160,1,85
32,192,29346,1,0
32,352,29683,1,0
160,288,30020,1,0
224,352,30188,1,0
288,288,30357,2,0,B|352:224,1,85
416,160,30694,2,0,B|352:96|256:192|160:128,1,255
56,32,31705,5,0
176,29,32042,2,4,B|272:-3|368:29,1,170
470,97,32717,2,4,B|502:193|470:289,1,170
340,321,33391,2,4,B|244:353|148:321,1,170
41,263,34065,2,4,B|9:167|41:71,1,170
192,64,34739,5,0
128,128,34908,1,0
128,224,35076,2,0,B|192:192|224:256,1,85
224,333,35413,1,0
321,320,35582,2,0,B|361:275|319:223,1,85
322,147,35919,1,0
322,147,36087,2,0,B|322:83|386:83|450:83|450:147,1,170
448,224,36593,1,2
320,224,36930,5,0
224,224,37099,2,0,B|128:224,2,85
224,320,37604,1,0
128,320,37773,2,0,B|64:288|32:224|64:160,1,170
64,96,38278,1,0
160,64,38447,1,0
256,64,38615,1,0
352,64,38784,2,0,B|448:64|448:192,1,170
448,256,39290,1,2
352,256,39627,6,0,B|256:256,2,85
352,160,40132,1,0
256,128,40301,1,0
160,160,40469,1,0
32,256,40806,1,0
32,256,40975,1,0
32,256,41143,1,0
160,352,41481,2,0,B|256:352|352:320,1,170
416,288,41986,1,2
480,160,42323,5,0
416,96,42492,1,0
416,192,42660,2,0,B|352:192|320:256,2,85
352,128,43166,1,0
224,32,43503,1,0
96,128,43840,1,0
224,224,44177,1,0
96,320,44514,1,0
96,320,44683,1,0
32,192,45357,5,0
96,128,45525,1,0
192,96,45694,1,0
288,96,45863,1,0
384,128,46031,1,0
448,192,46200,1,0
128,352,46874,5,0
288,288,47211,1,0
288,288,47379,2,0,B|395:286|399:159|363:74|269:36|156:58|112:162|120:235|175:300|248:292,1,595
256,160,48896,5,0
256,160,49233,1,0
224,320,49570,2,0,B|128:320|32:256|0:128|96:32|224:0|384:32|448:96|480:160|480:288|322:319,1,850
256,32,51930,1,0
208,121,52099,2,0,B|148:148|117:196|114:240|153:285|198:302|275:306|340:282|393:252|415:195|363:131|306:128,1,510
251,76,53278,1,0
162,30,53447,2,0,B|99:21|53:41|13:73|10:114|25:168|24:195,1,255
32,288,54290,5,0
140,201,54627,1,0
224,320,54964,2,0,B|128:320|32:256|0:128|96:32|224:0|384:32|448:96|480:160|480:288|322:323,1,850
32,352,57323,5,0
32,224,57660,1,0
32,96,57997,1,0
128,96,58166,2,0,B|301:97,1,170
416,96,58840,1,0
253,191,59346,1,4
128,192,59683,5,0
253,191,60020,1,0
224,320,60357,2,0,B|128:320|32:256|0:128|96:32|224:0|384:32|448:96|480:160|480:288|317:319,1,850
160,160,62548,1,2
224,224,62716,1,2
288,160,62885,1,2
352,224,63054,2,0,B|416:128|320:32|32:96,1,425
50,190,64065,1,0
141,192,64233,1,0
49,280,64570,2,0,B|145:280,2,85
95,351,65076,5,0
232,351,65413,1,0
256,220,65750,2,0,B|210:188|222:147|283:126|347:122|382:191|391:244|371:304|321:324|257:306|202:268,1,425
134,201,66761,1,0
127,308,66930,2,0,B|31:308|31:180,1,170
66,81,67436,1,0
256,64,67773,2,0,B|384:64|384:256,1,255
342,338,68447,2,0,B|150:338|86:242|54:178|86:82,1,425
231,39,69627,2,4,B|291:23|375:29|408:43,1,170
482,70,70132,1,4
258,193,70638,5,2
258,193,70806,1,2
224,320,71143,2,0,B|128:320|32:256|0:128|96:32|224:0|384:32|448:96|480:160|480:288|320:321,1,850
256,64,73503,1,0
96,160,73840,2,0,B|192:288|320:320|480:128,1,425
416,64,74851,1,0
416,64,75020,1,0
160,64,75525,1,4
160,192,75863,5,0
320,190,76200,1,0
223,320,76537,2,0,B|479:320|488:194|479:96|415:32|255:32|95:32|27:98|25:197|31:320|160:317,1,935
256,192,78896,1,0
416,192,79233,1,0
416,96,79402,2,0,B|352:128|288:64|224:128,1,170
96,96,80076,1,0
245,32,80413,1,4
160,224,80919,5,0
256,128,81256,1,0
352,224,81593,1,0
224,320,81930,2,0,B|128:320|32:256|0:128|96:32|224:0|384:32|448:96|480:160|480:288|316:319,1,850
160,160,84121,1,0
224,224,84290,1,0
288,160,84458,1,0
352,224,84627,2,0,B|352:320|192:384|64:320|32:256|32:192,1,425
32,122,85638,1,0
32,32,85806,1,0
192,32,86143,2,0,B|250:6|328:18|361:33,1,170
422,109,86649,5,0
416,256,86986,1,0
366,133,87323,2,0,B|304:133|264:106|248:58|274:12|329:-2|388:-14|442:-7|488:36|498:69|480:122,1,425
483,220,88334,1,0
439,306,88503,2,0,B|407:402|311:338|311:274,1,170
271,224,89009,1,0
191,123,89346,2,0,B|167:70|112:52|60:62|9:95|-3:152|28:194,1,255
25,256,90020,2,0,B|39:303|108:363|175:356|270:338|297:321|345:274|370:246|367:192,1,425
364,71,91200,2,4,B|308:16|209:13|182:79,1,170
146,110,91705,2,4,B|181:177|270:197|362:188|427:136|442:102,1,340
256,352,96761,5,2
256,352,97099,1,2
256,352,97436,1,2
384,288,97773,5,2
384,128,98110,1,2
312,193,98278,1,2
222,227,98447,1,2
130,186,98615,1,2
71,107,98784,1,2
143,39,98952,2,2,B|195:23|264:55,1,85
385,39,99458,1,4
383,197,99795,1,4
383,197,99964,1,4
339,330,100806,6,4,B|262:369|169:337,1,170
50,275,101481,2,4,B|8:181|38:104,1,170
164,48,102155,2,4,B|270:9|355:60,1,170
463,101,102829,2,4,B|510:188|467:266,1,170
352,320,103503,5,0
256,320,103672,1,0
160,320,103840,1,0
192,224,104009,1,0
96,224,104177,1,0
160,128,104346,1,0
256,128,104514,1,0
416,128,104851,1,0
416,128,105020,2,0,B|448:192|416:320,1,170
128,64,105863,6,0,B|32:64,3,85
32,160,106537,2,0,B|160:160,3,85
32,256,107211,1,0
160,352,107548,1,2
256,352,107716,1,2
384,256,108054,1,2
448,160,108391,5,0
416,64,108559,1,0
315,37,108728,2,0,B|266:10|203:42,1,85
149,33,109065,1,0
149,133,109233,2,0,B|205:170|304:152|337:123,1,170
320,288,109908,1,2
320,288,110076,1,2
320,288,110245,1,2
131,349,110582,2,0,B|172:370|224:345,1,85
288,224,111087,5,0
192,192,111256,1,0
32,192,111593,2,0,B|32:288,2,85
32,32,112267,1,0
160,128,112604,1,0
160,128,112773,1,0
160,128,112941,2,0,B|288:128|352:64,1,170
416,64,113447,1,0
421,194,113784,6,0,B|468:217|467:265,1,85
402,319,114121,2,0,B|357:348|312:316,1,85
241,287,114458,2,0,B|219:239|273:197,1,85
352,64,114964,1,0
192,47,115301,2,0,B|137:15|101:59,1,85
78,142,115638,2,0,B|128:182|214:166|240:144,1,170
339,134,116143,1,2
384,320,116481,5,0
288,352,116649,1,0
288,256,116818,1,0
192,320,116986,2,0,B|128:352|96:256|32:320,1,170
32,224,117492,1,0
32,224,117660,1,0
192,160,117997,2,0,B|288:96,2,85
96,32,118672,1,2
96,32,118840,1,2
288,32,119177,5,0
384,32,119346,2,0,B|384:128|320:192,1,170
281,281,119851,1,0
194,334,120020,1,2
79,332,120188,1,2
30,233,120357,1,2
29,123,120694,5,0
190,162,121031,1,0
274,221,121200,1,0
355,169,121368,2,0,B|418:169|456:114,1,85
192,32,122042,5,0
256,96,122211,1,0
320,32,122379,1,0
480,96,122716,1,6
416,160,122885,1,6
352,96,123054,1,6
480,224,123391,2,0,B|416:320|256:352|160:352|64:320,1,425
32,192,124570,6,0,B|32:128|96:128,2,85
128,192,125076,1,0
224,192,125245,2,0,B|224:256|288:256,2,85
320,192,125750,1,0
480,192,126087,1,0
480,192,126256,1,0
480,192,126424,2,0,B|480:96|352:96,1,170
275,84,126930,1,0
124,129,127267,2,0,B|76:134|56:179,1,85
160,288,127773,5,0
256,288,127941,1,0
320,224,128110,2,0,B|384:128,1,85
410,69,128447,1,0
261,70,128784,2,2,B|165:70,1,85
91,72,129121,1,2
91,238,129458,1,4
91,238,129627,1,4
256,238,129964,5,0
256,147,130132,1,0
160,147,130301,1,0
160,242,130469,2,0,B|96:338,2,85
28,152,131143,1,0
158,48,131481,2,0,B|203:18|284:9|379:8|441:28|481:98|490:189,1,425
384,320,132997,5,0
286,322,133166,2,0,B|207:363|110:315,1,170
130,161,133840,2,4,B|209:120|306:168,5,170
448,160,135863,5,0
384,320,136200,1,0
320,160,136537,1,0
224,124,136705,1,0
128,162,136874,1,0
127,322,137211,1,0
26,210,137548,1,0
26,210,137716,2,0,B|18:101|89:37|166:13|247:5|323:28|376:51|413:74|433:93,1,510
256,160,139233,5,0
256,160,139570,1,0
224,32,139908,2,0,B|128:32|32:96|0:224|96:320|224:352|384:320|448:256|480:192|480:64|316:39,1,850
256,352,142267,1,0
224,228,142604,2,0,B|182:224|154:156|192:98|256:84|320:92|350:150|332:205|275:231,1,340
171,315,143615,1,0
79,315,143784,2,0,B|17:295|-17:245|-18:208|-14:171|-5:141|6:98,1,255
127,25,144627,5,0
141,201,144964,1,0
224,64,145301,2,0,B|128:64|32:128|0:256|96:352|224:384|384:352|448:288|480:224|480:96|316:71,1,850
32,32,147660,5,0
128,160,147997,1,0
32,288,148334,1,0
128,288,148503,2,0,B|301:287,1,170
448,288,149177,1,0
288,192,149683,1,4
128,192,150020,5,0
288,192,150357,1,0
224,64,150694,2,0,B|128:64|32:128|0:256|96:352|224:384|384:352|448:288|480:224|480:96|314:69,1,850
160,224,152885,1,2
256,224,153054,1,2
224,128,153222,1,2
319,128,153391,2,0,B|372:146|384:255|314:330|206:342|128:330|99:326|64:322,1,425
64,224,154402,1,0
160,224,154570,1,0
64,96,154908,2,0,B|160:96,2,85
128,32,155413,5,0
288,32,155750,1,0
288,193,156087,2,0,B|240:193|199:238|209:293|278:333|361:331|423:265|432:147|350:115,1,425
256,96,157099,1,0
160,96,157267,2,0,B|64:96|64:224,1,170
63,294,157773,1,0
223,294,158110,2,0,B|351:294|351:102,1,255
282,53,158784,2,0,B|90:53|26:149|-6:213|26:309,1,425
188,321,159964,2,4,B|271:364|366:318,1,170
429,286,160469,1,4
160,209,160975,5,2
255,207,161143,1,2
224,64,161481,2,0,B|128:64|32:128|0:256|96:352|224:384|384:352|448:288|480:224|480:96|330:70,1,850
256,320,163840,1,0
96,224,164177,2,0,B|192:96|320:64|480:256,1,425
416,320,165188,1,0
416,320,165357,1,0
160,320,165863,1,4
128,192,166200,5,0
288,224,166537,1,0
224,65,166874,2,0,B|480:65|512:193|480:289|416:353|256:353|96:353|32:289|0:193|32:65|152:83,1,935
256,192,169233,1,0
416,192,169570,1,0
416,288,169739,2,0,B|352:320|288:320|224:256,1,170
96,288,170413,1,0
248,351,170750,1,4
160,160,171256,5,0
256,256,171593,1,0
352,160,171930,1,0
224,64,172267,2,0,B|128:64|32:128|0:256|96:352|224:384|384:352|448:288|480:224|480:96|313:71,1,850
160,224,174458,1,0
224,160,174627,1,0
288,224,174795,1,0
352,160,174964,2,0,B|352:64|224:0|96:32|32:96|64:192,1,425
64,256,175975,1,0
64,352,176143,1,0
160,256,176481,2,0,B|256:288|352:256,1,170
424,253,176986,5,0
424,100,177323,1,0
366,251,177660,2,0,B|304:251|264:278|248:326|274:372|329:386|388:398|442:391|488:348|498:315|480:262,1,425
483,164,178672,1,0
439,78,178840,2,0,B|407:-18|311:46|311:110,1,170
271,160,179346,1,0
184,273,179683,2,0,B|165:319|80:348|29:300|9:253|32:192,1,255
49,118,180357,2,0,B|84:68|147:25|241:17|332:23|380:58|421:95|437:120,1,425
425,258,181537,2,4,B|369:310|279:299|261:249,1,170
268,180,182042,2,4,B|270:121|197:97|125:92|69:123|34:159|21:190|32:232,1,340
