osu file format v5

[General]
AudioFilename: His World (full).mp3
AudioLeadIn: 0
PreviewTime: -1
Countdown: 1
SampleSet: Normal
StackLeniency: 0.7
Mode: 0
LetterboxInBreaks: 1
EditorBookmarks: 42813,44836,51241,53095,56803,62196,63882,66578,68095,69107,72983,78377,83602,85287,87984,90681,127762,138886,141583,152370,189956,211699
EditorDistanceSpacing: 0.800000011920929

[Metadata]
Title:His World
Artist:Ali Tabatabaee & Matty Lewis
Creator:Mifune24
Version:Easy
Source:
Tags:

[Difficulty]
HPDrainRate:4
CircleSize:4
OverallDifficulty:4
SliderMultiplier:1
SliderTickRate:1

[Events]
//Background and Video events
0,0,"Super_Sonic_by_MRi.jpg"
//Break Periods
2,91892,96435
//Storyboard Layer 0 (Background)
//Storyboard Layer 1 (Failing)
//Storyboard Layer 2 (Passing)
//Storyboard Layer 3 (Foreground)
//Storyboard Sound Samples
//Background Colour Transformations
3,100,163,162,255

[TimingPoints]
2717,337.078651685393,4,1,0,100,1,0

[HitObjects]
132,88,23363,2,0,B|199:123|256:49|318:107,1,175
416,200,24627,1,0
320,320,25301,2,0,B|256:352|192:288|160:352,1,150
191,133,26649,6,0,B|187:72|256:43|324:67|315:158,1,200
318,293,27997,2,4,B|322:354|253:383|185:359|194:268,1,200
192,192,29009,5,0
192,64,29346,1,0
320,64,29683,1,0
320,192,30020,1,0
96,102,30694,2,0,B|39:170|111:254,1,150
312,269,32042,6,4,B|322:335|245:365|184:320|201:255,3,200
320,160,34739,5,8
256,64,35076,1,8
192,160,35413,1,8
471,159,36087,2,2,B|505:254|464:321,1,150
192,288,37436,5,8
256,192,37773,1,8
320,288,38110,1,8
53,289,38784,2,4,B|5:202|52:141,1,150
256,64,40132,5,2
256,64,40301,1,2
256,64,40469,1,2
320,160,40806,2,0,B|284:204|219:191,1,100
160,288,41481,2,0,B|208:337|278:355|309:326,1,150
474,200,42829,6,4,B|478:98|371:26|260:13|127:26|34:89|37:207,1,600
256,192,45357,12,0,48222
256,32,48896,5,0
256,32,49233,1,0
256,160,49570,2,0,B|186:151|118:217|118:311|181:390|274:398|354:365|402:283|346:216,1,500
346,28,51930,1,0
346,28,52099,2,0,B|454:75|451:208|427:247,1,250
384,352,53278,1,4
384,352,53447,1,4
235,243,54290,5,2
235,243,54627,1,2
128,224,54964,2,0,B|56:176|80:88|120:24|232:0|320:32|376:80|384:144|360:216|304:232,1,550
129,318,57660,5,0
64,224,57997,1,0
64,224,58166,2,0,B|23:153|41:108,1,100
64,32,58840,1,0
254,196,59683,5,2
254,196,60020,1,2
128,160,60357,2,0,B|56:208|80:296|120:360|232:384|320:352|376:304|384:240|360:168|304:152,1,550
326,23,62716,5,0
416,96,63054,2,0,B|515:163|497:286|460:326,2,250
322,31,65076,5,0
256,128,65413,1,0
192,32,65750,2,0,B|135:29|88:100|128:196,1,200
160,288,66761,1,2
160,288,66930,2,2,B|234:274|287:326|302:348,1,150
384,256,67773,2,4,B|454:257|492:192|505:123|484:93,2,200
256,352,69627,1,4
256,352,70132,1,4
256,176,70638,5,2
256,176,70806,1,2
128,192,71143,2,0,B|56:144|80:56|120:-8|232:-32|320:0|376:48|384:112|360:184|304:200,1,550
255,306,73503,1,0
128,320,73840,2,0,B|36:289|15:200|30:143,1,200
32,32,74851,1,0
32,32,75020,1,0
255,62,75863,5,0
255,62,76200,1,0
384,64,76537,2,0,B|456:112|432:200|392:264|280:288|192:256|136:208|128:144|152:72|208:56,1,550
74,326,79233,1,0
74,326,79402,2,0,B|12:263|60:218,1,100
64,128,80076,1,0
64,128,80413,1,4
255,283,81256,5,2
255,283,81593,1,2
177,198,81930,2,0,B|100:108|164:20|212:-4|276:-12|348:12|388:60|388:132|348:188|321:206,1,500
229,324,84290,1,0
128,288,84627,2,0,B|42:257|11:172|17:119|35:78,2,250
228,320,86649,5,0
288,224,86986,1,0
352,320,87323,2,0,B|407:296|430:192|382:141,1,200
320,32,88334,1,2
320,32,88503,2,2,B|263:85|211:60|183:43|171:17,1,150
64,32,89346,2,4,B|-4:116|59:237,2,200
256,121,91200,1,4
256,121,91705,1,4
200,272,97773,5,0
256,352,98110,1,0
312,272,98447,1,0
256,192,98784,1,0
192,32,99458,2,0,B|256:24|344:32,1,150
256,192,100806,12,0,102829
256,48,103503,5,0
192,128,103840,1,0
320,128,104177,1,0
256,224,104514,1,0
192,320,104851,2,0,B|240:352|312:344|336:320,1,150
416,160,105863,6,2,B|416:264,1,100
288,256,106537,2,2,B|288:152,1,100
160,96,107211,2,4,B|160:352,1,250
32,264,108896,5,8
32,128,109233,1,8
128,192,109570,1,8
192,32,110245,2,2,B|264:16|352:32,1,150
480,120,111593,5,8
480,256,111930,1,8
384,192,112267,1,8
320,352,112941,2,4,B|272:376|168:352,1,150
160,64,114290,5,0
64,128,114627,1,0
160,192,114964,1,0
256,352,115638,1,2
256,224,115975,1,2
256,224,116143,1,2
352,320,116986,5,0
448,256,117323,1,0
352,192,117660,1,0
256,32,118334,1,2
256,160,118672,1,4
256,160,118840,1,4
256,288,119683,5,0
256,160,120020,1,0
256,32,120357,1,0
64,96,121031,2,0,B|32:160|64:256,1,150
160,352,122042,5,2
288,352,122379,1,2
224,256,122716,1,2
160,160,123054,1,2
288,160,123391,2,4,B|416:160|448:256|425:312|409:344,1,250
240,56,125076,6,0,B|176:56|168:136,2,100
256,192,126087,1,0
384,192,126424,2,2,B|408:240|376:312|312:312,1,150
192,320,127773,6,0,B|120:320|120:248,2,100
192,192,128784,1,0
320,192,129121,2,2,B|416:192|416:288,1,150
288,320,129964,5,0
288,320,130132,1,0
160,320,130469,2,0,B|64:320|32:256|32:192,1,200
96,96,131481,1,0
160,192,131818,2,0,B|248:232|328:184,1,150
288,64,132997,5,0
288,64,133166,2,0,B|253:14|206:37|211:91,1,100
256,192,133840,1,0
158,341,134514,2,4,B|259:368|369:341,1,200
256,192,135863,12,0,138559
256,352,139233,5,0
256,352,139570,1,0
384,352,139908,2,0,B|456:304|432:216|392:152|280:128|192:160|136:208|128:272|152:344|208:360,1,550
32,312,142267,1,0
32,192,142604,2,0,B|32:56|160:32,1,200
256,32,143615,1,0
256,32,143784,1,0
256,136,144627,5,2
256,136,144964,1,2
384,160,145301,2,0,B|456:208|432:296|392:360|280:384|192:352|136:304|128:240|152:168|208:152,1,550
72,33,147997,5,4
64,160,148334,1,4
64,160,148503,2,4,B|52:211|65:260,1,100
129,355,149177,1,4
254,188,150020,5,2
254,188,150357,1,2
256,64,150694,2,0,B|186:55|118:121|118:215|181:294|274:302|354:269|402:187|346:120,1,500
326,361,153054,5,0
416,288,153391,2,0,B|515:221|497:98|460:58,2,250
322,353,155413,5,0
256,256,155750,1,0
192,352,156087,2,0,B|135:355|88:284|128:188,1,200
160,64,157099,1,2
160,64,157267,2,2,B|234:78|287:26|302:4,1,150
384,96,158110,2,4,B|454:95|492:160|505:229|484:259,2,200
227,94,159964,1,4
227,94,160469,1,4
256,200,160975,5,0
256,200,161143,1,0
128,192,161481,2,0,B|56:240|80:328|120:392|232:416|320:384|376:336|384:272|360:200|304:184,1,550
257,32,163840,1,2
137,35,164177,2,2,B|45:66|24:155|39:212,1,200
55,297,165188,1,4
55,297,165357,1,4
256,352,166200,5,0
256,352,166537,1,0
256,224,166874,2,0,B|355:241|407:114|389:29|279:-17|211:-14|152:37|126:117|161:174|200:201,1,550
74,58,169570,1,0
74,58,169739,2,0,B|12:121|60:166,1,100
64,256,170413,1,0
64,256,170750,1,4
256,96,171593,5,2
256,96,171930,1,2
193,179,172267,2,0,B|127:203|128:275|154:335|194:373|257:392|335:379|372:319|372:255|361:195|300:168,1,500
256,64,174627,1,0
128,96,174964,2,0,B|42:127|11:212|17:265|35:306,2,250
256,64,176986,5,0
320,160,177323,1,0
388,63,177660,2,0,B|443:87|466:191|418:242,1,200
320,320,178672,1,2
320,320,178840,2,2,B|263:267|211:292|183:309|171:335,1,150
64,288,179683,2,4,B|-4:204|59:83,2,200
256,288,181537,1,4
256,288,182042,1,4
