osu file format v5

[General]
AudioFilename: his world song.mp3
AudioLeadIn: 0
PreviewTime: -1
Countdown: 0
SampleSet: Normal
StackLeniency: 0.7
Mode: 0
LetterboxInBreaks: 1

[Metadata]
Title:HIS WORLD
Artist:Ali Tabatabaee & Matty Lewis
Creator:sushihad
Version:Normal
Source:
Tags:

[Difficulty]
HPDrainRate:3
CircleSize:4
OverallDifficulty:4
SliderMultiplier:2
SliderTickRate:4

[Events]
//Background and Video events
1,49,"FFU opening.avi"
0,0,"noticed.jpg"
//Break Periods
2,199333,213431
//Storyboard Layer 0 (Background)
//Storyboard Layer 1 (Failing)
//Storyboard Layer 2 (Passing)
//Storyboard Layer 3 (Foreground)
//Storyboard Sound Samples
//Background Colour Transformations
3,100,163,162,255

[TimingPoints]
2317,674.157303370787,4,1,0,100

[Colours]
Combo1 : 106,106,255
Combo2 : 0,0,15
Combo3 : 0,0,83
Combo4 : 0,0,174
Combo5 : 0,0,240

[HitObjects]
256,192,23314,1,0
192,160,25329,1,0
288,160,25497,1,0
288,160,25665,1,0
320,160,25833,1,0
191,176,27680,1,0
191,176,28016,1,0
191,176,28184,1,0
191,176,28351,1,0
191,176,28519,1,0
192,96,30534,1,0
288,96,30870,1,0
384,96,31038,1,0
384,192,31206,1,0
277,229,31374,1,0
160,128,32885,1,0
224,128,33053,1,0
256,160,33221,1,0
256,192,33389,1,0
128,243,33557,1,0
128,243,33725,1,0
128,160,35236,2,0,B|512:256|352:320,1,360
296,336,36580,1,0
296,336,36748,1,0
224,256,37419,5,0
256,192,37757,1,0
320,160,38094,1,0
352,96,38431,1,0
416,143,38768,1,0
457,162,39273,1,0
414,218,40622,1,0
371,214,41127,1,0
333,218,41464,1,0
306,214,41801,1,0
254,214,42138,1,0
182,216,42812,1,0
126,202,43149,1,0
120,143,43486,1,0
167,91,43824,1,0
244,95,44161,1,0
317,104,44498,1,0
385,111,44666,1,0
384,112,44835,1,0
411,168,45340,1,0
228,176,48374,1,0
228,176,48542,1,0
228,176,48711,1,0
228,176,48879,1,0
152,168,49891,1,0
214,167,50228,1,0
114,186,51913,1,0
118,187,52081,1,0
120,185,52250,1,0
118,189,52418,1,0
194,212,52755,1,0
194,212,52924,1,0
194,212,53093,1,0
268,180,53261,1,0
268,180,53430,1,0
268,180,53598,1,0
176,171,55283,1,0
241,219,55620,1,0
241,219,55789,1,0
241,219,55957,1,0
234,124,57643,1,0
277,103,57811,1,0
342,108,58148,1,0
373,162,58317,1,0
407,205,58822,1,0
248,222,58991,1,0
216,184,60676,1,0
280,183,61013,1,0
333,222,61182,1,0
333,222,61350,1,0
333,222,61519,1,0
333,222,61687,1,0
50,169,62530,2,0,B|340:165|336:166,2,250
97,152,65901,1,0
228,152,66069,1,0
235,273,66575,1,0
371,234,66743,2,0,B|403:275,1,50
339,197,66912,1,0
408,278,67249,1,0
168,160,68428,1,0
196,207,68934,1,0
204,240,69271,1,0
204,240,69608,1,0
300,231,69945,1,0
300,231,70114,1,0
300,231,70282,1,0
165,144,71293,1,0
242,147,71631,1,0
358,148,71968,1,0
200,162,73821,1,0
232,167,74158,1,0
220,212,74495,1,0
220,212,74833,1,0
147,154,76855,1,0
217,153,77192,1,0
283,222,77697,1,0
349,264,78035,1,0
198,240,78372,1,0
198,240,78540,1,0
198,240,78709,1,0
198,240,78877,1,0
224,157,79383,1,0
224,157,79551,1,0
224,157,80057,1,0
224,157,80225,1,0
224,157,80562,1,0
144,149,82416,1,0
229,156,82753,1,0
201,154,84776,5,0
266,180,85113,1,0
217,218,85450,1,0
166,220,85787,1,0
164,181,86124,1,0
164,181,87472,1,0
198,228,87809,1,0
246,215,88146,1,0
240,183,88483,1,0
206,163,88820,1,0
165,180,90168,1,0
217,164,90337,1,0
280,161,90843,1,0
302,204,91180,1,0
261,248,91517,1,0
198,244,91685,1,0
256,192,93033,12,0,97567
133,116,98258,5,0
237,156,98595,1,0
156,216,98932,1,0
314,227,99269,1,0
172,153,100954,1,0
247,178,101291,1,0
207,214,101628,1,0
207,214,101965,1,0
268,262,102302,1,0
352,260,102977,1,0
247,180,103651,1,0
247,180,103988,1,0
247,180,104325,1,0
336,171,104662,1,0
281,224,104999,1,0
186,251,105504,1,0
172,194,105673,1,0
255,163,107864,1,0
255,163,108032,1,0
347,172,108538,1,0
164,113,110560,1,0
241,172,110729,1,0
310,205,111066,1,0
296,176,113088,1,0
236,179,113425,1,0
163,190,113762,1,0
240,185,115953,1,0
240,185,116122,1,0
240,185,116459,1,0
307,206,118650,1,0
307,206,118818,1,0
307,206,118987,1,0
307,206,119155,1,0
200,193,121346,1,0
200,193,121515,1,0
200,193,121683,1,0
200,193,121852,1,0
192,228,123874,1,0
291,157,124211,1,0
164,157,124548,1,0
194,278,125391,1,0
260,228,125728,1,0
187,175,126065,1,0
174,144,126402,1,0
250,108,126739,1,0
289,160,127076,1,0
247,242,127244,1,0
143,206,128087,1,0
141,152,128424,1,0
180,106,128761,1,0
235,145,129098,1,0
221,209,129435,1,0
160,236,129772,1,0
132,192,130109,1,0
275,167,130784,1,0
264,227,131121,1,0
354,229,131458,1,0
364,160,131795,1,0
276,108,132132,1,0
192,136,132469,1,0
196,188,132806,1,0
169,253,133480,1,0
206,256,133817,1,0
206,256,134154,1,0
268,256,134491,1,0
268,256,134828,1,0
268,256,134997,1,0
268,256,135165,1,0
268,256,135334,1,0
268,256,135502,1,0
168,176,136176,1,0
220,178,136513,1,0
268,178,136851,1,0
268,178,137188,1,0
354,177,137525,1,0
354,177,137693,1,0
354,177,137862,1,0
354,177,138030,1,0
131,158,140558,6,0,B|298:173|485:123|487:123,2,350
131,164,144771,2,0,B|490:158,1,350
60,177,150164,6,0,B|262:218,2,200
107,167,153198,6,0,B|282:141,1,150
180,177,156737,6,0,B|313:256,3,150
159,181,160107,5,0
205,197,160444,1,0
205,197,160613,1,0
205,197,160781,1,0
126,213,164320,1,0
177,208,164657,1,0
240,197,164826,1,0
272,206,165163,1,0
300,224,165500,1,0
297,264,165837,1,0
154,177,167522,1,0
208,175,167860,1,0
220,168,170050,1,0
220,168,170219,1,0
220,168,170387,1,0
220,168,170556,1,0
220,168,171062,1,0
220,168,171230,1,0
263,192,173084,1,0
263,192,173421,1,0
132,196,175106,1,0
132,196,175275,1,0
132,196,175443,1,0
132,196,175612,1,0
289,190,176286,1,0
289,190,176454,1,0
289,190,176623,1,0
238,168,177129,1,0
256,208,177297,1,0
205,160,179151,1,0
205,160,179319,1,0
205,160,179488,1,0
205,160,179825,1,0
205,160,179993,1,0
288,149,180836,1,0
288,149,181173,1,0
288,149,181510,1,0
197,146,181847,1,0
248,176,182184,1,0
248,176,182521,1,0
204,202,182858,1,0
248,176,183533,1,0
248,176,183870,1,0
248,176,184375,1,0
248,176,184544,1,0
248,176,184881,1,0
248,176,185218,1,0
248,176,185723,1,0
248,176,185892,1,0
248,176,186229,1,0
248,176,186566,1,0
248,176,186903,1,0
244,149,188925,5,0
244,149,189262,1,0
244,149,189600,1,0
244,149,189937,1,0
244,149,190274,1,0
244,149,190611,1,0
244,149,190948,1,0
244,149,191285,1,0
244,149,191790,1,0
244,149,191959,1,0
244,149,192296,1,0
244,149,192633,1,0
244,149,192970,1,0
244,149,193307,1,0
317,282,194318,1,0
323,285,194655,1,0
335,277,194992,1,0
342,267,195329,1,0
352,260,195666,1,0
351,243,196004,1,0
341,204,196341,1,0
302,182,196678,1,0
243,168,197015,1,0
205,173,197520,1,0
168,179,197689,1,0
130,247,198026,1,0
137,283,198531,1,0
185,301,198869,1,0
227,279,199037,1,0
255,249,199543,1,0
312,214,199711,1,0
44,184,215384,6,0,B|520:186|363:246,3,400
140,166,222125,6,0,B|241:165,2,50
136,180,223811,2,0,B|272:184|232:184,11,100
80,164,229035,1,0
80,164,229203,1,0
262,203,229540,1,0
262,203,229877,1,0
262,203,230215,1,0
192,192,230552,1,0
192,192,230889,1,0
192,192,231057,1,0
192,192,231226,1,0
192,192,231394,1,0
192,192,231563,1,0
272,183,232237,1,0
272,183,232574,1,0
272,183,232911,1,0
146,180,233080,1,0
146,180,233585,1,0
146,180,233754,1,0
146,180,233922,1,0
146,180,234091,1,0
106,184,236956,6,0,B|471:195,1,350
102,197,239821,6,0,B|480:206,1,350
91,162,242349,2,0,B|448:175,1,350
70,145,244371,2,0,B|412:161,1,300
119,136,245719,2,0,B|322:158,1,200
125,136,247067,2,0,B|268:157,1,100
172,156,248584,6,0,B|236:184,5,50
141,152,250775,2,0,B|216:158,3,50
119,170,252460,2,0,B|332:179,1,200
256,132,253808,2,0,B|256:205,3,50
143,124,255157,2,0,B|236:201,1,100
162,125,257010,2,0,B|149:104|263:177,11,100
145,143,262066,2,0,B|160:144|188:156|185:147|180:174,18,50
