osu file format v14

[General]
AudioFilename: .mp3
AudioLeadIn: 0
PreviewTime: 72423
Countdown: 1
SampleSet: Soft
StackLeniency: 0.7
Mode: 0
LetterboxInBreaks: 1
WidescreenStoryboard: 0

[Editor]
Bookmarks: 30770,38704,68456,72423,88291,92258,100192,112093,127960,145812
DistanceSpacing: 1
BeatDivisor: 4
GridSize: 4
TimelineZoom: 1

[Metadata]
Title:kinjirareta asobi wa
TitleUnicode:禁じられた遊び
Artist:Ali Project
ArtistUnicode:Ali Project
Creator:[Half-Time]
Version:727
Source:
Tags:
BeatmapID:693921
BeatmapSetID:310482

[Difficulty]
HPDrainRate:8
CircleSize:4
OverallDifficulty:7
ApproachRate:9
SliderMultiplier:2
SliderTickRate:1

[Events]
//Background and Video events
//Break Periods
2,30969,38104
2,88490,99592
//Storyboard Layer 0 (Background)
//Storyboard Layer 1 (Fail)
//Storyboard Layer 2 (Pass)
//Storyboard Layer 3 (Foreground)
//Storyboard Sound Samples

[TimingPoints]
8952,495.867768595041,4,1,1,100,1,0
10688,-100,4,1,1,5,0,0
10936,495.867768595041,4,1,1,100,1,0
10936,-100,4,1,1,50,0,0
12919,-100,4,1,1,40,0,0
14902,-66.6666666666667,4,1,1,50,0,1
16762,-66.6666666666667,4,1,1,20,0,1
16886,-66.6666666666667,4,1,1,50,0,1
18745,-66.6666666666667,4,1,1,20,0,1
18869,-66.6666666666667,4,1,1,50,0,1
24696,-66.6666666666667,4,1,1,20,0,1
24820,-66.6666666666667,4,1,1,50,0,1
26679,-66.6666666666667,4,1,1,20,0,1
26803,-66.6666666666667,4,1,1,50,0,1
27175,-66.6666666666667,4,1,1,20,0,1
27795,-66.6666666666667,4,1,1,50,0,1
28291,-66.6666666666667,4,1,1,20,0,1
28787,-66.6666666666667,4,1,1,50,0,1
30770,-66.6666666666667,4,1,1,50,0,0
38704,-100,4,2,1,20,0,0
59778,-200,4,2,1,20,0,0
60026,-100,4,2,1,20,0,0
68456,-66.6666666666667,4,2,1,20,0,0
68580,-100,4,2,1,10,0,0
68704,-100,4,2,1,20,0,0
69944,-200,4,2,1,20,0,0
70192,-100,4,2,1,20,0,0
71431,-66.6666666666667,4,2,1,20,0,0
72423,-66.6666666666667,4,1,1,50,0,1
74283,-66.6666666666667,4,1,1,20,0,1
74407,-66.6666666666667,4,1,1,50,0,1
76266,-66.6666666666667,4,1,1,20,0,1
76390,-66.6666666666667,4,1,1,50,0,1
82216,-66.6666666666667,4,1,1,20,0,1
82340,-66.6666666666667,4,1,1,50,0,1
84200,-66.6666666666667,4,1,1,20,0,1
84324,-66.6666666666667,4,1,1,50,0,1
84696,-66.6666666666667,4,1,1,20,0,1
85316,-66.6666666666667,4,1,1,50,0,1
85812,-66.6666666666667,4,1,1,20,0,1
86307,-66.6666666666667,4,1,1,50,0,1
88291,-66.6666666666667,4,1,1,50,0,0
107878,-200,4,1,1,50,0,0
108002,-66.6666666666667,4,1,1,10,0,0
108126,-66.6666666666667,4,1,1,50,0,0
109117,-100,4,1,1,50,0,0
109985,-100,4,1,1,20,0,0
110109,-66.6666666666667,4,1,1,50,0,0
111473,-66.6666666666667,4,1,1,20,0,0
111597,-66.6666666666667,4,1,1,50,0,0
112093,-100,4,2,1,10,0,0

[HitObjects]
256,192,8952,12,0,10688,0:0:0:0:
96,140,10936,6,8,L|124:208,1,50
208,148,11183,1,0,0:0:0:0:
128,212,11307,1,0,0:0:0:0:
227,211,11431,2,0,L|251:271,1,50
245,257,11679,1,0,0:0:0:0:
245,257,11803,1,0,0:0:0:0:
332,308,11927,2,8,B|356:268|340:212|340:212|408:284,1,150
428,332,12423,1,0,0:0:0:0:
476,244,12547,1,0,0:0:0:0:
424,160,12671,2,0,L|384:96,1,50
397,117,12919,5,0,0:0:0:0:
397,117,13043,1,0,0:0:0:0:
397,117,13167,1,0,0:0:0:0:
397,117,13291,1,0,0:0:0:0:
328,44,13415,2,0,L|396:44,1,50
316,244,13663,2,0,L|376:244,1,50
144,132,13911,2,0,L|204:132,1,50
124,332,14159,2,0,L|184:332,1,50
320,196,14407,5,0,0:0:0:0:
464,60,14531,1,0,0:0:0:0:
248,264,14655,1,0,0:0:0:0:
392,128,14778,1,0,0:0:0:0:
244,112,14902,5,0,0:0:0:0:
244,112,15026,1,0,0:0:0:0:
244,112,15150,2,0,L|172:68,1,75.0000028610231
180,72,15398,5,0,0:0:0:0:
180,72,15522,1,0,0:0:0:0:
180,72,15646,2,0,P|172:124|144:164,1,75.0000028610231
161,143,15894,5,0,0:0:0:0:
161,143,16018,1,0,0:0:0:0:
161,143,16142,2,0,L|88:184,1,75.0000028610231
96,179,16390,2,4,B|128:216|112:256|112:256|164:244|200:272|200:272|172:232,1,225.000008583069
300,312,16886,5,0,0:0:0:0:
300,312,17010,1,0,0:0:0:0:
300,312,17134,2,0,L|360:268,1,75.0000028610231
360,267,17382,5,0,0:0:0:0:
360,267,17506,1,0,0:0:0:0:
360,267,17630,2,0,P|380:312|412:344,1,75.0000028610231
397,331,17878,5,0,0:0:0:0:
397,331,18002,1,0,0:0:0:0:
397,331,18126,2,0,L|472:312,1,75.0000028610231
469,312,18374,2,0,B|440:256|444:180|444:180|440:232|500:248,1,225.000008583069
364,168,18869,5,0,0:0:0:0:
216,180,18993,1,0,0:0:0:0:
364,168,19117,1,0,0:0:0:0:
84,276,19365,5,0,0:0:0:0:
232,288,19489,1,0,0:0:0:0:
84,276,19613,1,0,0:0:0:0:
364,168,19861,5,0,0:0:0:0:
216,180,19985,1,0,0:0:0:0:
364,168,20109,2,0,B|344:220|344:220|332:200,1,75.0000028610231
334,203,20357,2,0,B|333:251|285:283|285:283|345:275|389:307|389:307|373:267,1,225.000008583069
452,140,20853,5,0,0:0:0:0:
452,140,20977,1,0,0:0:0:0:
160,328,21101,5,0,0:0:0:0:
160,328,21225,1,0,0:0:0:0:
288,40,21349,5,0,0:0:0:0:
288,40,21473,1,0,0:0:0:0:
92,188,21597,5,0,0:0:0:0:
92,188,21721,1,0,0:0:0:0:
92,188,21845,2,8,B|104:188|104:188|96:188|96:188|112:188|112:188|100:188|100:188|120:188|120:188|108:188|108:188|128:188|128:188|116:188|116:188|136:188|136:188|124:188|124:188|144:188|144:188|132:188|132:188|152:188|152:188|140:188|140:188|148:188|148:188|164:228|100:72,1,300.000011444092
400,224,22836,5,0,0:0:0:0:
400,224,22960,1,0,0:0:0:0:
252,212,23084,2,0,L|380:224,1,75.0000028610231
92,140,23332,5,0,0:0:0:0:
92,140,23456,1,0,0:0:0:0:
236,100,23580,2,0,L|163:120,1,75.0000028610231
180,272,23828,5,0,0:0:0:0:
180,272,23952,1,0,0:0:0:0:
324,312,24076,2,0,L|244:292,1,75.0000028610231
324,312,24324,2,0,B|452:344|452:344|412:296|444:232,1,225.000008583069
356,128,24820,5,0,0:0:0:0:
356,128,24944,1,0,0:0:0:0:
252,236,25068,2,0,P|276:200|324:160,1,75.0000028610231
122,222,25316,5,0,0:0:0:0:
122,222,25440,1,0,0:0:0:0:
226,330,25564,2,0,P|202:294|154:254,1,75.0000028610231
392,312,25812,5,0,0:0:0:0:
392,312,25935,1,0,0:0:0:0:
492,200,26059,2,0,P|468:236|420:276,1,75.0000028610231
492,200,26307,2,0,B|408:208|360:196|360:196|408:192|448:160,1,225.000008583069
296,132,26803,6,0,L|212:116,1,75.0000028610231
296,132,27051,1,0,0:0:0:0:
340,192,27175,2,0,P|356:220|380:232,8,37.5000014305115
236,304,27795,6,0,L|336:296,1,75.0000028610231
236,304,28043,1,0,0:0:0:0:
236,304,28167,1,0,0:0:0:0:
164,276,28291,2,0,P|180:248|204:236,6,37.5000014305115
76,156,28787,5,0,0:0:0:0:
76,156,28911,1,0,0:0:0:0:
448,328,29035,5,0,0:0:0:0:
448,328,29159,1,0,0:0:0:0:
224,32,29283,5,0,0:0:0:0:
224,32,29407,1,0,0:0:0:0:
288,168,29531,5,0,0:0:0:0:
288,168,29655,1,0,0:0:0:0:
232,308,29778,2,0,P|244:208|388:160,1,225.000008583069
412,288,30274,2,8,P|288:168|332:36,1,300.000011444092
124,192,38704,6,0,L|168:128,1,50
56,180,38952,2,0,L|12:244,1,50
260,228,39200,6,0,L|304:164,1,50
192,208,39448,2,0,L|148:272,1,50
320,304,39696,2,0,P|276:324|224:328,1,100
260,228,40192,2,0,P|304:208|356:204,1,100
416,284,40688,5,0,0:0:0:0:
464,196,40935,1,0,0:0:0:0:
400,120,41183,1,0,0:0:0:0:
312,76,41431,5,8,0:0:0:0:
328,56,41555,1,8,0:0:0:0:
172,120,41803,5,8,0:0:0:0:
192,136,41927,1,8,0:0:0:0:
104,260,42175,1,0,0:0:0:0:
104,260,42423,1,0,0:0:0:0:
188,316,42671,6,0,L|112:264,1,50
188,316,42919,1,0,0:0:0:0:
288,296,43167,2,0,P|264:244|224:220,1,100
229,221,43539,1,0,0:0:0:0:
229,221,43663,6,0,L|229:157,1,50
152,100,43911,2,0,L|208:136,1,50
292,220,44159,2,0,L|292:160,1,50
320,128,44407,2,0,L|372:104,1,50
392,64,44655,6,0,P|380:160|428:216,1,150
360,184,45150,1,0,0:0:0:0:
400,328,45398,5,8,0:0:0:0:
408,304,45522,1,8,0:0:0:0:
236,280,45770,5,8,0:0:0:0:
216,296,45894,1,8,0:0:0:0:
116,280,46142,2,0,P|88:236|92:176,1,100
164,124,46638,5,0,0:0:0:0:
164,124,46886,1,0,0:0:0:0:
248,176,47134,1,0,0:0:0:0:
324,108,47382,2,0,L|268:160,1,50
324,108,47630,1,0,0:0:0:0:
324,108,47878,1,0,0:0:0:0:
420,132,48126,2,0,P|356:124|320:104,1,100
356,204,48621,5,0,0:0:0:0:
264,240,48869,2,0,L|208:268,1,50
172,284,49117,1,0,0:0:0:0:
64,160,49365,5,8,0:0:0:0:
48,180,49489,1,8,0:0:0:0:
196,152,49737,5,8,0:0:0:0:
200,128,49861,1,8,0:0:0:0:
216,28,50109,2,0,L|208:88,1,50
160,72,50357,2,0,L|224:80,1,50
260,68,50605,6,8,P|208:80|172:144,1,100
184,216,51101,1,0,0:0:0:0:
280,192,51349,1,0,0:0:0:0:
168,272,51597,1,0,0:0:0:0:
292,204,51845,1,0,0:0:0:0:
152,328,52093,1,0,0:0:0:0:
304,216,52340,1,0,0:0:0:0:
304,216,52464,1,0,0:0:0:0:
304,216,52588,6,0,P|360:208|392:236,1,100
356,140,53084,1,0,0:0:0:0:
320,48,53332,1,0,0:0:0:0:
224,80,53580,6,0,L|296:56,1,50
224,80,53828,1,0,0:0:0:0:
224,80,53952,1,0,0:0:0:0:
224,180,54076,2,0,L|140:160,1,50
175,168,54324,1,0,0:0:0:0:
175,168,54448,1,0,0:0:0:0:
175,168,54572,2,0,B|132:216|160:280|212:280|272:288|280:212|236:172|292:272|292:272|340:268|352:300|352:300|360:268|428:244|428:244|400:236,1,450
388,192,55812,6,0,L|364:136,1,50
348,100,56059,2,0,L|324:44,1,50
296,92,56307,1,0,0:0:0:0:
264,128,56431,1,0,0:0:0:0:
232,164,56555,2,0,B|192:192|128:168|128:168|140:208|140:208|112:240|56:216|56:216|56:288|104:316|192:316|192:316|228:268|228:268|208:296|260:336,1,550
332,276,58043,6,0,L|288:300,1,50
420,228,58291,2,0,L|376:252,1,50
504,176,58539,2,0,B|444:212|444:212|452:140|360:120|360:120|400:164|384:204|384:204|368:168|344:172|344:172|340:196|336:216|336:216|308:208|276:232,1,450
229,262,59778,2,0,L|252:252,1,25
104,100,60026,2,0,L|156:160,1,50
136,137,60274,1,0,0:0:0:0:
136,137,60398,1,0,0:0:0:0:
136,137,60522,2,0,B|196:160|196:160|192:120|224:104|224:104|256:148|256:148|240:200|288:240|288:240|280:188|272:156|272:156|324:168|368:140|368:140|304:108|268:136,1,550
393,94,62010,6,0,L|344:104,1,50
435,120,62258,2,0,L|393:94,1,50
435,120,62506,2,0,P|467:252|415:320,1,200
438,300,63250,1,0,0:0:0:0:
438,300,63497,2,0,P|344:332|232:304,1,200
247,312,64241,1,0,0:0:0:0:
247,312,64489,2,0,B|204:268|240:228|240:228|220:248|220:248|176:224|176:224|136:280|136:280|132:224|68:212|68:212|112:180|96:124|96:124|152:160|160:104|200:136|200:136|184:112,1,550
244,116,65977,1,0,0:0:0:0:
292,104,66101,1,0,0:0:0:0:
340,92,66225,2,0,L|424:64,1,50
387,76,66473,6,0,B|360:152|392:180|392:180|376:208|392:232|392:232|336:204,1,200
361,216,67216,1,0,0:0:0:0:
361,216,67464,2,0,P|312:276|176:296,1,200
196,301,68208,1,0,0:0:0:0:
196,301,68456,6,8,L|152:216,1,75.0000028610231
264,228,68704,5,0,0:0:0:0:
264,228,68828,1,0,0:0:0:0:
396,308,68952,5,0,0:0:0:0:
396,308,69076,1,0,0:0:0:0:
352,116,69200,5,0,0:0:0:0:
352,116,69324,1,0,0:0:0:0:
260,352,69448,5,0,0:0:0:0:
260,352,69572,1,0,0:0:0:0:
196,120,69696,5,0,0:0:0:0:
196,120,69820,1,0,0:0:0:0:
88,272,69944,6,0,L|116:240,1,25
106,317,70192,2,0,P|94:281|74:257,1,50
52,368,70440,2,0,B|96:304|168:296|168:296|200:244|268:240,1,250
312,156,71183,1,0,0:0:0:0:
312,156,71307,1,0,0:0:0:0:
312,156,71431,2,0,B|248:120|204:156|204:156|176:104|176:104|180:208|180:208|208:224|136:184|120:256|120:256|108:176|44:156,1,450.000017166138
256,308,72423,5,0,0:0:0:0:
404,280,72547,1,0,0:0:0:0:
296,364,72671,2,0,L|348:284,1,75.0000028610231
40,168,72919,5,0,0:0:0:0:
168,248,73043,1,0,0:0:0:0:
96,128,73167,2,0,L|112:224,1,75.0000028610231
312,128,73415,5,0,0:0:0:0:
192,220,73539,1,0,0:0:0:0:
332,196,73663,2,0,L|228:148,1,75.0000028610231
296,272,73911,2,0,B|320:172|424:136|424:136|404:176,1,225.000008583069
248,44,74407,5,0,0:0:0:0:
104,84,74531,1,0,0:0:0:0:
236,108,74655,2,0,L|156:56,1,75.0000028610231
84,232,74902,5,0,0:0:0:0:
224,292,75026,1,0,0:0:0:0:
132,184,75150,2,0,L|156:272,1,75.0000028610231
432,304,75398,5,0,0:0:0:0:
292,244,75522,1,0,0:0:0:0:
388,352,75646,2,0,L|352:260,1,75.0000028610231
468,360,75894,2,0,B|396:344|308:356|308:356|328:368|256:320,1,225.000008583069
196,100,76390,5,0,0:0:0:0:
288,136,76514,1,0,0:0:0:0:
272,236,76638,1,0,0:0:0:0:
432,80,76886,5,0,0:0:0:0:
288,136,77010,1,0,0:0:0:0:
260,284,77134,1,0,0:0:0:0:
472,40,77382,5,0,0:0:0:0:
288,136,77506,1,0,0:0:0:0:
368,336,77630,2,0,L|292:336,1,75.0000028610231
220,336,77878,2,0,B|304:364|320:288|320:288|272:236|272:236|308:240|308:240|316:244,1,225.000008583069
88,284,78374,5,0,0:0:0:0:
88,284,78497,1,0,0:0:0:0:
452,204,78621,5,0,0:0:0:0:
452,204,78745,1,0,0:0:0:0:
120,64,78869,5,0,0:0:0:0:
120,64,78993,1,0,0:0:0:0:
444,336,79117,5,0,0:0:0:0:
444,336,79241,1,0,0:0:0:0:
444,336,79365,2,8,B|432:336|432:336|440:336|440:336|424:336|424:336|436:336|436:336|416:336|416:336|428:336|428:336|408:336|408:336|420:336|420:336|400:336|400:336|412:336|412:336|392:336|392:336|404:336|404:336|384:336|384:336|396:336|396:336|388:336|388:336|372:376|436:220,1,300.000011444092
224,184,80357,5,0,0:0:0:0:
368,136,80481,1,0,0:0:0:0:
224,184,80605,2,0,L|360:140,1,75.0000028610231
172,312,80853,5,0,0:0:0:0:
320,344,80977,1,0,0:0:0:0:
172,312,81101,2,0,L|272:332,1,75.0000028610231
80,80,81349,5,0,0:0:0:0:
56,228,81473,1,0,0:0:0:0:
80,80,81597,2,0,L|64:176,1,75.0000028610231
80,80,81845,2,0,B|160:28|232:80|232:80|240:52|240:52|224:108|192:128,1,225.000008583069
304,212,82340,5,0,0:0:0:0:
428,296,82464,1,0,0:0:0:0:
304,212,82588,2,0,L|400:276,1,75.0000028610231
80,176,82836,5,0,0:0:0:0:
212,108,82960,1,0,0:0:0:0:
80,176,83084,2,0,L|168:132,1,75.0000028610231
476,204,83332,5,0,0:0:0:0:
340,268,83456,1,0,0:0:0:0:
476,204,83580,2,0,L|392:244,1,75.0000028610231
476,204,83828,2,0,B|412:176|400:112|432:60|432:60|368:104,1,225.000008583069
268,180,84324,6,0,L|188:224,1,75.0000028610231
268,180,84572,1,0,0:0:0:0:
344,184,84696,2,0,P|344:152|320:124,8,37.5000014305115
108,80,85316,6,0,L|172:117,1,75.0000028610231
108,80,85564,1,0,0:0:0:0:
108,80,85688,1,0,0:0:0:0:
172,40,85812,2,0,P|144:24|108:30,6,37.5000014305115
228,328,86307,5,0,0:0:0:0:
228,328,86431,1,0,0:0:0:0:
384,120,86555,5,0,0:0:0:0:
384,120,86679,1,0,0:0:0:0:
44,316,86803,5,0,0:0:0:0:
44,316,86927,1,0,0:0:0:0:
432,236,87051,5,0,0:0:0:0:
432,236,87175,1,0,0:0:0:0:
472,300,87299,2,0,L|348:104,1,225.000008583069
348,36,87795,2,8,B|376:112|324:196|272:148|272:148|332:204|332:204|288:200,1,300.000011444092
196,100,100192,5,0,0:0:0:0:
112,224,100316,1,0,0:0:0:0:
204,88,100440,1,0,0:0:0:0:
120,248,100564,1,0,0:0:0:0:
188,112,100688,5,0,0:0:0:0:
336,80,100812,1,0,0:0:0:0:
180,124,100935,1,0,0:0:0:0:
372,104,101059,1,0,0:0:0:0:
260,156,101183,5,0,0:0:0:0:
408,128,101307,1,0,0:0:0:0:
428,276,101431,1,0,0:0:0:0:
280,304,101555,1,0,0:0:0:0:
208,340,101679,6,0,P|168:308|100:296,1,75.0000028610231
284,236,101927,2,0,P|272:176|252:152,1,75.0000028610231
388,252,102175,2,0,P|432:224|456:176,1,75.0000028610231
380,340,102423,2,0,P|420:352|464:344,1,75.0000028610231
448,112,102671,5,0,0:0:0:0:
448,112,102919,2,8,L|388:44,1,75.0000028610231
168,100,103167,5,0,0:0:0:0:
168,100,103415,2,8,L|244:148,1,75.0000028610231
80,328,103663,5,0,0:0:0:0:
80,328,103911,1,0,0:0:0:0:
80,328,104035,1,0,0:0:0:0:
80,328,104159,6,0,L|176:312,1,75.0000028610231
296,260,104407,2,0,L|220:240,1,75.0000028610231
80,188,104655,2,0,L|168:168,1,75.0000028610231
292,120,104902,2,0,L|221:94,1,75.0000028610231
468,52,105150,6,0,L|403:90,1,75.0000028610231
240,176,105398,2,0,L|308:208,1,75.0000028610231
479,187,105646,2,0,L|416:228,1,75.0000028610231
252,300,105894,2,0,L|320:332,1,75.0000028610231
92,112,106142,5,0,0:0:0:0:
92,112,106390,2,0,L|176:88,1,75.0000028610231
184,240,106638,5,0,0:0:0:0:
308,160,106762,1,0,0:0:0:0:
180,256,106886,1,0,0:0:0:0:
328,152,107010,1,0,0:0:0:0:
352,144,107134,5,0,0:0:0:0:
376,136,107258,1,0,0:0:0:0:
176,268,107382,1,0,0:0:0:0:
172,280,107506,1,0,0:0:0:0:
168,292,107630,5,0,0:0:0:0:
168,292,107754,1,0,0:0:0:0:
164,304,107878,2,0,L|152:348,1,25
356,324,108126,2,0,P|432:280|440:224,1,150.000005722046
440,224,108621,2,0,L|440:148,1,75.0000028610231
440,149,108869,1,0,0:0:0:0:
440,149,108993,1,0,0:0:0:0:
440,149,109117,2,0,B|396:144|380:108|380:108|368:148|332:160|332:160|360:176|352:208|352:208|296:220|328:248|328:248|268:196|244:288,1,350
52,252,110109,6,0,B|104:256|100:216|100:216|144:204|152:136|152:136|120:160,1,150.000005722046
147,158,110605,2,0,L|179:78,1,75.0000028610231
174,88,110853,1,0,0:0:0:0:
174,88,110977,1,0,0:0:0:0:
174,88,111101,2,0,B|288:112|288:112|256:144|256:144|328:72,1,225.000008583069
301,98,111597,2,0,P|352:76|472:124,1,150.000005722046
400,276,112093,6,0,L|328:260,1,50
288,188,112340,2,0,L|336:198,1,50
432,168,112588,2,0,L|360:152,1,50
320,80,112835,2,0,L|368:90,1,50
168,68,113084,2,0,P|188:124|180:204,1,100
288,188,113580,2,0,P|268:132|276:52,1,100
364,120,114076,1,0,0:0:0:0:
388,216,114324,1,0,0:0:0:0:
316,288,114572,1,0,0:0:0:0:
168,332,114820,5,0,0:0:0:0:
192,344,114944,1,0,0:0:0:0:
192,184,115192,5,0,0:0:0:0:
168,184,115316,1,0,0:0:0:0:
332,68,115564,1,0,0:0:0:0:
332,68,115812,1,0,0:0:0:0:
384,152,116059,6,0,L|352:100,1,50
384,152,116307,1,0,0:0:0:0:
332,236,116555,2,0,P|384:260|400:312,1,100
399,297,116927,1,0,0:0:0:0:
324,336,117051,2,0,L|384:308,1,50
264,284,117299,2,0,L|316:308,1,50
212,344,117547,2,0,L|272:316,1,50
152,292,117795,2,0,L|204:316,1,50
76,320,118043,6,0,B|140:264|136:208|136:208|148:240,1,150
92,232,118539,1,0,0:0:0:0:
244,104,118787,5,0,0:0:0:0:
232,84,118911,1,0,0:0:0:0:
396,176,119159,5,0,0:0:0:0:
376,188,119283,1,0,0:0:0:0:
292,312,119531,2,0,P|344:340|388:328,1,100
132,292,120026,5,0,0:0:0:0:
132,292,120274,1,0,0:0:0:0:
112,192,120522,1,0,0:0:0:0:
156,100,120770,2,0,L|128:164,1,50
156,100,121018,1,0,0:0:0:0:
252,132,121266,1,0,0:0:0:0:
344,160,121514,1,0,0:0:0:0:
372,256,121762,6,0,L|356:204,1,50
372,256,122010,1,0,0:0:0:0:
372,256,122259,1,0,0:0:0:0:
296,320,122506,2,0,P|336:272|392:256,1,100
372,256,122878,5,0,0:0:0:0:
372,256,123002,1,0,0:0:0:0:
296,144,123126,2,0,L|228:184,1,50
252,169,123374,5,0,0:0:0:0:
88,60,123497,2,8,P|152:64|204:120,1,100
116,268,123993,6,0,L|160:232,1,50
192,204,124241,1,0,0:0:0:0:
