osu file format v5

[General]
AudioFilename: code_geass_r2_-_waga_routashi_aku_no_hana.mp3
AudioLeadIn: 0
PreviewTime: -1
Countdown: 1
SampleSet: Normal
StackLeniency: 0.7
Mode: 0
LetterboxInBreaks: 1

[Metadata]
Title:Waga Routashi Aku no Hana
Artist:Ali Project
Creator:Lizbeth
Version:Insane
Source:
Tags:

[Difficulty]
HPDrainRate:7
CircleSize:6
OverallDifficulty:7
SliderMultiplier:1.6
SliderTickRate:2

[Events]
//Background and Video events
0,0,"codegeassic0.jpg"
//Break Periods
2,66691,70668
2,112348,114789
2,158537,160438
//Storyboard Layer 0 (Background)
//Storyboard Layer 1 (Failing)
//Storyboard Layer 2 (Passing)
//Storyboard Layer 3 (Foreground)
//Storyboard Sound Samples
//Background Colour Transformations
3,100,0,64,128

[TimingPoints]
496,461.538461538462,4,1,0,100,1

[Colours]
Combo1 : 62,158,255
Combo2 : 136,0,136
Combo3 : 112,223,0
Combo4 : 255,91,173

[HitObjects]
419,318,7880,1,0
365,286,8111,1,0
310,318,8342,1,0
365,286,8572,1,0
422,256,8803,1,0
307,201,9265,6,8,B|256:179|226:209,1,80
179,241,9726,2,2,B|52:271|7:131|44:44|131:36,1,320
170,56,10880,1,0
231,78,11111,2,2,B|228:141|271:167,1,80
311,182,11572,1,0
375,189,11803,2,2,B|419:135|463:175,1,80
487,210,12265,1,0
426,229,12496,1,0
488,211,12726,1,0
425,230,12957,1,0
391,284,13188,1,0
391,284,13419,2,2,B|320:346|217:324,1,160
205,322,14053,2,0,B|177:316,4,26.6666666666667,2|2|0|0|0
107,82,15265,6,2,B|168:138,1,80
190,160,15611,1,0
195,191,15726,2,2,B|129:259,1,80
131,280,16072,1,0
155,302,16188,2,2,B|219:363,1,80
246,352,16534,1,0
271,333,16649,2,2,B|271:284|317:258,1,80
338,256,16996,1,0
370,256,17111,6,2,B|437:208,1,80
446,175,17457,1,0
428,155,17572,2,2,B|350:211,1,80
340,179,17919,1,0
349,149,18034,2,8,B|419:99,2,80
287,138,18726,2,2,B|365:78,1,80
392,86,19188,5,0
396,117,19303,1,0
424,136,19419,1,0
482,110,19649,1,0
474,174,19880,1,0
420,208,20111,2,2,B|383:242|397:295,3,80
369,339,21034,5,0
343,358,21149,1,0
313,350,21265,1,0
304,287,21496,1,0
252,324,21726,1,0
241,262,21957,1,0
211,254,22072,1,0
185,273,22188,1,0
84,351,22649,5,0
25,329,22880,1,0
86,350,23111,1,0
26,330,23342,1,0
71,283,23572,1,0
100,263,23688,1,0
116,239,23803,1,0
70,195,24034,1,0
102,140,24265,1,0
164,157,24496,2,2,B|217:234|309:168,1,160
358,206,25188,2,2,B|331:235|270:246,1,80
226,257,25649,1,2
109,333,26572,5,0
142,342,26688,1,0
166,322,26803,1,0
114,285,27034,1,0
113,284,27265,1,0
115,286,27496,2,0,B|246:177,1,160,2|0
240,184,28188,1,0
301,164,28419,5,0
292,133,28534,1,0
313,109,28649,1,0
359,64,28880,1,8
404,111,29111,1,8
445,161,29342,1,0
438,192,29457,1,0
461,215,29572,1,0
386,319,30034,6,0,B|300:318,1,80
243,329,30496,1,0
218,356,30611,1,0
201,335,30726,2,0,B|202:251,1,80
198,191,31188,1,0
263,189,31419,1,0
300,137,31649,1,0
333,193,31880,1,0
314,218,31996,1,0
285,232,32111,1,0
229,262,32342,2,4,B|283:363|415:344|468:229|441:134|379:109,1,400
445,102,33726,6,2,B|485:152|460:189,3,80
346,135,34880,2,2,B|307:106|323:51,2,80
316,192,35572,1,0
362,236,35803,1,0
323,287,36034,1,0
385,305,36265,2,2,B|473:246|398:170,1,160
345,143,36957,1,0
312,198,37188,1,0
361,240,37419,1,0
319,289,37649,2,8,B|265:297|247:233,2,80
379,314,38342,2,0,B|452:267|436:172,1,160
380,147,39034,5,0
334,102,39265,1,0
306,115,39380,1,0
283,175,39611,1,0
303,201,39726,1,0
285,140,39957,1,0
357,162,40188,2,2,B|403:206|416:254|364:303,1,160
239,296,41111,5,0
223,323,41226,1,0
163,357,41457,1,0
136,358,41572,1,0
198,340,41803,1,0
196,275,42034,2,2,B|131:223|186:143|237:162,1,160
271,114,42726,5,0
289,141,42842,1,0
317,150,42957,1,0
360,199,43188,2,0,B|395:238|440:207,1,80
431,277,43649,2,2,B|347:326|283:301|240:242|246:197,1,240
54,302,45034,6,2,B|93:377|178:348|214:331,1,160
216,280,45726,1,8
250,226,45957,1,8
282,171,46188,1,8
418,307,46880,2,2,B|352:277|334:226|350:154,1,160
283,171,47572,1,8
246,224,47803,1,8
216,280,48034,1,8
275,120,48495,5,2
275,120,48726,1,2
404,120,49188,1,8
340,121,49419,1,8
213,120,49880,5,2
248,174,50111,1,2
218,231,50342,1,8
246,174,50572,1,8
182,173,50803,1,2
148,227,51034,1,2
182,173,51265,1,8
148,227,51495,1,8
174,286,51726,1,8
234,173,52188,5,0
224,204,52303,1,0
241,266,52534,1,0
264,289,52649,1,0
237,232,52880,1,0
295,205,53111,2,2,B|317:154|269:104|199:116,1,160
147,150,53803,5,0
115,152,53919,1,0
102,184,54034,1,0
149,228,54265,1,0
133,257,54380,1,0
102,263,54495,1,0
42,244,54726,2,4,B|54:336|121:378|194:359|235:313,1,240
344,316,55880,5,0
370,339,55995,1,0
433,343,56226,1,0
458,323,56342,1,0
397,342,56572,1,0
419,282,56803,2,2,B|330:261|324:166,1,160
299,131,57495,5,0
274,112,57611,1,0
243,114,57726,1,0
182,134,57957,1,0
118,144,58188,1,0
142,84,58419,2,4,B|163:25|233:-14|331:26|357:81,1,240,4|4
478,344,59803,6,2,B|308:343,1,160
254,344,60495,1,8
192,344,60726,1,8
255,344,60957,2,2,B|438:345,1,160
416,281,61649,1,8
374,234,61880,1,0
416,283,62111,1,8
376,234,62342,1,0
330,191,62572,1,8
282,150,62803,2,0,B|185:148,1,80
225,88,63265,6,0,B|181:61|136:111,1,80
143,162,63726,2,0,B|100:181|64:142,2,80
203,139,64419,2,2,B|249:234|322:101|395:98|417:184,1,240
423,221,65342,6,8,B|478:235|478:294,1,80
448,331,65803,2,8,B|408:299|360:338,1,80
349,249,66265,2,8,B|307:283|254:261,1,80
138,342,71572,5,0
169,355,71688,1,0
202,346,71803,1,0
261,321,72034,1,2
311,281,72265,1,0
337,261,72380,1,0
348,230,72495,2,0,B|372:174|376:126|353:79|339:70,1,160
222,46,73419,5,0
191,35,73534,1,0
164,49,73649,1,0
112,86,73880,1,2
61,125,74111,1,0
44,152,74226,1,0
42,185,74342,2,0,B|71:271|165:297,1,160
288,349,75265,5,0
330,301,75495,1,0
273,274,75726,1,0
273,274,75957,1,0
314,225,76188,2,8,B|375:160,1,80
321,126,76649,2,8,B|252:199,1,80
217,144,77111,2,8,B|288:70,1,80
222,48,77572,2,8,B|159:115,1,80
112,138,78034,5,0
94,165,78149,1,0
117,187,78265,1,0
151,242,78495,1,0
100,280,78726,1,0
149,322,78957,1,0
91,348,79188,1,0
150,323,79419,2,2,B|244:338|295:261,1,160
256,192,80111,12,0,81265
352,320,81726,6,0,B|260:320,1,80
240,320,82072,1,0
208,320,82188,1,0
176,320,82303,1,0
144,320,82419,2,0,B|145:234,1,80
141,174,82880,5,0
174,178,82996,1,0
197,158,83111,1,0
234,106,83342,1,0
272,54,83572,2,2,B|333:29|403:73|403:127,2,160
293,115,84726,2,8,B|293:207,3,80
321,253,85649,1,0
289,257,85765,1,0
258,253,85880,1,0
139,299,86342,6,8,B|82:228,1,80
57,233,86688,1,0
47,204,86803,2,8,B|115:148,1,80
131,129,87149,1,0
154,100,87265,2,8,B|96:35,1,80
130,27,87611,1,0
162,27,87726,2,8,B|221:94,1,80
221,121,88072,1,0
223,152,88188,6,2,B|281:221,2,80
255,148,88765,1,0
283,133,88880,2,8,B|357:85,1,80
369,115,89226,1,0
351,144,89342,2,10,B|477:281,1,160
472,320,90034,5,2
408,320,90265,1,0
376,320,90380,1,0
344,320,90496,1,0
280,320,90726,1,0
344,320,90957,2,2,B|414:287|440:215|436:185,1,160
375,185,91649,2,2,B|379:229|333:263,1,80
302,305,92111,5,0
275,328,92226,1,0
247,332,92342,1,0
184,338,92572,1,0
183,337,92803,1,0
125,312,93034,1,0
103,291,93149,1,0
92,259,93265,1,0
55,137,93726,6,2,B|54:84|107:70,1,80,0|0
93,72,94188,1,8
155,89,94419,1,8
208,126,94649,2,2,B|209:176|267:195,1,80
251,189,95111,1,8
314,176,95342,1,8
372,204,95572,2,2,B|419:227|419:273,1,80
360,291,96034,2,0,B|248:333|134:274|88:165,1,320
51,325,97419,5,8
115,325,97649,1,8
180,324,97880,2,0,B|180:228,1,80
245,244,98342,1,8
309,244,98572,1,8
374,244,98803,2,0,B|475:242,1,80
459,179,99265,1,0
459,147,99380,1,0
459,116,99496,2,0,B|458:31,1,80
330,38,100188,1,0
330,73,100303,1,0
330,103,100419,2,0,B|237:102,1,80
186,106,100880,1,0
158,122,100996,1,0
146,152,101111,2,0,B|10:205|60:336|175:378|289:370|321:278|301:214|262:205,1,480
225,84,102957,5,4
349,52,103419,1,2
409,76,103649,1,2
447,128,103880,1,2
472,188,104111,1,2
476,252,104342,2,2,B|473:309|410:323,2,80
470,189,105034,5,0
444,131,105265,1,0
412,76,105496,2,2,B|370:43|325:71,1,80
286,103,105957,1,0
240,148,106188,1,0
180,169,106419,2,2,B|158:208|107:211,1,80
52,219,106880,1,0
43,283,107111,1,0
95,322,107342,2,2,B|135:360|174:335,2,80
43,285,108034,1,0
53,222,108265,2,2,B|72:170|120:168,2,80
85,278,108957,5,0
133,321,109188,1,0
198,335,109419,2,8,B|289:335,1,80
344,336,109880,1,0
408,336,110111,1,0
408,273,110342,2,8,B|408:187,1,80
357,231,110803,1,0
305,195,111034,2,2,B|306:281,1,80
269,273,111380,1,2
244,271,111496,2,2,B|245:181,1,80
209,192,111842,1,2
182,192,111957,2,2,B|181:292,1,80
285,326,115880,5,0
258,309,115996,1,0
224,253,116226,1,0
229,225,116342,1,0
241,288,116572,1,0
286,242,116803,2,2,B|344:192|336:144|263:110,1,160
328,80,117496,1,0
378,121,117726,1,0
395,148,117842,1,0
402,213,118072,1,0
393,244,118188,1,0
401,181,118419,1,0
461,159,118649,2,2,B|429:264|513:314,1,160
345,244,119572,5,0
330,273,119688,1,0
285,317,119919,1,0
254,324,120034,1,0
313,298,120265,1,0
271,251,120496,2,2,B|174:274|121:185,1,160
72,176,121188,1,2
57,205,121303,1,2
61,237,121419,1,2
71,301,121649,1,2
133,319,121880,1,2
133,256,122111,2,2,B|125:145|256:191|192:39,1,240
350,88,123496,6,0,B|298:79|261:131,2,80
409,116,124188,1,0
381,174,124419,1,0
331,214,124649,2,2,B|407:240|327:304|446:313,1,160
462,253,125342,2,0,B|492:224|474:165,2,80,0|0|0
423,300,126034,1,2
463,250,126265,1,2
424,301,126496,1,2
457,178,126957,5,0
459,178,127188,2,2,B|398:124|328:147|303:177,1,160
256,207,127880,2,2,B|222:274|174:292|110:253,1,160
86,213,128572,1,0
50,161,128803,1,0
86,214,129034,1,0
69,342,129496,2,8,B|102:363|167:331,3,80
274,349,130649,5,0
249,325,130765,1,0
252,266,130996,1,0
279,246,131111,1,0
238,295,131342,1,0
174,297,131572,2,4,B|174:118,1,160
215,88,132265,5,0
267,127,132496,1,0
286,154,132611,1,0
299,216,132842,1,0
282,244,132957,1,0
301,183,133188,1,0
366,183,133419,2,4,B|437:86|491:57,1,160
482,195,134342,5,0
482,227,134457,1,0
484,294,134688,1,0
483,324,134803,1,0
482,261,135034,1,0
418,259,135265,2,0,B|398:165|341:118|282:106|238:145,1,240
226,153,136072,1,0
205,177,136188,1,0
161,223,136419,1,0
118,270,136649,1,0
55,276,136880,2,2,B|113:363|212:352,1,160
251,106,138265,5,2
126,133,138726,1,0
194,139,138957,1,0
251,110,139188,1,0
311,86,139419,2,0,B|282:161|346:239,1,160
310,290,140111,5,2
421,227,140572,1,0
365,258,140803,1,0
310,291,141034,1,0
246,299,141265,2,0,B|211:214|135:172,1,160
256,192,141957,12,0,144957
476,36,145419,5,0
349,37,145880,1,0
318,37,145996,1,0
286,37,146111,1,0
351,41,146342,2,2,B|352:212,1,160
353,329,147265,2,8,B|354:240,1,80
302,287,147726,1,8
175,286,148188,1,0
240,288,148419,1,0
303,288,148649,1,0
176,283,149111,2,2,B|123:249|104:203|174:131,1,160
247,37,150034,5,8
279,43,150149,1,0
306,61,150265,1,8
300,125,150496,1,8
325,146,150611,1,0
358,151,150726,2,0,B|416:159|414:202,1,80
411,229,151072,1,0
383,246,151188,2,0,B|356:288|389:325,1,80
261,350,151880,5,8
229,353,151996,1,0
210,330,152111,1,8
247,278,152342,1,8
221,260,152457,1,0
191,268,152572,2,0,B|138:245|154:201,1,80
165,173,152919,1,0
182,152,153034,2,0,B|181:107|117:101,1,80
237,34,153726,5,0
300,49,153957,1,0
329,107,154188,1,0
312,169,154419,1,2
284,197,154534,1,2
293,226,154649,1,2
335,275,154880,1,0
397,295,155111,1,0
336,277,155342,1,0
398,297,155572,1,0
458,275,155803,5,2
473,213,156034,1,2
457,151,156265,1,0
409,110,156496,1,2
383,128,156611,1,2
352,120,156726,1,2
309,73,156957,1,0
258,35,157188,1,0
207,74,157419,1,0
259,36,157649,1,0
262,101,157880,2,4,B|225:175|298:208|256:264,1,160
118,201,161342,5,0
90,218,161457,1,0
76,246,161572,1,0
139,261,161803,1,0
180,211,162034,2,2,B|214:279|311:230|311:284,2,160
240,187,163188,2,8,B|240:97,3,80
272,52,164111,1,0
240,48,164226,1,0
209,53,164342,1,0
243,177,164803,6,2,B|268:124|209:115,1,80
186,110,165149,1,0
158,124,165265,2,2,B|152:165|93:168,1,80
66,160,165611,1,0
48,185,165726,2,2,B|3:231|23:277,1,80
25,288,166072,1,0
42,316,166188,2,2,B|72:363|122:333,1,80
127,312,166534,1,0
156,297,166649,2,8,B|166:259|231:264,2,80
179,321,167226,1,0
206,339,167342,2,2,B|245:361|283:329,1,80
339,305,167803,2,2,B|238:254|283:159|284:152,1,160,0|0
311,118,168496,5,0
375,123,168726,1,0
377,155,168842,1,0
402,177,168957,1,0
373,120,169188,1,0
405,176,169419,2,2,B|486:174|501:71|475:44,1,160
421,54,170111,2,2,B|375:75|379:132,1,80
335,164,170572,5,0
321,196,170688,1,0
299,215,170803,1,0
333,161,171034,1,0
299,215,171265,1,0
240,191,171496,1,0
210,203,171611,1,2
200,233,171726,1,0
72,216,172188,6,2,B|71:163|124:149,1,80
147,99,172649,1,0
201,65,172880,1,0
260,41,173111,2,2,B|261:91|319:110,1,80
354,143,173572,1,0
334,204,173803,1,0
308,263,174034,2,0,B|301:311|355:332,1,80,0|2
407,345,174496,2,2,B|492:295|515:175|462:40|459:40,1,320
338,65,175880,5,8
302,118,176111,1,8
238,119,176342,2,0,B|238:23,1,80
174,43,176803,1,8
125,84,177034,1,8
116,148,177265,2,0,B|217:146,1,80
208,208,177726,1,0
208,243,177842,1,0
208,275,177957,2,0,B|208:356,1,80
336,344,178649,1,0
336,312,178765,1,0
336,280,178880,2,0,B|336:197,1,80
271,199,179342,1,0
250,224,179457,1,0
229,248,179572,2,0,B|199:355|110:364|-10:293|17:127|141:92|204:112|233:144,1,480,0|0
285,258,181419,5,0
412,239,181880,1,0
355,269,182111,1,0
412,239,182342,1,0
447,186,182572,1,0
430,125,182803,2,4,B|377:138|364:196,2,80
