osu file format v5

[General]
AudioFilename: code_geass_r2_-_waga_routashi_aku_no_hana.mp3
AudioLeadIn: 0
PreviewTime: -1
Countdown: 1
SampleSet: Normal
StackLeniency: 0.7
Mode: 0
LetterboxInBreaks: 1

[Metadata]
Title:Waga Routashi Aku no Hana
Artist:Ali Project
Creator:Lizbeth
Version:Easy
Source:
Tags:

[Difficulty]
HPDrainRate:2
CircleSize:4
OverallDifficulty:4
SliderMultiplier:1
SliderTickRate:2

[Events]
//Background and Video events
0,0,"codegeassic0.jpg"
//Break Periods
2,32993,39781
2,104993,114550
//Storyboard Layer 0 (Background)
//Storyboard Layer 1 (Failing)
//Storyboard Layer 2 (Passing)
//Storyboard Layer 3 (Foreground)
//Storyboard Sound Samples
//Background Colour Transformations
3,100,0,64,128

[TimingPoints]
496,461.538461538462,4,1,0,100,1

[Colours]
Combo1 : 62,158,255
Combo2 : 128,0,128
Combo3 : 112,223,0
Combo4 : 255,91,173

[HitObjects]
60,64,7880,1,0
167,182,8803,1,0
310,253,9726,2,2,B|405:232|416:192|425:140|405:103,1,200
260,53,11572,5,0
100,63,12495,1,0
96,223,13419,2,2,B|95:288|150:336|220:321|246:276,1,200
380,219,15265,5,2
356,60,16188,2,2,B|461:72|492:198,1,200
362,287,18034,2,2,B|363:168|257:125,1,200
169,257,19880,2,4,B|114:252|86:187,2,100
97,113,21726,5,0
238,37,22649,2,6,B|237:248,1,200,4|4
397,238,24496,2,2,B|399:26,1,200
311,171,26342,6,2,B|148:44,1,200
14,127,28188,1,4
132,234,29111,2,4,B|293:360,1,200
419,263,30957,5,0
344,121,31880,2,8,B|432:189,2,100
84,52,41111,5,0
243,50,42034,2,2,B|281:93|253:182|153:181,1,200
131,257,43419,1,4
201,294,43880,2,2,B|208:234|261:200|312:181|349:232,1,200
435,95,45726,6,8,B|434:301,1,200
368,149,47572,2,8,B|366:352,1,200
285,347,48957,1,8
285,347,49419,1,8
286,348,49880,1,8
286,349,50342,1,8
197,215,51265,1,4
244,62,52188,5,2
244,221,53111,2,4,B|305:222|332:279|443:250,1,200
466,94,54957,2,2,B|415:26|338:78|275:40,1,200,2|2
200,35,56342,1,0
136,83,56803,2,2,B|59:133|103:223|64:271,1,200
145,300,58188,1,0
147,303,58419,2,4,B|207:220|291:178|361:223,1,250
455,93,60496,6,2,B|246:93,1,200
97,63,62342,5,2
97,142,62803,1,8
177,142,63265,5,4
178,221,63726,1,8
257,224,64188,5,4
251,303,64649,2,8,B|47:303,1,200
56,142,66496,1,8
110,200,66957,6,0,B|159:96|283:165,1,200
437,142,68803,2,8,B|460:73|392:56,2,100
427,221,70188,1,0
420,300,70649,2,2,B|324:256|243:317|215:295,1,200,2|2
149,315,72034,2,2,B|84:270|167:192|84:124,1,200
135,64,73419,5,2
209,35,73880,5,8
281,69,74342,5,2
355,40,74803,5,8
410,97,75265,6,8,B|460:137|449:199,1,100
444,263,76188,1,8
284,263,77111,2,8,B|391:227|327:123|405:103,1,200
233,83,78957,1,0
211,156,79419,2,2,B|92:188|38:84,1,200
115,62,80803,1,2
194,53,81265,1,2
273,50,81726,6,0,B|480:51,1,200
438,207,83572,6,2,B|383:320|271:278,2,200
357,68,86342,6,2,B|341:138|232:203|195:146,2,200
197,82,89111,6,2,B|114:48|69:110|72:191,1,200
192,289,90957,5,0
351,289,91880,1,8
350,288,92342,1,8
353,290,92803,1,8
423,146,93726,5,0
297,46,94649,1,0
256,192,95572,12,0,96957
326,297,97419,6,10,B|287:317|226:292,2,100
388,247,98803,2,10,B|356:217|289:239,2,100
388,247,100188,1,2
388,247,100649,1,2
430,179,101111,2,2,B|431:108|352:46|282:71,1,200
224,32,102496,5,8
225,111,102957,1,8
144,111,103419,1,8
141,190,103880,1,8
60,191,104342,1,8
61,270,104803,1,8
90,42,115880,6,4,B|89:150,2,100
249,46,117726,2,2,B|248:155,2,100
408,47,119572,2,4,B|408:146|408:256,1,200
263,178,121419,6,8,B|228:228|242:276,2,100
198,324,123265,5,0
118,312,123726,1,0
99,234,124188,1,0
146,169,124649,2,2,B|33:155|150:79|13:32,1,200
209,135,126957,5,0
221,214,127419,2,2,B|275:274|345:251|398:188,1,200
321,157,128803,2,2,B|355:90|403:72|497:118,1,200
468,273,130649,5,2
315,320,131572,2,2,B|108:320,1,200
38,179,133419,2,2,B|130:178|254:180,1,200
350,65,135265,6,2,B|232:12|156:107,1,200
126,248,137111,6,2,B|169:223|173:163,2,100,2|2|2
262,331,138957,2,8,B|298:289|359:293,2,100
305,177,140803,2,10,B|361:174|383:115,2,100
256,192,142188,12,8,144957
165,84,145880,5,2
242,104,146342,1,2
400,82,147265,5,8
440,236,148188,1,2
387,295,148649,1,2
309,273,149111,1,2
163,207,150034,6,8,B|156:269|97:279,2,100
322,207,151880,2,8,B|299:147|372:127,2,100
453,298,153726,1,0
452,138,154649,2,0,B|450:37,2,100
371,138,156034,2,0,B|371:34,2,100
290,132,157419,1,2
210,127,157880,1,2
142,170,158342,1,2
118,246,158803,5,2
194,268,159265,1,2
250,211,159726,1,2
256,131,160188,6,2,B|472:130,1,200
431,288,162034,5,0
296,201,162957,2,8,B|297:306,4,100
411,152,165726,2,0,B|458:129|436:60,2,100
357,92,167111,2,2,B|332:137|265:122,2,100
241,203,168957,2,0,B|306:221|303:274,2,100
256,192,170342,12,2,175419
237,66,175880,6,8,B|237:178,2,100
316,61,177265,2,8,B|314:173,2,100
395,62,178649,2,8,B|394:170,2,100
314,63,180034,2,0,B|207:55|168:181,1,200
175,255,181419,5,2
253,268,181880,1,12
317,220,182342,1,2
329,143,182803,1,12
298,68,183265,1,6
