osu file format v5

[General]
AudioFilename: 119774_Lethargica___Blood___Rust_.mp3
AudioLeadIn: 0
PreviewTime: -1
Countdown: 1
SampleSet: Normal
StackLeniency: 0.7
Mode: 0
LetterboxInBreaks: 1
EditorBookmarks: 43592,94865,135229

[Metadata]
Title:Dead Body Face Down
Artist:Alexis Erisian
Creator:Hybreed
Version:Hard
Source:
Tags:

[Difficulty]
HPDrainRate:6
CircleSize:6
OverallDifficulty:6
SliderMultiplier:1.4
SliderTickRate:2

[Events]
//Background and Video events
0,0,"Background.jpg"
//Break Periods
2,30156,42542
2,60701,64360
2,83065,93815
2,122338,134179
//Storyboard Layer 0 (Background)
//Storyboard Layer 1 (Failing)
//Storyboard Layer 2 (Passing)
//Storyboard Layer 3 (Foreground)
//Storyboard Sound Samples
//Background Colour Transformations
3,100,163,162,255

[TimingPoints]
4320,545.454545454545,4,1,1,40,1

[Colours]
Combo1 : 69,116,118
Combo2 : 78,122,63
Combo3 : 69,116,118
Combo4 : 78,122,63

[HitObjects]
256,192,4320,1,0
320,160,4593,1,0
384,192,4866,1,0
320,224,5138,1,0
256,192,5411,5,0
192,160,5684,1,0
128,192,5957,1,0
192,224,6229,1,0
192,288,6501,5,0
256,288,6774,1,0
320,288,7047,1,0
384,288,7319,1,0
384,224,7592,5,0
384,160,7865,1,0
320,160,8138,1,0
320,224,8410,1,0
256,224,8683,5,0
256,160,8956,1,0
224,128,9229,1,0
160,128,9501,1,0
128,160,9774,1,0
128,224,10047,1,0
192,224,10319,5,0
256,224,10592,1,0
352,288,10865,5,0
352,64,11410,1,0
64,64,11956,1,0
256,192,12501,1,0
448,320,13047,6,0,B|352:320,1,70
320,320,13592,2,0,B|224:320,1,70
192,320,14138,2,0,B|96:320,1,70
64,320,14683,1,0
64,64,15229,5,0
128,64,15501,1,0
192,64,15774,1,0
256,64,16047,1,0
320,64,16319,1,0
384,64,16592,1,0
448,64,16865,1,0
448,320,17410,5,0
384,320,17683,1,0
320,320,17956,1,0
256,320,18229,1,0
192,320,18501,1,0
128,320,18774,1,0
64,320,19047,1,0
64,64,19592,5,0
128,64,19865,1,0
128,128,20138,1,0
192,128,20410,1,0
192,192,20683,1,0
128,192,20956,1,0
128,256,21229,1,0
320,256,21774,5,0
384,256,22047,2,0,B|384:160,1,70
320,192,22592,1,0
256,192,22865,2,0,B|256:288,1,70
256,320,23410,1,0
64,320,23956,5,0
64,256,24229,1,0
64,192,24501,1,0
64,128,24774,1,0
128,128,25047,1,0
192,128,25319,1,0
192,64,25592,1,0
416,64,26138,5,0
416,128,26410,1,0
416,192,26683,1,0
416,256,26956,1,0
352,256,27229,1,0
352,192,27501,1,0
352,128,27774,1,0
160,128,28319,5,0
192,160,28592,1,0
224,192,28865,1,0
256,224,29138,1,0
224,256,29410,1,0
192,288,29683,1,0
224,320,29956,1,0
64,64,43592,5,0
256,64,44138,1,0
448,64,44683,1,0
448,128,44956,1,0
448,192,45229,1,0
448,256,45501,6,0,B|352:256,1,70
320,256,46047,1,0
256,256,46319,1,0
256,192,46592,1,0
192,192,46865,1,0
192,128,47138,1,0
128,128,47410,1,0
128,320,47956,5,0
320,320,48501,1,0
384,320,48774,1,0
448,320,49047,1,0
448,256,49319,1,0
416,224,49592,1,0
288,96,50138,5,0
256,128,50410,1,0
224,160,50683,1,0
192,192,50956,1,0
160,224,51229,1,0
128,256,51501,1,0
96,288,51774,1,0
384,288,52319,5,0
384,128,52865,1,0
192,128,53410,1,0
224,160,53683,1,0
256,192,53956,1,0
384,320,54501,5,0
416,288,54774,1,0
384,256,55047,1,0
416,224,55319,1,0
384,192,55592,1,0
416,160,55865,1,0
384,128,56138,1,0
224,256,56683,5,0
224,96,57229,1,0
256,64,57501,1,0
288,96,57774,1,0
288,256,58319,1,0
96,256,58865,5,0
128,224,59138,1,0
96,192,59410,1,0
128,160,59683,1,0
96,128,59956,1,0
128,96,60229,1,0
96,64,60501,1,0
448,64,65410,5,0
416,96,65683,1,0
448,128,65956,1,0
416,160,66229,5,0
448,192,66501,1,0
416,224,66774,1,0
448,256,67047,5,0
320,320,67592,1,0
288,288,67865,1,0
320,256,68138,5,0
288,224,68410,1,0
320,192,68683,1,0
288,160,68956,5,0
320,128,69229,5,0
64,64,69774,1,0
96,96,70047,1,0
64,128,70319,1,0
96,160,70592,1,0
64,192,70865,5,0
96,224,71138,1,0
64,256,71410,1,0
256,256,71956,5,0
288,224,72229,1,0
320,192,72501,1,0
288,160,72774,1,0
256,128,73047,5,0
192,128,73319,1,0
192,192,73592,1,0
352,288,74138,5,0
352,224,74410,2,0,B|288:160,1,70
352,128,74956,1,0
416,128,75229,1,0
416,64,75501,1,0
352,64,75774,1,0
224,64,76319,6,0,B|128:64,1,70
224,128,76865,2,0,B|128:128,2,70
256,160,77683,1,0
288,192,77956,1,0
416,320,78501,5,0
416,320,78774,1,0
352,320,79047,1,0
352,320,79319,1,0
288,320,79592,1,0
288,320,79865,1,0
224,320,80138,1,0
224,64,80683,5,0
256,96,80956,1,0
288,64,81229,1,0
320,96,81501,1,0
288,128,81774,1,0
320,160,82047,1,0
288,192,82319,1,0
288,192,82456,1,0
288,192,82592,1,0
288,192,82729,1,0
288,192,82865,1,0
64,64,94865,5,0
128,64,95138,1,0
192,64,95410,1,0
256,192,95683,12,0,98683
64,64,99229,1,0
128,64,99501,1,0
192,64,99774,1,0
256,192,100047,12,0,103047
448,64,103592,5,0
384,64,103865,1,0
320,64,104138,1,0
96,64,104683,6,0,B|96:224,1,140
224,288,105774,5,0
288,288,106047,1,0
352,288,106319,1,0
352,224,106592,2,0,B|352:128,1,70
352,96,107138,5,0
288,96,107410,1,0
256,128,107683,1,0
224,160,107956,1,0
160,160,108229,2,0,B|160:256,1,70
352,320,109047,5,0
288,320,109319,1,0
224,320,109592,1,0
224,256,109865,1,0
288,256,110138,1,0
288,192,110410,1,0
352,128,110683,1,0
64,128,111229,5,0
128,128,111501,1,0
128,192,111774,1,0
192,192,112047,1,0
224,160,112319,1,0
256,192,112592,1,0
288,160,112865,1,0
448,320,113410,6,0,B|288:320,1,140
256,320,114229,1,0
192,320,114501,1,0
128,320,114774,1,0
96,288,115047,1,0
64,256,115319,1,0
64,192,115592,6,0,B|224:192,1,140
256,192,116410,1,0
288,224,116683,1,0
256,256,116956,1,0
192,256,117229,1,0
128,256,117501,1,0
128,320,117774,6,0,B|288:320,1,140
320,288,118592,1,0
352,256,118865,1,0
384,224,119138,1,0
352,192,119410,1,0
320,224,119683,1,0
256,224,119956,6,0,B|256:64,1,140
192,96,120774,1,0
160,128,121047,1,0
192,160,121319,1,0
160,192,121592,1,0
192,224,121865,1,0
160,256,122138,1,0
416,320,135229,5,0
224,320,135774,1,0
64,320,136319,1,0
96,288,136592,1,0
64,256,136865,1,0
96,160,137410,5,0
64,128,137683,1,0
96,96,137956,1,0
128,128,138229,1,0
160,160,138501,1,0
192,128,138774,1,0
160,96,139047,1,0
416,128,139592,5,0
416,288,140138,1,0
256,288,140683,1,0
192,288,140956,1,0
128,288,141229,1,0
128,128,141774,5,0
160,96,142047,1,0
160,160,142319,1,0
192,128,142592,1,0
256,128,142865,1,0
320,128,143138,1,0
384,128,143410,1,0
64,128,143956,5,0
224,128,144501,1,0
384,128,145047,1,0
352,160,145319,1,0
384,192,145592,1,0
256,288,146138,5,0
224,256,146410,1,0
192,224,146683,1,0
160,256,146956,1,0
128,288,147229,1,0
192,288,147501,1,0
192,224,147774,1,0
416,64,148319,5,0
288,192,148865,1,0
160,64,149410,1,0
32,192,149956,1,0
192,192,150501,5,0
224,160,150774,1,0
256,192,151047,1,0
224,224,151319,1,0
192,192,151592,1,0
128,192,151865,1,0
192,192,152138,1,0
256,192,152683,12,0,155956
256,192,157047,12,0,160319
256,192,161410,5,0
192,192,161683,1,0
256,192,161956,1,0
320,192,162229,1,0
320,128,162501,1,0
320,192,162774,1,0
320,256,163047,1,0
160,256,163592,5,0
160,192,163865,1,0
160,128,164138,1,0
160,192,164410,1,0
96,192,164683,1,0
32,192,164956,1,0
96,192,165229,1,0
256,192,165774,5,0
256,192,166047,1,0
256,128,166319,1,0
256,128,166592,1,0
256,192,166865,1,0
256,256,167138,1,0
256,320,167410,1,0
256,64,167956,5,0
224,96,168229,1,0
288,96,168501,1,0
256,128,168774,1,0
256,192,169047,1,0
192,192,169319,1,0
192,256,169592,1,0
448,256,170138,5,0
384,256,170410,1,0
320,256,170683,1,0
320,192,170956,1,0
256,192,171229,1,0
256,256,171501,1,0
320,256,171774,1,0
320,64,172319,5,0
320,64,172592,1,0
320,128,172865,1,0
320,192,173138,1,0
320,192,173410,1,0
256,192,173683,1,0
192,192,173956,1,0
64,64,174501,6,0,B|160:64,1,70
192,64,175047,2,0,B|288:64,1,70
320,64,175592,2,0,B|416:64,1,70
448,64,176138,1,0
256,192,176683,5,0
224,160,176956,1,0
192,192,177229,1,0
224,224,177501,1,0
256,192,177774,1,0
288,160,178047,1,0
320,192,178319,1,0
288,224,178592,1,0
