osu file format v14

[General]
AudioFilename: Please don't touch anything Blinch - Main Theme.mp3
AudioLeadIn: 0
PreviewTime: 23660
Countdown: 0
SampleSet: Soft
StackLeniency: 0.7
Mode: 0
LetterboxInBreaks: 1
WidescreenStoryboard: 1

[Editor]
Bookmarks: 5660,17660,23660,35660,47660,53660,62660,71660,83660,94910
DistanceSpacing: 0.8
BeatDivisor: 4
GridSize: 4
TimelineZoom: 1

[Metadata]
Title:Main Theme
TitleUnicode:Main Theme
Artist:Alexandr Goreslavets
ArtistUnicode:Alexandr Goreslavets
Creator:paydayzcool
Version:Hard
Source:Please, Don't Touch Anything
Tags:8 bit chiptune short simple four quarters team bulkypix
BeatmapID:1044692
BeatmapSetID:486364

[Difficulty]
HPDrainRate:5
CircleSize:4
OverallDifficulty:5
ApproachRate:7
SliderMultiplier:2.8
SliderTickRate:1

[Events]
//Background and Video events
0,0,"back.jpg",0,0
//Break Periods
//Storyboard Layer 0 (Background)
//Storyboard Layer 1 (Fail)
//Storyboard Layer 2 (Pass)
//Storyboard Layer 3 (Foreground)
//Storyboard Sound Samples

[TimingPoints]
5660.62819688434,750,4,2,1,20,1,0
23660,-100,4,2,1,20,0,1
29660,-100,4,2,1,20,0,0
35660,-100,4,2,1,20,0,1
41660,-100,4,2,1,20,0,0
71660,-100,4,2,1,20,0,1
77660,-100,4,2,1,20,0,0
83660,-100,4,2,1,20,0,1
89660,-100,4,2,1,20,0,0

[Colours]
Combo1 : 65,115,85
Combo2 : 200,240,206
Combo3 : 140,190,130

[HitObjects]
176,312,5662,6,0,L|136:176,1,140
100,72,6410,1,8,0:0:0:0:
320,36,7160,2,0,L|360:172,1,140
396,276,7910,1,8,0:0:0:0:
172,256,8660,6,0,P|136:192|128:112,2,140,0|0|8,0:0|0:0|0:0,0:0:0:0:
256,328,9785,1,2,0:0:0:0:
340,256,10160,2,0,P|376:192|384:112,2,140,0|0|8,0:0|0:0|0:0,0:0:0:0:
256,180,11285,1,2,0:0:0:0:
256,68,11660,1,0,0:0:0:0:
368,80,12035,5,0,0:0:0:0:
432,164,12410,1,8,0:0:0:0:
452,216,12598,1,0,0:0:0:0:
432,268,12785,1,2,0:0:0:0:
336,344,13160,2,0,P|264:356|196:336,1,140
101,286,13910,2,0,P|74:256|65:213,2,70,8|0|2,0:0|0:0|0:0,0:0:0:0:
177,202,14660,6,0,B|266:174|266:174|356:227,1,140
408,244,15410,1,8,0:0:0:0:
456,212,15598,1,0,0:0:0:0:
480,160,15785,1,2,0:0:0:0:
365,133,16160,2,0,B|276:79|276:79|179:111,1,140
128,140,16910,2,0,P|96:152|68:176,2,70,8|0|2,0:0|0:0|0:0,0:0:0:0:
148,250,17660,5,0,0:0:0:0:
188,290,17848,1,2,0:0:0:0:
236,322,18035,2,0,P|268:342|312:346,1,70
376,280,18410,2,0,P|344:260|300:256,1,70,8|0,0:0|0:0,0:0:0:0:
260,232,18785,1,2,0:0:0:0:
148,250,19160,2,0,L|96:186,1,70,0|2,0:0|0:0,0:0:0:0:
144,88,19535,2,0,L|196:152,1,70
232,176,19910,1,8,0:0:0:0:
284,200,20098,1,0,0:0:0:0:
340,200,20285,1,2,0:0:0:0:
451,193,20660,6,0,P|443:153|407:117,1,70,0|2,0:0|0:0,0:0:0:0:
374,106,21035,1,0,0:0:0:0:
318,94,21223,1,0,0:0:0:0:
264,96,21410,2,0,P|232:96|192:120,2,70,8|0|2,0:0|0:0|0:0,0:0:0:0:
260,208,22160,2,0,L|272:288,1,70,0|2,0:0|0:0,0:0:0:0:
184,240,22535,2,0,L|172:160,1,70
88,136,22910,2,0,L|98:206,1,70,8|0,0:0|0:0,0:0:0:0:
97,205,23285,1,2,0:0:0:0:
156,300,23660,6,0,P|224:324|304:308,1,140,0|2,0:0|0:0,0:0:0:0:
364,232,24410,2,0,B|384:204|384:204|384:160,2,70,8|0|2,0:0|0:0|0:0,0:0:0:0:
252,224,25160,2,0,P|183:193|152:134,1,140,0|2,0:0|0:0,0:0:0:0:
260,116,25910,1,8,0:0:0:0:
312,100,26098,1,0,0:0:0:0:
368,112,26285,1,2,0:0:0:0:
319,213,26660,6,0,B|338:281|338:281|329:361,1,140,0|2,0:0|0:0,0:0:0:0:
233,292,27410,2,0,P|191:297|160:287,1,70,8|0,0:0|0:0,0:0:0:0:
115,262,27785,1,2,0:0:0:0:
45,173,28160,1,0,0:0:0:0:
45,173,28348,1,0,0:0:0:0:
45,173,28535,2,0,P|80:141|95:108,1,70,2|0,0:0|0:0,0:0:0:0:
143,101,28910,1,8,0:0:0:0:
199,96,29098,2,0,L|223:17,1,70,0|2,0:0|0:0,0:0:0:0:
300,108,29660,6,0,L|275:186,1,70,0|2,0:0|0:0,0:0:0:0:
300,221,30035,2,0,L|315:302,1,70
357,323,30410,1,8,0:0:0:0:
413,327,30598,1,0,0:0:0:0:
449,284,30785,1,2,0:0:0:0:
401,182,31160,2,0,P|409:154|401:114,1,70,0|2,0:0|0:0,0:0:0:0:
365,74,31535,2,0,P|337:66|297:74,1,70
265,118,31910,2,0,B|253:154|253:154|261:198,2,70,8|0|2,0:0|0:0|0:0,0:0:0:0:
158,83,32660,6,0,B|139:152|139:152|153:220,1,140
173,270,33223,2,0,P|195:303|235:315,1,70,2|8,0:0|0:0,0:0:0:0:
278,306,33598,1,0,0:0:0:0:
329,285,33785,1,2,0:0:0:0:
429,235,34160,2,0,P|448:167|435:82,1,140
387,81,34723,2,0,L|313:67,2,70,2|8|0,0:0|0:0|0:0,0:0:0:0:
387,81,35285,1,2,0:0:0:0:
207,54,35660,6,0,B|161:54|161:54|117:74|117:74|61:74,1,140,0|2,0:0|0:0,0:0:0:0:
72,185,36410,2,0,B|140:185|140:185|212:153,1,140,8|2,0:0|0:0,0:0:0:0:
307,107,37160,2,0,P|379:83|451:91,2,140,0|2|8,0:0|0:0|0:0,0:0:0:0:
297,162,38098,1,0,0:0:0:0:
293,218,38285,1,2,0:0:0:0:
353,314,38660,6,0,P|281:330|209:294,1,140,0|2,0:0|0:0,0:0:0:0:
109,290,39410,2,0,B|73:290|45:314|45:314|41:234,1,140,8|2,0:0|0:0,0:0:0:0:
41,130,40160,2,0,B|44:59|44:59|72:83|108:83,1,140,0|2,0:0|0:0,0:0:0:0:
221,94,40910,2,0,P|293:94|357:138,1,140,8|2,0:0|0:0,0:0:0:0:
308,232,41660,6,0,P|388:236|445:188,2,140,0|0|8,0:0|0:0|0:0,0:0:0:0:
214,74,43160,2,0,P|134:70|78:118,2,140,0|0|8,0:0|0:0|0:0,0:0:0:0:
168,288,44660,6,0,B|304:240|304:340|440:296,1,280,0|8,0:0|0:0,0:0:0:0:
480,132,46160,2,0,B|344:176|344:76|208:124,1,280,0|8,0:0|0:0,0:0:0:0:
99,253,47660,6,0,B|167:289|231:289|305:257|305:257|344:316,1,280,0|8,0:0|0:0,0:0:0:0:
412,159,49160,2,0,B|344:123|272:123|204:151|204:151|167:96,1,280,0|8,0:0|0:0,0:0:0:0:
178,265,50660,6,0,P|310:205|427:272,1,280,0|8,0:0|0:0,0:0:0:0:
274,347,52160,2,0,P|212:226|272:106,1,280,0|8,0:0|0:0,0:0:0:0:
389,225,53660,6,0,B|440:179|440:179|457:97,2,140,0|0|8,0:0|0:0|0:0,0:0:0:0:
228,174,55160,2,0,B|176:219|176:219|160:302,2,140,0|0|8,0:0|0:0|0:0,0:0:0:0:
359,355,56660,6,0,L|325:209,1,140
269,122,57410,1,8,0:0:0:0:
171,67,57785,1,2,0:0:0:0:
74,117,58160,2,0,L|108:263,1,140
67,358,58910,2,0,P|148:357|204:303,1,140,8|2,0:0|0:0,0:0:0:0:
281,254,59660,6,0,P|338:217|406:227,1,140
504,286,60410,1,8,0:0:0:0:
474,333,60598,1,0,0:0:0:0:
422,353,60785,1,2,0:0:0:0:
326,294,61160,2,0,B|331:224|331:224|302:159,1,140
219,84,61910,2,0,L|179:27,2,70,8|0|2,0:0|0:0|0:0,0:0:0:0:
144,167,62660,6,0,B|139:237|139:237|168:302,1,140
207,339,63223,2,0,P|242:353|279:350,1,70,2|8,0:0|0:0,0:0:0:0:
328,339,63598,1,0,0:0:0:0:
372,305,63785,1,2,0:0:0:0:
483,293,64160,2,0,P|445:222|386:195,1,140
337,198,64723,1,2,0:0:0:0:
282,209,64910,1,8,0:0:0:0:
231,233,65098,1,0,0:0:0:0:
198,278,65285,1,2,0:0:0:0:
103,348,65660,6,0,L|33:302,1,70,0|2,0:0|0:0,0:0:0:0:
53,206,66035,2,0,L|123:252,1,70
164,266,66410,1,8,0:0:0:0:
220,261,66598,1,0,0:0:0:0:
266,229,66785,1,2,0:0:0:0:
306,144,67160,2,0,L|376:98,1,70,0|2,0:0|0:0,0:0:0:0:
356,2,67535,2,0,L|286:48,1,70
245,62,67910,1,8,0:0:0:0:
189,57,68098,1,0,0:0:0:0:
143,25,68285,1,2,0:0:0:0:
53,97,68660,6,0,P|71:124|72:166,1,70,0|2,0:0|0:0,0:0:0:0:
63,215,69035,2,0,P|65:249|84:278,1,70
136,300,69410,1,8,0:0:0:0:
192,306,69598,1,0,0:0:0:0:
246,291,69785,1,2,0:0:0:0:
337,224,70160,2,0,P|306:193|262:182,1,70,0|2,0:0|0:0,0:0:0:0:
192,250,70535,2,0,P|223:281|267:292,1,70
302,301,70910,2,0,L|382:314,2,70,8|0|2,0:0|0:0|0:0,0:0:0:0:
204,355,71660,6,0,P|138:367|60:348,1,140,0|2,0:0|0:0,0:0:0:0:
44,301,72223,1,0,0:0:0:0:
32,246,72410,1,8,0:0:0:0:
47,191,72598,1,0,0:0:0:0:
79,144,72785,1,2,0:0:0:0:
118,38,73160,2,0,P|169:82|188:157,1,140,0|2,0:0|0:0,0:0:0:0:
180,206,73723,1,0,0:0:0:0:
190,261,73910,1,8,0:0:0:0:
220,308,74098,1,0,0:0:0:0:
264,343,74285,1,2,0:0:0:0:
375,322,74660,6,0,B|415:263|415:263|392:187,1,140,0|2,0:0|0:0,0:0:0:0:
384,85,75410,2,0,P|346:92|311:122,2,70,8|0|2,0:0|0:0|0:0,0:0:0:0:
493,139,76160,2,0,P|508:209|468:283,1,140,0|2,0:0|0:0,0:0:0:0:
396,197,76910,1,8,0:0:0:0:
343,178,77098,1,0,0:0:0:0:
291,160,77285,1,2,0:0:0:0:
213,79,77660,6,0,P|189:111|181:151,1,70,0|2,0:0|0:0,0:0:0:0:
167,193,78035,2,0,P|167:237|151:269,1,70
161,313,78410,1,8,0:0:0:0:
205,349,78598,1,0,0:0:0:0:
261,353,78785,1,2,0:0:0:0:
331,265,79160,2,0,L|335:189,1,70,0|2,0:0|0:0,0:0:0:0:
418,171,79535,2,0,L|414:247,1,70
419,296,79910,2,0,P|451:312|495:312,2,70,8|0|2,0:0|0:0|0:0,0:0:0:0:
307,314,80660,6,0,P|235:298|247:182,1,210,0|2,0:0|0:0,0:0:0:0:
299,166,81410,1,8,0:0:0:0:
351,142,81598,1,0,0:0:0:0:
379,94,81785,1,2,0:0:0:0:
274,56,82160,2,0,P|214:97|208:231,1,210,0|2,0:0|0:0,0:0:0:0:
255,234,82910,1,8,0:0:0:0:
307,258,83098,1,0,0:0:0:0:
335,306,83285,1,2,0:0:0:0:
231,345,83660,6,0,B|159:341|159:341|119:281,1,140,0|2,0:0|0:0,0:0:0:0:
106,173,84410,2,0,L|58:105,2,70,8|0|2,0:0|0:0|0:0,0:0:0:0:
200,110,85160,2,0,B|272:114|272:114|312:174,1,140,0|2,0:0|0:0,0:0:0:0:
299,281,85910,1,8,0:0:0:0:
355,281,86098,1,0,0:0:0:0:
395,245,86285,1,2,0:0:0:0:
506,230,86660,6,0,P|468:162|409:133,1,140,0|2,0:0|0:0,0:0:0:0:
293,149,87410,2,0,P|234:114|202:53,2,140,8|2|0,0:0|0:0|0:0,0:0:0:0:
311,38,88535,1,2,0:0:0:0:
202,53,88910,2,0,L|62:104,1,140,8|2,0:0|0:0,0:0:0:0:
142,187,89660,6,0,L|2:238,2,140,0|0|8,0:0|0:0|0:0,0:0:0:0:
364,219,91160,2,0,L|504:168,2,140,0|0|8,0:0|0:0|0:0,0:0:0:0:
173,100,92660,6,0,P|109:191|232:315,1,280,0|8,0:0|0:0,0:0:0:0:
339,100,94160,2,0,P|403:214|316:312,1,280,0|8,0:0|0:0,0:0:0:0:
