osu file format v14

[General]
AudioFilename: Please don't touch anything Blinch - Main Theme.mp3
AudioLeadIn: 0
PreviewTime: 23686
Countdown: 0
SampleSet: Soft
StackLeniency: 0.7
Mode: 0
LetterboxInBreaks: 1
WidescreenStoryboard: 0

[Editor]
Bookmarks: 5660,17686,23686,35660,47660,53660,62660,71660,83660,94910
DistanceSpacing: 0.6
BeatDivisor: 4
GridSize: 4
TimelineZoom: 1

[Metadata]
Title:Main Theme
TitleUnicode:Main Theme
Artist:Alexandr Goreslavets
ArtistUnicode:Alexandr Goreslavets
Creator:paydayzcool
Version:Easy
Source:Please, Don't Touch Anything
Tags:8 bit chiptune short simple four quarters team bulkypix
BeatmapID:1037113
BeatmapSetID:486364

[Difficulty]
HPDrainRate:3
CircleSize:2.6
OverallDifficulty:3
ApproachRate:3
SliderMultiplier:1.7
SliderTickRate:2

[Events]
//Background and Video events
0,0,"back.jpg",0,0
//Break Periods
//Storyboard Layer 0 (Background)
//Storyboard Layer 1 (Fail)
//Storyboard Layer 2 (Pass)
//Storyboard Layer 3 (Foreground)
//Storyboard Sound Samples

[TimingPoints]
5660.62819688434,750,4,2,1,15,1,0
23660,-100,4,2,1,15,0,1
29660,-100,4,2,1,15,0,0
35660,-100,4,2,1,15,0,1
41660,-100,4,2,1,15,0,0
71660,-100,4,2,1,15,0,1
77660,-100,4,2,1,15,0,0
83660,-100,4,2,1,15,0,1
89660,-100,4,2,1,15,0,0

[Colours]
Combo1 : 65,115,85
Combo2 : 200,240,206
Combo3 : 140,190,130

[HitObjects]
372,328,5660,6,0,B|412:296|420:252|420:252|368:264|328:232,1,170,0|8,0:0|0:0,0:0:0:0:
248,193,7160,2,0,P|306:142|404:158,1,170,0|8,0:0|0:0,0:0:0:0:
416,48,8660,2,0,P|316:32|233:60,1,170,0|8,0:0|0:0,0:0:0:0:
148,48,10160,2,0,B|148:120|220:148|220:148|172:208,1,170,0|8,0:0|0:0,0:0:0:0:
116,244,11660,5,0,0:0:0:0:
192,312,12410,1,8,0:0:0:0:
272,248,13160,2,0,B|376:288|376:288|432:272,1,170,0|8,0:0|0:0,0:0:0:0:
488,188,14660,2,0,B|436:168|436:168|380:184|380:184|320:160,1,170,0|8,0:0|0:0,0:0:0:0:
228,136,16160,2,0,P|184:136|128:164,2,85,0|0|8,0:0|0:0|0:0,0:0:0:0:
204,244,17660,6,0,P|120:260|36:180,1,170,0|8,0:0|0:0,0:0:0:0:
52,112,19160,2,0,P|130:60|226:48,1,170,0|8,0:0|0:0,0:0:0:0:
304,56,20660,2,0,L|368:220,1,170,0|8,0:0|0:0,0:0:0:0:
292,292,22160,2,0,L|227:126,1,170,0|8,0:0|0:0,0:0:0:0:
152,68,23660,6,0,P|132:108|132:156,1,85,0|2,0:0|0:0,0:0:0:0:
148,195,24410,2,0,L|136:283,2,85,8|2|0,0:0|0:0|0:0,0:0:0:0:
232,136,25910,1,8,0:0:0:0:
310,73,26660,2,0,P|332:153|283:222,2,170,0|8|0,0:0|0:0|0:0,0:0:0:0:
404,33,28910,2,0,P|423:76|432:132,1,85,8|2,0:0|0:0,0:0:0:0:
432,164,29660,6,0,B|420:228|464:264|464:264|412:308,1,170,0|8,0:0|0:0,0:0:0:0:
324,344,31160,2,0,B|196:328|196:328|156:280,1,170,0|8,0:0|0:0,0:0:0:0:
122,206,32660,2,0,L|58:126,2,85,0|0|8,0:0|0:0|0:0,0:0:0:0:
210,156,34160,2,0,L|274:76,2,85,0|0|8,0:0|0:0|0:0,0:0:0:0:
208,203,35285,2,0,P|255:266|350:287,1,170,2|2,0:0|0:0,0:0:0:0:
385,264,36410,6,0,P|394:181|350:110,1,170
258,156,37910,2,0,L|138:280,1,170,8|0,0:0|0:0,0:0:0:0:
61,212,39410,2,0,L|181:88,1,170,8|0,0:0|0:0,0:0:0:0:
221,62,40535,1,2,0:0:0:0:
264,44,40910,2,0,B|348:4|344:80|428:32,1,170,8|0,0:0|0:0,0:0:0:0:
480,120,42410,6,0,P|392:155|289:127,1,170,8|0,0:0|0:0,0:0:0:0:
268,144,43535,2,0,L|200:224,1,85,0|8,0:0|0:0,0:0:0:0:
116,244,44660,2,0,B|92:196|124:152|124:152|172:92,1,170,0|8,0:0|0:0,0:0:0:0:
268,64,46160,2,0,B|292:112|260:156|260:156|212:216,1,170,0|8,0:0|0:0,0:0:0:0:
160,300,47660,6,0,B|240:324|240:324|344:308,1,170,0|8,0:0|0:0,0:0:0:0:
425,310,49160,2,0,L|417:134,1,170,0|8,0:0|0:0,0:0:0:0:
483,63,50660,2,0,B|439:31|395:31|355:59|355:59|303:59,1,170,0|8,0:0|0:0,0:0:0:0:
221,70,52160,2,0,P|137:110|109:190,1,170,0|8,0:0|0:0,0:0:0:0:
136,276,53660,6,0,L|64:352,2,85,0|0|8,0:0|0:0|0:0,0:0:0:0:
236,256,55160,2,0,L|308:180,2,85,0|0|8,0:0|0:0|0:0,0:0:0:0:
316,320,56660,2,0,L|438:187,1,170,0|8,0:0|0:0,0:0:0:0:
470,162,57785,1,2,0:0:0:0:
508,128,58160,2,0,P|421:92|335:149,1,170,0|8,0:0|0:0,0:0:0:0:
280,184,59660,6,0,B|220:184|220:184|180:216|180:216|116:216,1,170,0|8,0:0|0:0,0:0:0:0:
21,193,61160,2,0,B|57:117|57:117|165:117,1,170,0|8,0:0|0:0,0:0:0:0:
240,88,62660,1,0,0:0:0:0:
333,127,63410,1,8,0:0:0:0:
425,83,64160,2,0,B|452:166|397:166|423:250,1,170,0|8,0:0|0:0,0:0:0:0:
387,286,65285,1,2,0:0:0:0:
343,313,65660,6,0,P|259:273|163:281,1,170,0|8,0:0|0:0,0:0:0:0:
105,347,67160,2,0,P|80:304|80:256,2,85,0|0|8,0:0|0:0|0:0,0:0:0:0:
204,340,68660,2,0,P|244:253|234:152,1,170,0|8,0:0|0:0,0:0:0:0:
152,122,70160,2,0,P|217:77|321:111,1,170,0|8,0:0|0:0,0:0:0:0:
344,121,71285,1,2,0:0:0:0:
390,142,71660,6,0,L|494:182,2,85,0|2|8,0:0|0:0|0:0,0:0:0:0:
352,236,73160,2,0,B|272:260|272:260|224:244|180:260,1,170,0|8,0:0|0:0,0:0:0:0:
92,292,74660,1,0,0:0:0:0:
108,192,75410,1,8,0:0:0:0:
72,96,76160,2,0,B|152:68|152:68|244:76,1,170,0|8,0:0|0:0,0:0:0:0:
336,52,77660,6,0,L|320:228,1,170,0|8,0:0|0:0,0:0:0:0:
224,256,79160,2,0,L|232:168,2,85,0|0|8,0:0|0:0|0:0,0:0:0:0:
303,324,80660,2,0,P|208:360|135:317,1,170,0|8,0:0|0:0,0:0:0:0:
68,272,82160,2,0,P|162:236|235:279,1,170,0|8,0:0|0:0,0:0:0:0:
288,176,83660,6,0,P|247:146|176:132,1,85,0|2,0:0|0:0,0:0:0:0:
164,136,84410,2,0,L|64:144,2,85,8|2|0,0:0|0:0|0:0,0:0:0:0:
236,64,85910,2,0,B|320:76|320:76|396:116,1,170,8|0,0:0|0:0,0:0:0:0:
364,212,87410,2,0,B|280:200|280:200|204:160,1,170,8|0,0:0|0:0,0:0:0:0:
108,124,88910,2,0,P|36:156|32:256,1,170,8|0,0:0|0:0,0:0:0:0:
94,317,90410,6,0,B|132:276|126:226|126:226|161:236|196:224,1,170,8|0,0:0|0:0,0:0:0:0:
284,277,91910,2,0,P|297:202|219:123,1,170,8|0,0:0|0:0,0:0:0:0:
156,76,93410,2,0,P|143:151|221:230,1,170,8|0,0:0|0:0,0:0:0:0:
299,227,94910,1,8,0:0:0:0:
