osu file format v14

[General]
AudioFilename: Alexander Pushnoy - Smile and wave.mp3
AudioLeadIn: 0
PreviewTime: 31850
Countdown: 0
SampleSet: Normal
StackLeniency: 0.9
Mode: 0
LetterboxInBreaks: 1
WidescreenStoryboard: 0

[Editor]
Bookmarks: 231550,232750
DistanceSpacing: 1.6
BeatDivisor: 8
GridSize: 8
TimelineZoom: 2.1

[Metadata]
Title:Smile and wave
TitleUnicode:Улыбаемся и Машем
Artist:Alexander Pushnoy
ArtistUnicode:Александр Пушной
Creator:Loony Key
Version:Hard
Source:
Tags:russian rock
BeatmapID:728359
BeatmapSetID:328395

[Difficulty]
HPDrainRate:5
CircleSize:4
OverallDifficulty:5
ApproachRate:8
SliderMultiplier:1.6
SliderTickRate:1

[Events]
//Background and Video events
0,0,"koteyk.jpg",0,0
//Break Periods
2,114350,126800
2,144350,146000
2,186350,189150
//Storyboard Layer 0 (Background)
//Storyboard Layer 1 (Fail)
//Storyboard Layer 2 (Pass)
//Storyboard Layer 3 (Foreground)
//Storyboard Sound Samples

[TimingPoints]
1150.4582111437,400,4,1,0,50,1,0
15550,-100,4,1,0,50,0,0
24950,-66.6666666666667,4,1,0,50,0,0
25150,-100,4,1,0,50,0,0
26550,-66.6666666666667,4,1,0,50,0,0
26750,-100,4,1,0,50,0,0
33150,-83.3333333333333,4,1,0,50,0,1
40950,-66.6666666666667,4,1,0,50,0,1
41150,-83.3333333333333,4,1,0,50,0,1
42550,-66.6666666666667,4,1,0,50,0,1
42750,-83.3333333333333,4,1,0,50,0,1
45950,-100,4,1,0,50,0,0
52150,-66.6666666666667,4,1,0,50,0,0
52350,-100,4,1,0,50,0,0
55550,-66.6666666666667,4,1,0,50,0,0
55750,-100,4,1,0,50,0,0
56150,-66.6666666666667,4,1,0,50,0,0
56350,-100,4,1,0,50,0,0
77950,-66.6666666666667,4,1,0,50,0,0
78150,-100,4,1,0,50,0,0
79350,-66.6666666666667,4,1,0,50,0,0
79550,-100,4,1,0,50,0,0
80950,-66.6666666666667,4,1,0,50,0,0
81150,-100,4,1,0,50,0,0
89150,-83.3333333333333,4,1,0,50,0,1
98750,-66.6666666666667,4,1,0,50,0,1
98950,-83.3333333333333,4,1,0,50,0,1
101950,-66.6666666666667,4,1,0,50,0,0
102150,-100,4,1,0,50,0,0
111550,-66.6666666666667,4,1,0,50,0,0
111750,-100,4,1,0,50,0,0
133950,-66.6666666666667,4,1,0,50,0,0
134150,-100,4,1,0,50,0,0
135350,-66.6666666666667,4,1,0,50,0,0
135550,-100,4,1,0,50,0,0
136950,-66.6666666666667,4,1,0,50,0,0
137150,-100,4,1,0,50,0,0
146750,-83.3333333333333,4,1,0,50,0,1
149950,-66.6666666666667,4,1,0,50,0,1
150150,-83.3333333333333,4,1,0,50,0,1
152950,-66.6666666666667,4,1,0,50,0,1
153150,-83.3333333333333,4,1,0,50,0,1
156150,-66.6666666666667,4,1,0,50,0,1
156350,-83.3333333333333,4,1,0,50,0,1
159550,-83.3333333333333,4,1,0,50,0,0
178550,-66.6666666666667,4,1,0,50,0,0
178750,-100,4,1,0,50,0,0
191550,-83.3333333333333,4,1,0,50,0,1
200950,-66.6666666666667,4,1,0,50,0,1
201150,-83.3333333333333,4,1,0,50,0,1
204350,-100,4,1,0,50,0,0
210550,-66.6666666666667,4,1,0,50,0,0
210750,-100,4,1,0,50,0,0
213850,-66.6666666666667,4,1,0,50,0,0
214050,-100,4,1,0,50,0,0

[HitObjects]
96,72,2750,6,0,P|144:136|236:160,1,160
320,172,3350,1,0,0:0:0:0:
220,204,3550,2,0,P|145:229|98:292,1,160
84,192,4150,1,0,0:0:0:0:
84,88,4350,6,0,B|108:48|156:32|172:116|232:80,1,160
316,32,4950,1,0,0:0:0:0:
248,112,5150,2,0,B|208:136|192:184|276:200|240:260,1,160
392,104,5900,6,0,L|360:160,1,40
280,280,6350,1,0,0:0:0:0:
184,320,6550,1,0,0:0:0:0:
284,348,6750,2,0,B|304:288|352:264,1,80
416,216,7150,1,0,0:0:0:0:
208,136,7500,6,0,L|264:168,1,40
368,264,7950,2,0,P|408:312|440:332,2,80
296,48,8750,1,0,0:0:0:0:
296,160,8950,1,0,0:0:0:0:
180,174,9150,6,0,P|137:231|204:280,1,160
296,272,9750,1,0,0:0:0:0:
384,208,9950,2,0,B|408:152|432:136|432:136|408:120|392:64,1,160
304,264,10750,2,0,P|233:230|196:160,1,160
168,56,11350,1,0,0:0:0:0:
104,136,11550,2,0,P|80:240|120:296,2,160
168,56,12750,5,0,0:0:0:0:
248,120,12950,1,0,0:0:0:0:
271,135,13050,1,0,0:0:0:0:
290,155,13150,1,0,0:0:0:0:
472,288,13550,1,0,0:0:0:0:
248,272,13950,6,0,P|192:224|264:176,1,160
352,144,14550,1,0,0:0:0:0:
208,312,14950,1,0,0:0:0:0:
176,112,15350,1,0,0:0:0:0:
248,208,15500,2,0,L|288:256,2,40
176,112,15950,6,0,P|88:40|56:80,1,160
56,168,16550,1,0,0:0:0:0:
128,264,16750,1,0,0:0:0:0:
240,280,16950,2,0,P|192:240|200:200,1,80
304,64,17550,5,0,0:0:0:0:
392,136,17750,2,0,P|432:176|424:232,1,80
336,144,18150,1,0,0:0:0:0:
352,32,18350,2,0,P|312:72|320:128,1,80
296,208,18750,2,0,P|288:240|240:280,1,80
152,328,19150,5,0,0:0:0:0:
80,232,19350,1,0,0:0:0:0:
192,264,19550,1,0,0:0:0:0:
296,328,19750,2,0,P|328:344|384:328,1,80
288,256,20150,2,0,P|240:224|224:176,1,80
200,88,20550,5,0,0:0:0:0:
296,160,20750,1,0,0:0:0:0:
328,40,20950,1,0,0:0:0:0:
248,128,21150,2,0,P|224:152|152:152,1,80
72,104,21550,2,0,P|64:168|80:208,1,80
128,288,21900,2,0,B|144:304|176:312,1,40
336,336,22350,5,0,0:0:0:0:
408,240,22500,2,0,P|424:208|424:176,1,40
392,64,22950,1,0,0:0:0:0:
344,176,23150,1,0,0:0:0:0:
264,88,23350,1,0,0:0:0:0:
160,32,23500,2,0,P|136:40|128:72,1,40
224,32,23950,5,0,0:0:0:0:
216,144,24150,2,0,P|256:184|304:176,1,80
400,184,24550,1,0,0:0:0:0:
448,72,24750,1,0,0:0:0:0:
456,184,24950,2,0,P|448:256|408:296,1,120.000004577637
304,320,25350,5,0,0:0:0:0:
224,232,25550,1,0,0:0:0:0:
144,320,25750,2,0,P|192:328|240:304,1,80
312,240,26150,1,0,0:0:0:0:
224,160,26350,1,0,0:0:0:0:
116,128,26550,2,0,P|140:200|188:232,1,120.000004577637
262,67,28250,6,0,L|262:103,2,20
72,320,29950,6,0,L|144:256,1,80
120,184,30350,2,0,L|192:120,1,80
288,112,30750,2,0,L|360:48,1,80
424,40,31150,1,0,0:0:0:0:
424,72,31250,1,0,0:0:0:0:
424,104,31350,1,0,0:0:0:0:
424,136,31450,1,0,0:0:0:0:
424,168,31550,1,0,0:0:0:0:
256,184,33150,5,0,0:0:0:0:
408,64,33550,2,0,B|328:128|384:144|304:232,1,191.999994140625
216,304,34150,1,0,0:0:0:0:
160,192,34350,2,0,B|104:104|104:104|96:200,1,191.999994140625
96,344,35150,6,0,L|200:352,1,95.9999970703126
312,272,35550,2,0,L|208:264,1,95.9999970703126
328,176,35950,1,0,0:0:0:0:
104,64,36350,6,0,P|192:128|216:216,1,191.999994140625
224,328,36950,1,0,0:0:0:0:
200,312,37050,1,0,0:0:0:0:
176,296,37150,1,0,0:0:0:0:
24,96,37550,1,0,0:0:0:0:
104,192,37750,1,0,0:0:0:0:
126,210,37850,1,0,0:0:0:0:
151,224,37950,5,0,0:0:0:0:
336,56,38350,2,0,L|288:144,2,95.9999970703126
384,168,38950,1,0,0:0:0:0:
256,160,39150,2,0,L|168:112,2,95.9999970703126
40,288,39950,5,0,0:0:0:0:
160,256,40150,1,0,0:0:0:0:
187,246,40250,1,0,0:0:0:0:
215,240,40350,1,0,0:0:0:0:
336,216,40550,2,0,P|392:192|408:144,1,95.9999970703126
408,288,40950,2,0,P|368:336|296:336,1,120.000004577637
80,256,41550,5,0,0:0:0:0:
120,136,41750,1,0,0:0:0:0:
139,157,41850,1,0,0:0:0:0:
158,179,41950,1,0,0:0:0:0:
248,264,42150,2,0,P|304:304|352:288,1,95.9999970703126
432,224,42550,2,0,P|352:248|320:296,1,120.000004577637
176,336,43150,5,0,0:0:0:0:
88,248,43350,2,0,L|24:176,1,95.9999970703126
120,80,43750,2,0,L|184:152,2,95.9999970703126
128,56,44350,1,0,0:0:0:0:
328,184,44750,5,0,0:0:0:0:
360,64,44950,1,0,0:0:0:0:
248,88,45150,1,0,0:0:0:0:
216,208,45350,1,0,0:0:0:0:
304,296,45550,2,0,P|360:312|416:288,1,95.9999970703126
328,184,45950,6,0,P|224:144|152:160,1,160
80,200,46550,1,0,0:0:0:0:
152,272,46750,2,0,P|256:312|328:296,1,160
411,240,47350,1,0,0:0:0:0:
368,120,47550,2,0,P|264:80|192:96,1,160
136,152,48150,1,0,0:0:0:0:
224,200,48350,2,0,B|286:255|326:207|366:263,1,160
432,344,48950,1,0,0:0:0:0:
365,263,49150,6,0,B|309:223|357:183|293:111,1,160
208,64,49750,1,0,0:0:0:0:
176,160,49950,2,0,B|216:192|200:224|200:224|240:211|264:288,1,160
272,64,50750,2,0,B|304:104|336:88|336:88|323:128|400:152,1,160
456,224,51350,1,0,0:0:0:0:
360,272,51550,2,0,P|272:304|192:288,1,160
56,256,52150,2,0,B|16:232|88:208|56:144,1,120.000004577637
240,40,52750,5,0,0:0:0:0:
264,144,52950,1,0,0:0:0:0:
272,170,53050,1,0,0:0:0:0:
289,192,53150,1,0,0:0:0:0:
376,248,53350,1,0,0:0:0:0:
464,304,53550,2,0,P|456:352|400:360,1,80
328,344,53900,2,0,L|272:328,1,40
144,272,54350,6,0,P|88:232|72:208,1,80
64,200,54650,1,0,0:0:0:0:
48,177,54750,1,0,0:0:0:0:
48,72,54950,1,0,0:0:0:0:
66,93,55050,1,0,0:0:0:0:
88,109,55150,1,0,0:0:0:0:
408,112,55550,6,0,P|344:168|296:184,1,120.000004577637
224,232,55950,1,0,0:0:0:0:
288,304,56150,2,0,P|304:321|408:304,1,120.000004577637
464,240,56550,2,0,P|480:184|464:160,1,80
408,96,56950,1,0,0:0:0:0:
408,96,57150,2,0,L|328:144,1,80
248,192,57550,5,0,0:0:0:0:
144,256,57750,1,0,0:0:0:0:
144,256,57950,2,0,P|192:296|224:304,1,80
232,312,58250,1,0,0:0:0:0:
257,322,58350,1,0,0:0:0:0:
285,328,58450,1,0,0:0:0:0:
313,329,58550,1,0,0:0:0:0:
340,324,58650,1,0,0:0:0:0:
368,320,58750,6,0,P|440:280|440:200,1,160
400,120,59350,1,0,0:0:0:0:
400,120,59550,2,0,P|360:192|280:192,1,160
112,88,60350,2,0,P|56:104|80:216,1,160
104,280,60950,1,0,0:0:0:0:
200,232,61150,2,0,B|272:192|208:136|296:96,1,160
376,64,61750,5,0,0:0:0:0:
416,160,61950,2,0,B|400:224|440:240|440:240|384:312,1,160
312,344,62550,1,0,0:0:0:0:
216,304,62750,2,0,B|120:256|120:256|192:232,1,160
272,216,63350,1,0,0:0:0:0:
373,240,63550,2,0,B|422:256|422:256|326:304,1,160
232,344,64150,1,0,0:0:0:0:
144,288,64350,2,0,B|120:208|216:264|176:120,1,160
128,56,64950,5,0,0:0:0:0:
120,160,65150,2,0,P|160:240|224:264,1,160
328,256,65750,1,0,0:0:0:0:
248,192,65950,2,0,B|184:272|96:256,1,160
312,320,66750,2,0,L|400:344,1,80
392,240,67150,1,0,0:0:0:0:
336,152,67350,2,0,B|276:109|248:96|248:96|248:128|200:160,2,160
432,200,68350,6,0,P|464:176|392:104,1,160
304,112,68950,1,0,0:0:0:0:
281,128,69050,1,0,0:0:0:0:
259,145,69150,2,0,P|232:168|96:168,1,160
208,288,69950,2,0,P|276:326|354:318,1,160
280,248,70550,2,0,L|208:208,1,80
120,80,70950,2,0,L|189:118,1,80
352,136,71350,2,0,L|280:96,1,80
80,48,71950,6,0,L|112:128,1,80
160,216,72350,1,0,0:0:0:0:
232,296,72550,2,0,P|256:248|288:240,1,80
368,192,72950,2,0,P|344:144|312:136,1,80
128,176,73550,5,0,0:0:0:0:
136,280,73750,2,0,P|184:336|224:336,1,80
184,232,74150,1,0,0:0:0:0:
184,128,74350,2,0,P|184:96|288:32,1,160
360,240,75150,6,0,P|344:264|360:320,1,80
464,280,75550,2,0,P|474:242|456:207,1,80
376,144,75950,1,0,0:0:0:0:
272,136,76150,2,0,P|264:176|216:200,1,80
160,280,76550,2,0,P|224:304|231:322,2,80
150,277,77150,1,0,0:0:0:0:
72,208,77350,1,0,0:0:0:0:
104,112,77550,1,0,0:0:0:0:
192,56,77750,1,0,0:0:0:0:
248,144,77950,6,0,B|264:200|336:152|344:216,1,120.000004577637
328,283,78350,1,0,0:0:0:0:
232,284,78500,2,0,P|200:284|183:277,1,40
43,113,78950,1,0,0:0:0:0:
70,69,79150,1,0,0:0:0:0:
176,40,79350,6,0,P|208:88|264:112,1,120.000004577637
152,288,79950,2,0,P|176:240|208:216,2,80
256,272,80550,1,0,0:0:0:0:
352,312,80750,1,0,0:0:0:0:
416,232,80950,6,0,P|448:168|392:120,1,120
232,64,81550,2,0,L|144:64,2,80
352,248,82350,1,0,0:0:0:0:
152,248,82750,2,0,B|88:304|160:200|144:120,1,160
356,254,84300,6,0,L|376:282,2,20
112,304,85950,5,0,0:0:0:0:
200,248,86150,1,0,0:0:0:0:
152,160,86350,1,0,0:0:0:0:
256,168,86550,1,0,0:0:0:0:
296,264,86750,5,0,0:0:0:0:
200,248,86950,1,0,0:0:0:0:
96,232,87150,1,0,0:0:0:0:
48,144,87350,1,0,0:0:0:0:
40,117,87450,1,0,0:0:0:0:
47,91,87550,1,0,0:0:0:0:
432,72,89150,6,0,P|336:168|264:176,1,191.999994140625
168,160,89750,1,0,0:0:0:0:
272,88,89950,2,0,P|328:112|384:248,1,191.999994140625
392,352,90550,1,0,0:0:0:0:
328,248,90750,6,0,P|272:176|176:136,1,191.999994140625
56,112,91350,1,0,0:0:0:0:
112,224,91550,2,0,B|144:272|184:240|184:240|200:280|264:304,1,191.999994140625
392,304,92150,1,0,0:0:0:0:
328,200,92350,6,0,B|272:144|200:168|192:64,1,191.999994140625
312,40,92950,1,0,0:0:0:0:
312,73,93050,1,0,0:0:0:0:
312,104,93150,2,0,P|312:128|368:168,1,95.9999970703126
488,168,93550,2,0,P|464:168|424:224,1,95.9999970703126
416,344,93950,2,0,P|392:344|352:288,1,95.9999970703126
272,192,94350,6,0,L|192:120,2,95.9999970703126
392,224,94950,1,0,0:0:0:0:
344,112,95150,2,0,P|272:80|176:136,1,191.999994140625
328,328,95950,5,0,0:0:0:0:
224,264,96150,1,0,0:0:0:0:
193,248,96250,1,0,0:0:0:0:
163,233,96350,1,0,0:0:0:0:
416,234,96750,1,0,0:0:0:0:
216,80,97150,5,0,0:0:0:0:
424,184,97550,1,0,0:0:0:0:
320,256,97750,1,0,0:0:0:0:
295,278,97850,1,0,0:0:0:0:
264,292,97950,1,0,0:0:0:0:
144,320,98150,1,0,0:0:0:0:
80,216,98350,2,0,P|104:232|176:216,1,95.9999970703126
256,136,98750,6,0,P|280:104|376:80,1,120.000004577637
480,64,99100,2,0,L|448:136,1,47.9999985351563
440,144,99300,2,0,P|400:192|352:208,1,95.9999970703126
248,224,99700,2,0,L|168:240,1,47.9999985351563
88,176,100000,2,0,L|168:160,1,47.9999985351563
144,104,100150,2,0,L|224:88,2,47.9999985351563
432,40,100750,5,0,0:0:0:0:
416,160,100950,2,0,P|392:224|360:248,1,95.9999970703126
264,304,101350,2,0,B|232:344|232:344|208:344|168:304,1,95.9999970703126
112,232,101750,1,0,0:0:0:0:
112,104,101950,6,0,P|160:152|224:160,1,120.000004577637
304,120,102350,2,0,L|384:80,2,80
416,296,103150,1,0,0:0:0:0:
312,288,103350,1,0,0:0:0:0:
256,200,103550,1,0,0:0:0:0:
96,64,103950,6,0,P|120:96|176:112,1,80
56,144,104350,2,0,P|80:176|136:192,1,80
224,192,104750,2,0,P|192:168|176:132,1,80
272,96,105150,2,0,P|240:72|224:36,1,80
328,56,105550,5,0,0:0:0:0:
400,136,105750,1,0,0:0:0:0:
304,184,105950,1,0,0:0:0:0:
104,248,106350,5,0,0:0:0:0:
152,160,106550,1,0,0:0:0:0:
224,232,106750,1,0,0:0:0:0:
384,96,107150,6,0,P|392:136|336:192,1,80
296,240,107550,1,0,0:0:0:0:
192,216,107750,1,0,0:0:0:0:
159,210,107850,1,0,0:0:0:0:
129,193,107950,1,0,0:0:0:0:
107,168,108050,1,0,0:0:0:0:
95,138,108150,1,0,0:0:0:0:
93,104,108250,1,0,0:0:0:0:
96,72,108350,6,0,P|144:112|256:104,1,160
344,104,108950,1,0,0:0:0:0:
334,131,109050,1,0,0:0:0:0:
321,156,109150,1,0,0:0:0:0:
264,240,109350,2,0,L|208:312,2,80
352,184,109950,1,0,0:0:0:0:
176,64,110350,6,0,L|256:112,1,80
200,128,110650,2,0,L|280:176,1,80
224,200,110950,2,0,L|304:248,1,80
440,80,111550,2,0,P|416:136|360:192,1,120.000004577637
296,248,111950,5,0,0:0:0:0:
392,288,112150,2,0,P|344:256|344:200,1,80
344,136,112550,1,0,0:0:0:0:
312,104,112750,1,0,0:0:0:0:
232,168,112950,1,0,0:0:0:0:
200,128,113150,1,0,0:0:0:0:
104,80,127550,6,0,L|176:144,1,80
248,72,127950,2,0,L|320:136,1,80
392,72,128350,2,0,L|464:136,1,80
360,168,128750,1,0,0:0:0:0:
464,168,128950,1,0,0:0:0:0:
440,272,129150,6,0,L|380:325,1,80
296,272,129550,2,0,L|236:325,1,80
152,264,129950,2,0,L|92:317,1,80
80,216,130350,2,0,L|139:162,1,80
240,144,130750,6,0,L|180:197,1,80
120,112,131150,2,0,L|60:165,2,80
200,48,131750,1,0,0:0:0:0:
272,120,131950,1,0,0:0:0:0:
360,56,132150,1,0,0:0:0:0:
416,144,132350,6,0,P|448:176|464:240,1,80
424,304,132750,1,0,0:0:0:0:
344,240,132950,2,0,P|296:208|240:208,1,80
168,192,133350,1,0,0:0:0:0:
80,136,133550,1,0,0:0:0:0:
176,88,133750,1,0,0:0:0:0:
272,56,133950,6,0,P|280:120|344:160,1,120.000004577637
128,80,134550,1,0,0:0:0:0:
144,102,134650,1,0,0:0:0:0:
160,125,134750,1,0,0:0:0:0:
296,280,135150,1,0,0:0:0:0:
312,176,135350,2,0,P|312:144|248:88,1,120.000004577637
48,136,135950,6,0,L|88:208,1,80
376,312,136750,1,0,0:0:0:0:
344,216,136950,2,0,P|312:152|272:120,1,120.000004577637
48,336,137700,6,0,L|80:304,1,40
192,208,138150,1,0,0:0:0:0:
216,184,138250,2,0,L|264:144,1,40
424,48,138750,2,0,L|424:112,1,40
256,336,140300,6,0,L|256:272,1,40,2|2,0:0|3:0,0:0:0:0:
424,56,141950,6,0,L|352:144,1,80
280,160,142350,1,0,0:0:0:0:
192,104,142550,1,0,0:0:0:0:
88,88,142750,2,0,L|136:184,1,80
184,248,143150,1,0,0:0:0:0:
272,304,143350,1,0,0:0:0:0:
368,256,143550,1,0,0:0:0:0:
96,80,146750,5,0,0:0:0:0:
136,328,147150,1,0,0:0:0:0:
136,328,147350,1,0,0:0:0:0:
280,312,147550,2,0,B|392:288|392:288|304:248,1,191.999994140625
184,208,148150,1,0,0:0:0:0:
280,96,148350,2,0,P|360:32|456:88,1,191.999994140625
344,168,148950,1,0,0:0:0:0:
200,192,149150,2,0,P|128:208|88:312,1,191.999994140625
80,168,149750,1,0,0:0:0:0:
168,56,149950,6,0,B|203:85|224:72|248:72|264:128,1,120.000004577637
304,256,150350,1,0,0:0:0:0:
168,208,150550,1,0,0:0:0:0:
64,112,150750,2,0,P|64:200|160:304,1,191.999994140625
264,296,151350,1,0,0:0:0:0:
176,184,151550,6,0,B|112:96|112:96|208:112,1,191.999994140625
312,192,152150,2,0,L|400:256,1,95.9999970703126
328,120,152550,2,0,L|250:63,1,95.9999970703126
112,32,152950,2,0,P|64:72|48:144,1,120.000004577637
264,312,153550,5,0,0:0:0:0:
152,224,153750,1,0,0:0:0:0:
124,204,153850,1,0,0:0:0:0:
96,184,153950,2,0,P|64:144|56:96,1,95.9999970703126
192,152,154350,1,0,0:0:0:0:
464,64,154750,6,0,B|417:93|344:72|344:72|280:120,1,191.999994140625
152,224,155350,1,0,0:0:0:0:
128,248,155450,1,0,0:0:0:0:
104,272,155550,1,0,0:0:0:0:
48,328,155750,1,0,0:0:0:0:
48,184,155950,1,0,0:0:0:0:
56,40,156150,2,0,P|96:96|144:112,1,120.000004577637
360,88,156700,6,0,L|312:120,1,47.9999985351563
328,160,156900,2,0,L|280:200,1,47.9999985351563
176,240,157300,2,0,L|136:272,2,47.9999985351563
192,128,157750,1,0,0:0:0:0:
64,64,157950,1,0,0:0:0:0:
424,72,158300,6,0,L|376:120,1,47.9999985351563
328,240,158600,2,0,L|280:288,1,47.9999985351563
160,320,158900,2,0,L|96:280,1,47.9999985351563
29,81,159300,2,0,L|66:104,1,23.9999992675781
168,152,159550,2,0,L|256:200,1,95.9999970703126
368,240,159950,6,0,P|328:184|376:64,1,191.999994140625
192,264,160750,1,0,0:0:0:0:
88,192,160950,1,0,0:0:0:0:
192,120,161150,1,0,0:0:0:0:
408,248,161550,5,0,0:0:0:0:
304,312,161750,1,0,0:0:0:0:
288,192,161950,1,0,0:0:0:0:
72,64,162350,5,0,0:0:0:0:
152,160,162550,1,0,0:0:0:0:
232,64,162750,2,0,P|296:40|408:88,1,191.999994140625
448,200,163350,1,0,0:0:0:0:
368,296,163550,1,0,0:0:0:0:
120,280,163950,5,0,0:0:0:0:
72,160,164150,1,0,0:0:0:0:
200,160,164350,1,0,0:0:0:0:
416,288,164750,6,0,P|368:240|360:104,1,191.999994140625
280,224,165350,1,0,0:0:0:0:
263,247,165450,1,0,0:0:0:0:
243,268,165550,1,0,0:0:0:0:
220,285,165650,1,0,0:0:0:0:
195,300,165750,1,0,0:0:0:0:
168,310,165850,1,0,0:0:0:0:
144,320,165950,6,0,P|88:336|88:224,1,191.999994140625
152,144,166550,2,0,P|203:98|248:80,1,95.9999970703126
352,64,166950,1,0,0:0:0:0:
376,184,167150,1,0,0:0:0:0:
248,168,167350,1,0,0:0:0:0:
152,88,167550,6,0,L|152:184,1,95.9999970703126
96,296,167950,1,0,0:0:0:0:
200,224,168150,1,0,0:0:0:0:
120,280,168350,1,0,0:0:0:0:
224,208,168550,1,0,0:0:0:0:
96,216,168750,1,0,0:0:0:0:
200,144,168950,1,0,0:0:0:0:
320,104,169150,6,0,P|320:64|240:48,1,95.9999970703126
160,80,169550,1,0,0:0:0:0:
96,168,169750,2,0,P|120:232|216:296,1,160
296,288,170350,1,0,0:0:0:0:
368,216,170600,2,0,L|432:160,1,47.9999985351563
352,152,170800,2,0,L|416:96,1,47.9999985351563
264,104,171150,5,0,0:0:0:0:
184,200,171300,2,0,L|144:232,1,47.9999985351563
200,264,171500,2,0,L|160:296,1,47.9999985351563
104,320,171750,2,0,P|64:344|32:304,3,95.9999970703126
424,72,173150,5,0,0:0:0:0:
120,272,173750,2,0,L|216:208,1,95.9999970703126
56,48,174750,1,0,0:0:0:0:
336,280,175350,2,0,L|248:208,1,95.9999970703126
432,56,176350,5,0,0:0:0:0:
160,296,176950,2,0,L|240:224,1,95.9999970703126
456,344,177950,1,0,0:0:0:0:
208,152,178550,2,0,B|168:112|136:120|112:80,1,120.000004577637
320,56,179150,6,0,B|400:104|336:120|408:200,1,160
368,288,179750,1,0,0:0:0:0:
264,272,179950,1,0,0:0:0:0:
80,184,180300,2,0,L|128:208,1,40
272,184,180750,5,0,0:0:0:0:
184,128,180950,1,0,0:0:0:0:
272,72,181150,1,0,0:0:0:0:
168,48,181350,1,0,0:0:0:0:
96,120,181550,1,0,0:0:0:0:
256,256,181900,2,0,L|304:288,1,40
376,144,182350,6,0,L|376:240,1,80
272,224,182750,2,0,L|272:144,2,80
224,320,183350,1,0,0:0:0:0:
200,312,183450,2,0,L|160:296,1,40
256,40,185100,6,0,L|256:112,1,40
408,336,189900,6,0,L|368:304,1,40
64,72,191550,6,0,P|112:160|192:208,1,191.999994140625
408,80,192350,2,0,P|336:120|320:144,2,95.9999970703126
392,200,192950,1,0,0:0:0:0:
280,256,193150,2,0,P|216:288|168:280,1,95.9999970703126
112,192,193550,2,0,P|168:200|208:184,1,95.9999970703126
296,96,193950,2,0,P|352:88|392:104,1,95.9999970703126
464,200,194350,2,0,P|472:256|456:296,2,95.9999970703126
264,48,195150,1,0,0:0:0:0:
88,232,195550,6,0,P|48:304|48:328,2,95.9999970703126
176,144,196150,1,0,0:0:0:0:
280,208,196350,1,0,0:0:0:0:
80,64,196750,2,0,P|144:40|192:40,1,95.9999970703126
96,136,197150,2,0,P|160:112|208:112,1,95.9999970703126
112,208,197550,2,0,P|176:184|224:184,1,95.9999970703126
328,168,197950,1,0,0:0:0:0:
232,248,198150,2,0,B|160:288|84:283|84:283|304:296|336:296|336:296|392:296|432:256|432:256|384:216,1,575.999982421876
288,128,199550,6,0,P|176:64|104:80,1,191.999994140625
32,168,200150,1,0,0:0:0:0:
72,288,200350,2,0,P|120:336|248:328,1,191.999994140625
336,264,200950,2,0,P|376:232|408:168,1,120.000004577637
184,56,201550,6,0,B|288:136|160:160|320:192,1,191.999994140625
416,232,202150,1,0,0:0:0:0:
416,232,202350,2,0,P|344:296|240:296,1,191.999994140625
72,128,203150,2,0,P|104:200|208:216,1,191.999994140625
232,200,203650,1,0,0:0:0:0:
262,185,203750,1,0,0:0:0:0:
287,163,203850,1,0,0:0:0:0:
309,137,203950,1,0,0:0:0:0:
331,112,204050,1,0,0:0:0:0:
358,92,204150,1,0,0:0:0:0:
389,81,204250,1,0,0:0:0:0:
416,72,204350,6,0,B|456:40|460:81|472:216,1,160
448,288,204950,1,0,0:0:0:0:
344,272,205150,2,0,P|256:272|200:336,2,160
424,80,206350,6,0,B|328:96|328:40|248:40,1,160
168,48,206950,1,0,0:0:0:0:
256,104,207150,2,0,B|312:128|344:160|424:144,1,160
208,200,207950,1,0,0:0:0:0:
208,200,208150,2,0,P|264:208|336:256,2,120
104,200,208950,1,0,0:0:0:0:
96,96,209150,2,0,P|128:112|152:160,1,80
152,256,209550,6,0,P|152:320|248:328,1,160
328,304,210150,1,0,0:0:0:0:
376,208,210350,1,0,0:0:0:0:
304,128,210550,2,0,P|255:99|192:120,1,120.000004577637
392,40,211150,5,0,0:0:0:0:
280,152,211450,1,0,0:0:0:0:
264,168,211550,1,0,0:0:0:0:
224,208,211750,1,0,0:0:0:0:
184,248,211950,1,0,0:0:0:0:
136,272,212150,2,0,P|72:280|80:136,1,240
224,136,212950,5,0,0:0:0:0:
250,148,213050,1,0,0:0:0:0:
272,164,213150,2,0,P|304:196|320:264,2,80
56,72,213850,2,0,P|40:128|80:176,1,120.000004577637
208,248,214350,5,0,0:0:0:0:
280,176,214500,2,0,L|328:128,1,40
296,304,214900,2,0,L|267:332,1,40
280,176,215350,1,0,0:0:0:0:
280,176,215550,2,0,P|200:168|128:112,1,160
48,64,216150,1,0,0:0:0:0:
48,72,216350,2,0,L|64:152,1,80
72,176,216650,5,0,0:0:0:0:
81,202,216750,1,0,0:0:0:0:
93,227,216850,1,0,0:0:0:0:
108,251,216950,1,0,0:0:0:0:
126,272,217050,1,0,0:0:0:0:
147,292,217150,2,0,P|195:305|328:296,1,160
392,240,217750,5,0,0:0:0:0:
392,240,217950,2,0,P|312:200|272:128,1,160
88,48,218750,2,0,P|64:96|64:144,1,80
72,224,219150,1,0,0:0:0:0:
152,288,219350,1,0,0:0:0:0:
152,288,219550,2,0,P|200:312|240:312,1,80
328,304,219950,6,0,B|408:264|408:264|336:232,1,160
168,128,220750,1,0,0:0:0:0:
104,80,220950,1,0,0:0:0:0:
40,32,221150,1,0,0:0:0:0:
48,192,221550,1,0,0:0:0:0:
208,328,221950,6,0,P|260:322|304:296,1,80
352,232,222350,1,0,0:0:0:0:
216,80,222750,2,0,L|216:176,1,80
216,264,223150,5,0,0:0:0:0:
280,216,223350,1,0,0:0:0:0:
344,168,223550,1,0,0:0:0:0:
136,168,223950,1,0,0:0:0:0:
136,248,224150,1,0,0:0:0:0:
136,328,224350,1,0,0:0:0:0:
344,328,224700,2,0,L|376:304,1,40
376,152,225150,6,0,P|352:72|256:48,1,160
184,40,225750,1,0,0:0:0:0:
160,40,225850,1,0,0:0:0:0:
136,40,225950,2,0,B|8:32|32:96|72:152,1,160
72,152,226450,2,0,L|120:224,1,80
144,248,226750,2,0,P|200:304|304:296,1,160
360,248,227350,2,0,L|432:184,2,80
280,320,227950,1,0,0:0:0:0:
112,200,228350,6,0,P|88:160|176:112,1,160
192,112,228850,1,0,0:0:0:0:
216,126,228950,1,0,0:0:0:0:
416,72,229350,5,0,0:0:0:0:
399,94,229450,1,0,0:0:0:0:
384,118,229550,2,0,P|344:166|280:214,1,120
272,208,229950,2,0,P|200:232|176:320,2,160
464,120,231150,2,0,L|400:224,1,120
256,192,231550,12,0,232750,0:0:0:0:
269,200,232950,5,0,0:0:0:0:
288,219,233050,1,0,0:0:0:0:
308,239,233150,1,0,0:0:0:0:
