osu file format v14

[General]
AudioFilename: KawaiiSong.mp3
AudioLeadIn: 0
PreviewTime: 79328
Countdown: 0
SampleSet: Soft
StackLeniency: 0.7
Mode: 0
LetterboxInBreaks: 1
WidescreenStoryboard: 0

[Editor]
DistanceSpacing: 1
BeatDivisor: 2
GridSize: 4
TimelineZoom: 1

[Metadata]
Title:KawaiiStep
TitleUnicode:KawaiiStep
Artist:Alex Skrindo & Geoxor
ArtistUnicode:Alex Skrindo & Geoxor
Creator:Zyl
Version:Normal
Source:
Tags:Jonawaga Electro NoCopyright DiversityPromotions Diversity Highscore GD osu dupstep bass awesome system bigroom drumstep bounce house electrohouse funk dance harddance electrohouse cool customBGs compressed
BeatmapID:980907
BeatmapSetID:457771

[Difficulty]
HPDrainRate:4
CircleSize:2
OverallDifficulty:4
ApproachRate:4
SliderMultiplier:1
SliderTickRate:1

[Events]
//Background and Video events
0,0,"FraisesBG.png",0,0
//Break Periods
2,23013,32787
//Storyboard Layer 0 (Background)
//Storyboard Layer 1 (Fail)
//Storyboard Layer 2 (Pass)
//Storyboard Layer 3 (Foreground)
//Storyboard Sound Samples

[TimingPoints]
225,352.941176470588,4,2,0,100,1,0
34063,-100,4,2,0,100,0,0
37945,-100,4,2,0,100,0,0
41122,-100,4,2,0,100,0,0
43239,-100,4,2,0,100,0,0
45357,-100,4,2,0,100,0,0
48180,-100,4,2,0,100,0,0
56695,-100,4,2,0,100,0,1
67989,-100,4,1,0,100,0,0
68342,-100,4,2,0,100,0,1
78930,-100,4,1,0,100,0,0
79283,-100,4,2,0,100,0,1
90577,-100,4,1,0,100,0,0
90930,-100,4,2,0,100,0,1
100460,-100,4,2,0,100,0,0

[Colours]
Combo1 : 255,45,45
Combo2 : 255,72,255
Combo3 : 120,120,252
Combo4 : 255,145,255

[HitObjects]
45,53,225,6,0,B|130:120|110:237|110:237|197:174,1,300,0|2,0:0|0:0,0:0:0:0:
184,80,1636,2,0,P|281:195|188:284,1,300,0|2,0:0|0:0,0:0:0:0:
107,340,3048,6,0,B|78:189|78:189|106:14,1,300,0|2,0:0|0:0,0:0:0:0:
189,81,4460,2,0,B|285:167|394:111|394:111|368:203,1,300,0|2,0:0|0:0,0:0:0:0:
343,281,5872,6,0,P|250:345|268:218,1,300,0|2,0:0|0:0,0:0:0:0:
307,131,7283,2,0,P|187:155|123:322,1,300,0|2,0:0|0:0,0:0:0:0:
212,301,8695,6,0,B|247:284|248:236|248:236|389:261|430:134,1,300,0|2,0:0|0:0,0:0:0:0:
380,55,10107,2,0,P|245:34|51:140,1,300,0|2,0:0|0:0,0:0:0:0:
66,189,11519,6,0,B|75:342|75:342|118:269|245:270,1,300,0|2,0:0|0:0,0:0:0:0:
279,330,12930,2,0,B|321:235|232:176|232:176|312:184|354:118,1,300,0|2,0:0|0:0,0:0:0:0:
432,179,14342,6,0,P|399:53|254:86,1,300,0|2,0:0|0:0,0:0:0:0:
215,169,15754,2,0,P|155:278|87:148,1,300,0|2,0:0|0:0,0:0:0:0:
120,92,17166,6,0,B|274:71|274:71|396:151,1,300,0|2,0:0|0:0,0:0:0:0:
478,205,18577,2,0,B|410:274|334:224|334:224|314:285|250:334,1,300,0|2,0:0|0:0,0:0:0:0:
150,337,19989,6,0,B|126:185|126:185|147:34,1,300,0|2,0:0|0:0,0:0:0:0:
246,31,21401,2,0,P|376:71|328:212,1,300,0|2,0:0|0:0,0:0:0:0:
288,120,22813,1,4,0:0:0:0:
66,95,34107,6,2,P|123:102|206:94,1,100
265,93,34813,1,2,0:0:0:0:
358,129,35166,1,0,0:0:0:0:
385,170,35342,2,0,P|381:238|352:302,1,100
278,306,36048,1,0,0:0:0:0:
236,332,36224,2,8,P|183:346|126:332,1,100
184,248,36930,6,2,P|152:195|162:118,1,100
248,173,37636,2,0,B|283:169|283:169|325:176|325:176|382:164,1,100,8|0,0:0|0:0,0:0:0:0:
395,158,38166,2,0,L|467:78,1,100
326,19,39048,6,0,B|275:29|275:29|231:49|231:49|177:40|177:40|101:44,1,200,0|2,0:0|0:0,0:0:0:0:
60,112,40107,2,8,P|60:169|87:211,1,100
156,138,40813,1,8,0:0:0:0:
255,141,41166,2,2,B|309:136|309:136|399:155|399:155|461:149,1,200
503,236,42224,1,0,0:0:0:0:
467,329,42577,6,2,B|440:361|390:364|390:364|361:327|300:304,2,150,2|2|0,0:0|0:0|0:0,0:0:0:0:
405,249,43989,2,0,B|385:244|356:207|356:207|306:210|280:242,2,150,2|2|0,0:0|0:0|0:0,0:0:0:0:
439,343,45401,5,4,0:0:0:0:
496,258,45754,2,8,P|486:208|441:172,1,100
363,127,46460,1,2,0:0:0:0:
264,145,46813,2,8,P|222:171|197:214,1,100
294,235,47519,6,2,B|319:259|319:259|344:295|344:295|371:317,1,100
457,285,48224,2,8,P|477:232|470:172,1,100
389,137,48930,1,8,0:0:0:0:
288,137,49283,1,8,0:0:0:0:
187,171,49636,6,0,B|208:227|208:227|200:306|200:306|222:374,1,200,4|8,0:0|0:0,0:0:0:0:
318,370,50695,1,8,0:0:0:0:
256,192,51048,12,0,55283,0:0:0:0:
78,87,56695,6,4,P|170:128|283:82,1,200,4|2,0:0|0:0,0:0:0:0:
332,31,57754,1,8,0:0:0:0:
357,127,58107,2,2,P|321:173|270:197,1,100
187,213,58813,2,8,P|121:230|84:279,1,100
181,312,59519,6,4,B|256:301|256:301|312:309|312:309|382:301,1,200,4|2,0:0|0:0,0:0:0:0:
450,230,60577,1,8,0:0:0:0:
359,187,60930,2,8,B|326:183|279:201|243:189,1,100
174,139,61636,2,2,P|123:139|54:119,1,100
135,47,62342,6,4,B|234:45|234:45|332:80|332:80|438:76,1,300,4|2,0:0|0:0,0:0:0:0:
487,157,63754,1,8,0:0:0:0:
481,256,64107,1,8,0:0:0:0:
393,303,64460,2,2,P|337:310|276:348,1,100
199,309,65166,6,8,B|153:294|153:294|88:291|88:291|26:272,2,150
297,292,66577,2,8,B|343:307|343:307|408:310|408:310|470:329,2,150
207,246,67989,1,2,0:0:0:0:
128,184,68342,6,4,P|216:146|296:200,1,200,4|2,0:0|0:0,0:0:0:0:
323,293,69401,1,8,0:0:0:0:
419,318,69754,1,8,0:0:0:0:
421,218,70107,2,2,B|429:187|410:141|416:110,1,100
361,33,70813,6,4,B|299:33|299:33|234:53|234:53|154:44,1,200,4|2,0:0|0:0,0:0:0:0:
64,34,71872,1,8,0:0:0:0:
64,133,72224,6,8,B|94:195|57:273|94:357,1,200
181,357,73283,1,8,0:0:0:0:
256,291,73636,6,4,P|290:247|353:209,1,100,4|8,0:0|0:0,0:0:0:0:
419,185,74342,2,8,P|463:151|488:84,1,100
383,91,75048,2,8,B|314:123|237:90|237:90|211:161|123:173,1,300,4|2,0:0|0:0,0:0:0:0:
23,164,76460,6,8,P|37:223|120:277,2,150
123,173,77872,2,8,P|109:114|29:59,2,150,8|8|10,0:0|0:0|0:0,0:0:0:0:
191,246,79283,6,4,P|249:244|310:220,1,100,4|8,0:0|0:0,0:0:0:0:
367,168,79989,2,2,P|399:124|460:100,1,100
463,200,80695,6,8,P|435:240|392:265,1,100
362,360,81401,2,2,P|319:334|292:274,1,100
259,195,82107,5,4,0:0:0:0:
197,116,82460,2,8,P|148:90|97:87,1,100
33,157,83166,2,2,B|61:217|61:217|113:258|113:258|139:333,1,200
234,309,84224,2,8,P|274:291|316:242,1,100
362,163,84930,6,4,P|383:114|440:74,1,100,4|2,0:0|0:0,0:0:0:0:
460,174,85636,1,8,0:0:0:0:
427,268,85989,1,8,0:0:0:0:
335,308,86342,2,8,B|304:293|304:293|265:291|265:291|236:281,1,100
163,217,87048,2,8,P|139:164|150:105,1,100
238,152,87754,6,2,B|287:151|287:151|337:167|337:167|397:160,2,150
164,215,89166,2,2,B|115:214|115:214|65:230|65:230|5:223,2,150
259,245,90577,1,2,0:0:0:0:
284,341,90930,6,4,P|331:313|359:248,1,100,4|2,0:0|0:0,0:0:0:0:
357,174,91636,1,8,0:0:0:0:
299,92,91989,2,8,P|251:80|172:78,1,100
105,109,92695,2,2,P|91:177|99:231,1,100
107,306,93401,5,8,0:0:0:0:
205,320,93754,2,2,B|237:313|237:313|283:318|283:318|340:309,1,100
388,261,94460,1,8,0:0:0:0:
427,169,94813,2,2,P|394:127|327:101,1,100
253,94,95519,1,8,0:0:0:0:
152,93,95872,1,8,0:0:0:0:
88,170,96224,6,2,P|67:224|76:302,1,100
118,350,96930,1,8,0:0:0:0:
217,356,97283,1,8,0:0:0:0:
305,308,97636,2,2,B|322:273|365:259|373:220,1,100
349,133,98342,1,8,0:0:0:0:
262,82,98695,1,8,0:0:0:0:
161,94,99048,6,2,B|132:142|90:162|90:162|105:213,2,150
262,82,100460,1,2,0:0:0:0:
362,83,100813,2,2,P|394:129|401:180,1,100
337,248,101519,1,0,0:0:0:0:
