osu file format v14

[General]
AudioFilename: KawaiiSong.mp3
AudioLeadIn: 0
PreviewTime: 79328
Countdown: 0
SampleSet: Soft
StackLeniency: 0.7
Mode: 0
LetterboxInBreaks: 1
WidescreenStoryboard: 0

[Editor]
DistanceSpacing: 1
BeatDivisor: 4
GridSize: 4
TimelineZoom: 1.9

[Metadata]
Title:KawaiiStep
TitleUnicode:KawaiiStep
Artist:Alex Skrindo & Geoxor
ArtistUnicode:Alex Skrindo & Geoxor
Creator:Zyl
Version:Hard
Source:
Tags:Jonawaga Electro NoCopyright DiversityPromotions Diversity Highscore GD osu dupstep bass awesome system bigroom drumstep bounce house electrohouse funk dance harddance electrohouse cool customBGs compressed
BeatmapID:980905
BeatmapSetID:457771

[Difficulty]
HPDrainRate:7
CircleSize:3
OverallDifficulty:7
ApproachRate:7
SliderMultiplier:1.6
SliderTickRate:1

[Events]
//Background and Video events
0,0,"WhiteSwanBG.png",0,0
//Break Periods
2,23013,33207
//Storyboard Layer 0 (Background)
//Storyboard Layer 1 (Fail)
//Storyboard Layer 2 (Pass)
//Storyboard Layer 3 (Foreground)
//Storyboard Sound Samples

[TimingPoints]
225,352.941176470588,4,2,0,100,1,0
34063,-100,4,2,0,50,0,0
37945,-100,4,2,0,60,0,0
41122,-100,4,2,0,70,0,0
43239,-100,4,2,0,80,0,0
45357,-100,4,2,0,90,0,0
48180,-100,4,2,0,100,0,0
56695,-100,4,2,0,100,0,1
67989,-100,4,1,0,100,0,0
68342,-100,4,2,0,100,0,1
78930,-100,4,1,0,100,0,0
79283,-100,4,2,0,100,0,1
90577,-100,4,1,0,100,0,0
90930,-100,4,2,0,100,0,1
100460,-100,4,2,0,100,0,0

[Colours]
Combo1 : 53,189,255
Combo2 : 255,145,255
Combo3 : 255,128,128
Combo4 : 128,128,255

[HitObjects]
81,58,225,6,0,L|54:228,1,160
132,238,754,2,0,P|176:177|267:187,1,160
214,248,1283,1,2,0:0:0:0:
356,293,1636,6,0,P|428:273|449:180,1,160
374,212,2166,2,0,L|337:51,1,160
264,23,2695,1,2,0:0:0:0:
115,82,3048,6,0,B|93:136|134:194|101:260,1,160
39,280,3577,2,0,P|94:319|187:264,1,160
227,228,4107,2,0,P|228:186|237:142,1,80,2|0,0:0|0:0,0:0:0:0:
327,105,4460,6,0,P|326:147|317:191,1,80
303,264,4813,2,0,P|295:303|294:343,1,80
386,299,5166,2,0,P|393:259|394:219,1,80
327,105,5519,1,2,0:0:0:0:
223,115,5872,6,0,B|175:141|175:141|142:182|142:182|92:205,1,160
29,156,6401,2,0,P|18:233|86:285,1,160
155,287,6930,1,2,0:0:0:0:
275,181,7283,6,0,B|317:147|317:147|371:133|371:133|411:99,1,160
489,105,7813,2,0,P|461:39|377:27,1,160
307,60,8342,1,2,0:0:0:0:
213,189,8695,6,0,L|242:282,1,80
332,273,9048,2,0,L|308:195,1,80
390,151,9401,2,0,L|419:244,1,80
482,147,9754,2,0,L|450:55,1,80,2|0,0:0|0:0,0:0:0:0:
379,47,10107,6,0,P|328:38|276:46,1,80
238,119,10460,2,0,P|198:120|159:112,1,80
95,37,10813,2,0,P|54:24|-3:47,1,80
53,103,11166,1,2,0:0:0:0:
98,256,11519,6,0,B|138:256|177:272|177:272|217:256|261:256,1,160
288,328,12048,2,0,P|324:293|299:191,1,160
230,162,12577,1,2,0:0:0:0:
79,106,12930,6,0,P|164:99|199:25,1,160
118,35,13460,2,0,L|208:177,1,160
272,210,13989,1,2,0:0:0:0:
421,153,14342,6,0,P|429:203|421:258,1,80
345,289,14695,2,0,P|337:239|345:184,1,80
249,167,15048,2,0,P|257:217|249:272,1,80
173,303,15401,2,0,P|165:253|173:198,1,80,2|0,0:0|0:0,0:0:0:0:
68,210,15754,6,0,P|92:165|132:127,1,80
56,68,16107,2,0,P|104:51|159:50,1,80
225,84,16460,2,0,P|264:100|330:107,1,80
399,90,16813,1,2,0:0:0:0:
417,249,17166,6,0,B|365:265|365:265|305:257|305:257|245:277,1,160
224,341,17695,2,0,P|183:287|222:202,1,160
268,150,18224,1,2,0:0:0:0:
406,69,18577,6,0,L|381:237,1,160
370,307,19107,2,0,P|361:238|297:162,1,160
229,144,19636,1,2,0:0:0:0:
70,169,19989,6,0,B|54:226|54:226|59:268|59:268|48:335,1,160
129,333,20519,2,0,P|171:268|259:272,1,160
215,342,21048,2,0,L|304:358,1,80,2|0,0:0|0:0,0:0:0:0:
367,320,21401,6,0,B|378:268|378:268|365:214|365:214|376:152,1,160
442,120,21930,2,0,P|373:82|296:139,1,160
268,190,22460,2,0,P|261:244|237:286,1,80,2|0,0:0|0:0,0:0:0:0:
154,301,22813,1,4,0:0:0:0:
68,142,34107,6,0,B|116:153|116:153|185:150|185:150|233:164,1,160,4|0,0:0|0:0,0:0:0:0:
342,271,34813,2,0,P|412:239|418:157,1,160,2|0,0:0|0:0,0:0:0:0:
345,191,35342,2,2,B|306:184|306:184|244:206|183:135,1,160
90,33,36048,5,8,0:0:0:0:
49,101,36224,2,8,P|44:177|126:224,1,160
120,144,36754,1,8,0:0:0:0:
189,110,36930,2,8,B|238:106|238:106|295:125|295:125|356:118,1,160
398,192,37636,6,0,P|395:280|315:313,1,160,2|0,0:0|0:0,0:0:0:0:
328,233,38166,2,0,P|245:206|167:269,1,160,2|2,0:0|0:0,0:0:0:0:
292,363,38872,1,8,0:0:0:0:
262,289,39048,2,8,B|262:231|262:231|239:186|239:186|239:125,1,160
281,60,39577,1,8,0:0:0:0:
356,86,39754,6,8,B|370:139|332:191|356:248,1,160,4|8,0:0|0:0,0:0:0:0:
469,355,40460,2,2,P|396:384|334:333,1,160
354,244,40989,1,4,0:0:0:0:
354,244,41166,2,2,B|327:197|327:197|278:175|278:175|238:131,1,160
203,60,41695,5,8,0:0:0:0:
123,19,41872,2,8,P|113:64|128:110,1,80
31,137,42224,2,8,P|55:168|91:187,1,80
196,186,42577,2,0,P|274:172|330:226,1,160,4|0,0:0|0:0,0:0:0:0:
252,250,43107,2,0,B|201:269|201:269|148:268|148:268|93:291,1,160,4|2,0:0|0:0,0:0:0:0:
24,332,43636,6,8,P|14:283|33:228,1,80
162,124,43989,2,0,P|228:157|306:110,1,160,4|0,0:0|0:0,0:0:0:0:
231,77,44519,1,4,0:0:0:0:
231,77,44695,2,0,B|245:130|207:182|231:239,1,160,2|0,0:0|0:0,0:0:0:0:
289,287,45224,1,0,0:0:0:0:
318,212,45401,6,4,P|328:173|345:137,1,80,4|0,0:0|0:0,0:0:0:0:
419,170,45754,2,0,P|408:208|391:244,1,80,2|0,0:0|0:0,0:0:0:0:
289,287,46107,2,0,P|212:291|164:218,1,160,2|0,0:0|0:0,0:0:0:0:
248,218,46636,1,8,0:0:0:0:
248,218,46813,2,0,B|261:171|261:171|251:115|251:115|264:60,1,160,4|0,0:0|0:0,0:0:0:0:
339,35,47342,5,8,0:0:0:0:
405,79,47519,2,8,P|400:123|378:161,1,80
346,225,47872,2,8,P|326:259|324:300,1,80
402,282,48224,1,4,0:0:0:0:
263,144,48577,1,8,0:0:0:0:
189,286,48930,2,0,P|116:257|100:175,1,160,8|0,0:0|0:0,0:0:0:0:
182,205,49460,5,0,0:0:0:0:
182,205,49636,2,0,B|224:169|224:169|242:120|242:120|290:77,1,160,4|0,0:0|0:0,0:0:0:0:
361,86,50166,1,0,0:0:0:0:
425,132,50342,2,0,P|426:208|357:250,1,160
355,169,50872,1,0,0:0:0:0:
355,169,51048,6,0,P|309:158|270:160,1,80,4|0,0:0|0:0,0:0:0:0:
199,181,51401,1,0,0:0:0:0:
209,353,51754,6,0,P|281:329|299:236,1,160,8|0,0:0|0:0,0:0:0:0:
216,266,52283,1,0,0:0:0:0:
199,181,52460,2,0,B|378:159,1,160,4|0,0:0|0:0,0:0:0:0:
422,90,52989,1,0,0:0:0:0:
357,161,53166,6,0,L|361:271,1,80
445,263,53519,2,0,L|448:343,1,80
256,192,53872,12,0,55989,0:0:0:0:
63,97,56695,6,4,P|122:142|219:113,1,160
262,75,57224,1,0,0:0:0:0:
308,179,57401,2,0,L|287:353,1,160,4|2,0:0|0:0,0:0:0:0:
385,354,57930,6,8,P|450:311|442:215,1,160
381,271,58460,1,0,0:0:0:0:
325,213,58636,1,2,0:0:0:0:
278,147,58813,2,4,P|244:219|313:294,1,160
385,354,59342,1,8,0:0:0:0:
381,271,59519,6,0,P|404:236|416:178,1,80,4|0,0:0|0:0,0:0:0:0:
336,80,59872,2,0,B|284:93|284:93|230:90|230:90|174:111,1,160,4|4,0:0|0:0,0:0:0:0:
85,314,60577,2,2,P|84:275|92:236,1,80
160,192,60930,2,0,B|211:189|211:189|264:201|264:201|343:197,1,160,4|2,0:0|0:0,0:0:0:0:
422,172,61460,5,8,0:0:0:0:
388,249,61636,1,8,0:0:0:0:
474,241,61813,2,4,B|471:274|484:308|474:341,1,80,4|2,0:0|0:0,0:0:0:0:
422,172,62166,2,4,B|415:159|428:125|425:92,1,80,4|2,0:0|0:0,0:0:0:0:
388,249,62695,5,4,0:0:0:0:
175,206,63048,2,0,P|103:227|86:310,1,160,4|0,0:0|0:0,0:0:0:0:
161,283,63577,2,4,B|210:290|210:290|273:276|273:276|321:279,1,160
467,216,64283,6,8,P|478:174|478:123,1,80
404,110,64636,2,8,P|365:118|312:112,1,80
249,88,64989,1,8,0:0:0:0:
133,172,65166,6,2,B|123:229|123:229|132:289|132:289|117:342,1,160,2|4,0:0|0:0,0:0:0:0:
212,226,65695,2,0,P|248:209|283:171,1,80
249,88,66048,2,0,P|303:90|353:77,1,80,4|0,0:0|0:0,0:0:0:0:
397,26,66401,1,2,0:0:0:0:
413,115,66577,6,2,B|423:172|423:172|414:232|414:232|429:285,1,160,2|4,0:0|0:0,0:0:0:0:
357,322,67107,1,0,0:0:0:0:
248,204,67460,1,0,0:0:0:0:
169,187,67636,2,8,P|132:219|107:261,1,80
137,321,67989,1,2,0:0:0:0:
296,336,68342,6,4,B|318:291|318:291|324:230|324:230|347:155,1,160
243,40,69048,1,2,0:0:0:0:
331,33,69224,2,4,P|298:110|208:122,1,160
74,82,69930,6,0,L|63:172,1,80
57,241,70283,1,0,0:0:0:0:
75,319,70460,1,2,0:0:0:0:
160,331,70636,1,2,0:0:0:0:
160,331,70813,6,4,P|231:342|285:264,1,160
204,264,71342,1,0,0:0:0:0:
209,183,71519,2,0,B|230:131|210:91|210:91|237:50|273:124,1,160,4|8,0:0|0:0,0:0:0:0:
298,170,72048,2,4,P|376:191|454:132,1,160
208,98,72754,6,8,P|223:148|210:210,1,80
135,152,73107,2,8,P|106:177|56:193,1,80
62,101,73460,1,8,0:0:0:0:
104,33,73636,2,0,P|179:8|266:44,1,160,4|4,0:0|0:0,0:0:0:0:
445,164,74342,6,4,L|387:329,1,160
346,381,74872,2,4,P|350:302|288:244,1,160
183,359,75577,5,8,0:0:0:0:
183,359,75754,2,8,P|231:340|280:339,1,80
338,343,76107,2,8,P|385:344|432:326,1,80
502,218,76460,6,2,P|481:141|402:121,1,160
422,199,76989,2,0,L|349:286,1,80
241,288,77342,2,0,L|293:227,1,80
342,153,77695,1,8,0:0:0:0:
262,145,77872,6,2,B|215:120|215:120|175:63|175:63|131:34,1,160
67,67,78401,2,0,L|78:157,1,80
152,171,78754,2,0,L|163:261,1,80,0|2,0:0|0:0,0:0:0:0:
321,237,79283,6,0,P|328:194|314:136,1,80,8|0,0:0|0:0,0:0:0:0:
322,78,79636,2,4,P|262:99|247:195,1,160
288,355,80342,2,4,L|185:339,1,80,4|2,0:0|0:0,0:0:0:0:
252,276,80695,6,4,P|198:347|110:321,1,160,4|2,0:0|0:0,0:0:0:0:
172,271,81224,1,8,0:0:0:0:
172,271,81401,2,8,P|141:242|93:222,1,80
36,263,81754,2,8,L|53:172,1,80
67,105,82107,6,4,P|105:44|203:55,2,160
173,224,83166,1,2,0:0:0:0:
166,145,83342,2,4,P|245:191|240:264,1,160
110,322,84048,5,8,0:0:0:0:
77,249,84224,2,8,P|68:209|89:155,1,80
9,130,84577,2,8,P|38:101|94:90,1,80
154,99,84930,2,4,B|201:112|201:112|270:111|270:111|325:120,2,160
16,181,85989,2,8,P|12:216|50:272,1,80
34,336,86342,6,0,P|89:314|98:214,1,160,4|0,0:0|0:0,0:0:0:0:
25,102,86872,1,8,0:0:0:0:
87,41,87048,2,8,P|134:41|191:59,1,80
156,130,87401,2,8,P|193:158|226:208,1,80
179,257,87754,6,2,P|281:232|257:112,2,240
117,204,88989,1,8,0:0:0:0:
112,123,89166,6,2,B|188:99|188:99|202:39|279:15|328:64,2,240
45,167,90401,1,0,0:0:0:0:
28,244,90577,1,2,0:0:0:0:
156,339,90930,6,0,P|238:336|275:264,2,160,4|4|4,0:0|0:0|0:0,0:0:0:0:
192,267,91813,1,4,0:0:0:0:
192,267,91989,2,4,P|135:218|170:118,1,160,0|4,0:0|0:0,0:0:0:0:
210,187,92519,5,8,0:0:0:0:
273,139,92695,2,8,P|322:128|366:134,1,80
367,208,93048,2,8,P|407:237|432:273,1,80
368,316,93401,2,4,B|338:315|321:328|321:328|297:347|297:347|276:327|276:327|246:341|212:330,2,160
443,172,94460,2,8,P|437:127|404:70,1,80
467,28,94813,2,0,P|399:17|340:84,1,160,2|4,0:0|0:0,0:0:0:0:
353,157,95342,5,8,0:0:0:0:
316,228,95519,2,8,P|265:251|209:254,1,80
217,178,95872,2,8,P|167:151|131:108,1,80
181,61,96224,2,4,P|122:58|70:150,2,160
332,118,97283,1,8,0:0:0:0:
373,49,97460,2,4,P|413:121|371:190,1,160
226,296,98166,5,8,0:0:0:0:
163,246,98342,2,8,P|127:213|108:180,1,80
165,77,98695,2,8,P|169:116|184:154,1,80
241,210,99048,6,2,B|310:206|310:206|403:216|403:216|483:202,2,240
180,262,100283,1,8,0:0:0:0:
104,235,100460,2,2,P|61:173|103:89,1,160
299,141,101166,2,2,B|243:147|243:147|189:167|189:167|132:162,1,160,2|0,0:0|0:0,0:0:0:0:
