osu file format v14

[General]
AudioFilename: KawaiiSong.mp3
AudioLeadIn: 0
PreviewTime: 79328
Countdown: 0
SampleSet: Soft
StackLeniency: 0.7
Mode: 0
LetterboxInBreaks: 1
WidescreenStoryboard: 1

[Editor]
DistanceSpacing: 1
BeatDivisor: 4
GridSize: 8
TimelineZoom: 2.4

[Metadata]
Title:KawaiiStep
TitleUnicode:KawaiiStep
Artist:Alex Skrindo & Geoxor
ArtistUnicode:Alex Skrindo & Geoxor
Creator:Zyl
Version:Extra
Source:
Tags:Jonawaga Electro NoCopyright DiversityPromotions Diversity Highscore GD osu dupstep bass awesome system bigroom drumstep bounce house electrohouse funk dance harddance electrohouse cool customBGs compressed
BeatmapID:980904
BeatmapSetID:457771

[Difficulty]
HPDrainRate:9
CircleSize:5
OverallDifficulty:9
ApproachRate:9
SliderMultiplier:1.8
SliderTickRate:1

[Events]
//Background and Video events
0,0,"StayBG.png",0,0
//Break Periods
2,23013,33507
//Storyboard Layer 0 (Background)
//Storyboard Layer 1 (Fail)
//Storyboard Layer 2 (Pass)
//Storyboard Layer 3 (Foreground)
//Storyboard Sound Samples

[TimingPoints]
225,352.941176470588,4,2,0,100,1,0
34063,-100,4,2,0,50,0,0
37945,-100,4,2,0,60,0,0
41122,-100,4,2,0,70,0,0
43239,-100,4,2,0,80,0,0
45357,-100,4,2,0,90,0,0
48180,-100,4,2,0,100,0,0
56695,-100,4,2,0,100,0,1
67989,-100,4,1,0,100,0,0
68342,-100,4,2,0,100,0,1
78930,-100,4,1,0,100,0,0
79283,-100,4,2,0,100,0,1
90577,-100,4,1,0,100,0,0
90930,-100,4,2,0,100,0,1
100460,-100,4,2,0,100,0,0

[Colours]
Combo1 : 166,0,166
Combo2 : 0,128,128
Combo3 : 255,139,23
Combo4 : 255,128,128

[HitObjects]
37,46,225,5,0,0:0:0:0:
119,93,401,1,0,0:0:0:0:
209,73,577,1,0,0:0:0:0:
284,122,753,1,0,0:0:0:0:
277,206,930,2,0,P|330:192|358:82,1,180,0|2,0:0|0:0,0:0:0:0:
284,122,1636,5,0,0:0:0:0:
364,288,1813,1,0,0:0:0:0:
364,103,1989,1,0,0:0:0:0:
284,270,2166,1,0,0:0:0:0:
429,155,2342,1,0,0:0:0:0:
248,196,2519,1,0,0:0:0:0:
429,238,2695,1,2,0:0:0:0:
115,281,3048,5,0,0:0:0:0:
176,130,3224,1,0,0:0:0:0:
305,245,3401,1,0,0:0:0:0:
110,188,3577,1,0,0:0:0:0:
268,153,3753,1,0,0:0:0:0:
216,317,3930,1,0,0:0:0:0:
362,183,4107,1,2,0:0:0:0:
253,64,4283,1,0,0:0:0:0:
194,220,4460,5,0,0:0:0:0:
354,92,4636,1,0,0:0:0:0:
305,245,4812,1,0,0:0:0:0:
176,130,4989,1,0,0:0:0:0:
362,183,5166,1,0,0:0:0:0:
216,317,5342,1,0,0:0:0:0:
390,289,5519,1,2,0:0:0:0:
306,257,5872,6,0,P|371:210|477:261,1,180
390,289,6401,1,0,0:0:0:0:
300,133,6577,1,0,0:0:0:0:
254,210,6754,1,0,0:0:0:0:
435,211,6930,1,2,0:0:0:0:
282,305,7283,6,0,B|247:345|203:362|203:362|167:344|98:353,1,180
44,295,7813,1,0,0:0:0:0:
162,127,7989,1,0,0:0:0:0:
282,305,8166,1,0,0:0:0:0:
99,203,8342,1,2,0:0:0:0:
371,228,8695,6,0,B|313:229|313:229|253:239|253:239|185:242,1,180
21,288,9224,1,0,0:0:0:0:
120,116,9401,1,0,0:0:0:0:
151,314,9577,1,0,0:0:0:0:
0,170,9754,1,2,0:0:0:0:
187,201,9931,1,0,0:0:0:0:
396,296,10107,5,0,0:0:0:0:
247,99,10283,1,0,0:0:0:0:
416,146,10460,1,0,0:0:0:0:
266,302,10636,1,0,0:0:0:0:
321,140,10813,1,0,0:0:0:0:
490,112,10990,1,0,0:0:0:0:
396,296,11166,1,2,0:0:0:0:
321,140,11519,5,0,0:0:0:0:
242,84,11695,1,0,0:0:0:0:
137,72,11872,1,0,0:0:0:0:
204,176,12048,1,0,0:0:0:0:
192,315,12224,2,0,B|161:262|161:262|115:228|115:228|74:165,1,180,0|2,0:0|0:0,0:0:0:0:
161,116,12930,5,0,0:0:0:0:
352,198,13107,1,0,0:0:0:0:
319,300,13283,1,0,0:0:0:0:
273,98,13460,1,0,0:0:0:0:
257,194,13636,1,0,0:0:0:0:
411,55,13813,1,0,0:0:0:0:
352,198,13989,1,2,0:0:0:0:
160,99,14342,5,0,0:0:0:0:
124,270,14519,1,0,0:0:0:0:
43,169,14695,1,0,0:0:0:0:
278,208,14872,1,0,0:0:0:0:
56,244,15048,1,0,0:0:0:0:
90,67,15224,1,0,0:0:0:0:
247,274,15401,1,2,0:0:0:0:
117,162,15577,1,0,0:0:0:0:
272,100,15754,5,0,0:0:0:0:
178,304,15930,1,0,0:0:0:0:
196,68,16107,1,0,0:0:0:0:
357,189,16283,1,0,0:0:0:0:
92,243,16460,1,0,0:0:0:0:
272,100,16636,1,0,0:0:0:0:
278,296,16813,1,2,0:0:0:0:
272,100,17166,5,0,0:0:0:0:
206,272,17343,1,0,0:0:0:0:
328,220,17519,1,0,0:0:0:0:
155,154,17696,1,0,0:0:0:0:
278,296,17872,2,0,L|371:310,1,90
465,229,18224,1,2,0:0:0:0:
206,194,18577,6,0,B|183:138|183:138|191:81|191:81|174:13,1,180
102,124,19107,1,0,0:0:0:0:
265,137,19283,1,0,0:0:0:0:
290,215,19460,1,0,0:0:0:0:
316,53,19636,1,2,0:0:0:0:
169,328,19989,5,0,0:0:0:0:
142,109,20166,1,0,0:0:0:0:
240,284,20342,1,0,0:0:0:0:
62,148,20519,1,0,0:0:0:0:
265,206,20695,1,0,0:0:0:0:
47,238,20872,1,0,0:0:0:0:
222,134,21048,1,0,0:0:0:0:
95,304,21224,1,0,0:0:0:0:
300,317,21401,5,4,0:0:0:0:
258,58,21578,1,0,0:0:0:0:
375,268,21754,1,0,0:0:0:0:
163,104,21931,1,0,0:0:0:0:
404,175,22107,1,0,0:0:0:0:
144,213,22284,1,0,0:0:0:0:
353,88,22460,1,0,0:0:0:0:
201,291,22636,1,0,0:0:0:0:
375,268,22813,1,4,0:0:0:0:
129,147,34107,5,14,0:0:0:0:
264,216,34460,2,10,B|322:233|322:233|394:235|394:235|469:253,1,180
381,123,35166,2,8,P|336:104|363:63,1,90
381,123,35519,2,2,B|379:179|379:179|357:244|357:244|360:304,1,180
222,352,36048,1,8,0:0:0:0:
213,215,36224,1,8,0:0:0:0:
296,295,36401,1,8,0:0:0:0:
135,274,36577,1,8,0:0:0:0:
68,105,36754,1,8,0:0:0:0:
17,174,36930,6,2,P|116:174|151:90,1,180
68,105,37460,1,8,0:0:0:0:
265,204,37636,1,8,0:0:0:0:
416,55,37989,2,8,P|435:98|419:160,1,90
352,111,38342,6,2,B|296:115|262:89|262:89|233:117|182:116,1,180
34,84,38872,1,8,0:0:0:0:
105,205,39048,1,8,0:0:0:0:
258,214,39224,1,8,0:0:0:0:
92,227,39401,1,8,0:0:0:0:
183,116,39577,1,8,0:0:0:0:
287,292,39754,6,2,P|342:220|293:138,1,180
208,273,40283,1,2,0:0:0:0:
170,195,40460,2,0,P|135:228|122:289,1,90,2|0,0:0|0:0,0:0:0:0:
287,292,40813,2,8,B|317:289|346:304|388:291,1,90
477,118,41166,6,2,P|393:70|327:109,1,180
400,155,41695,1,8,0:0:0:0:
337,233,41872,1,8,0:0:0:0:
247,181,42048,1,8,0:0:0:0:
311,102,42225,1,8,0:0:0:0:
424,237,42401,1,8,0:0:0:0:
223,103,42577,5,2,0:0:0:0:
238,307,42930,1,2,0:0:0:0:
238,307,43107,1,2,0:0:0:0:
381,265,43460,1,2,0:0:0:0:
219,61,43813,1,2,0:0:0:0:
219,61,43989,5,4,0:0:0:0:
238,307,44342,1,2,0:0:0:0:
111,232,44518,1,2,0:0:0:0:
381,265,44872,1,2,0:0:0:0:
219,61,45224,1,2,0:0:0:0:
219,61,45401,5,4,0:0:0:0:
356,269,45754,2,8,B|398:238|398:238|425:173|425:173|477:128,1,180
210,113,46460,1,2,0:0:0:0:
146,177,46636,1,2,0:0:0:0:
80,240,46813,5,8,0:0:0:0:
16,304,46989,2,8,P|88:329|164:267,1,180,8|0,0:0|0:0,0:0:0:0:
210,113,47519,1,8,0:0:0:0:
323,217,47695,1,8,0:0:0:0:
178,249,47872,1,8,0:0:0:0:
318,107,48048,1,8,0:0:0:0:
281,291,48224,5,10,0:0:0:0:
318,107,48577,1,2,0:0:0:0:
124,155,48930,1,2,0:0:0:0:
261,47,49283,1,2,0:0:0:0:
199,231,49460,1,2,0:0:0:0:
201,106,49636,6,4,P|281:129|343:55,1,180,4|0,0:0|0:0,0:0:0:0:
379,49,50166,1,8,0:0:0:0:
398,276,50342,1,8,0:0:0:0:
245,105,50519,1,8,0:0:0:0:
476,145,50695,1,8,0:0:0:0:
251,248,50872,1,8,0:0:0:0:
183,63,51048,5,8,0:0:0:0:
146,37,51136,1,0,0:0:0:0:
101,35,51224,1,0,0:0:0:0:
60,52,51312,1,0,0:0:0:0:
30,85,51400,1,8,0:0:0:0:
17,128,51488,1,0,0:0:0:0:
24,172,51577,1,0,0:0:0:0:
49,209,51665,1,0,0:0:0:0:
88,231,51753,5,8,0:0:0:0:
132,235,51841,1,0,0:0:0:0:
174,220,51930,1,0,0:0:0:0:
214,199,52019,1,0,0:0:0:0:
254,179,52107,1,8,0:0:0:0:
298,173,52195,1,0,0:0:0:0:
343,177,52283,1,0,0:0:0:0:
386,185,52371,1,0,0:0:0:0:
422,211,52459,5,8,0:0:0:0:
444,250,52547,1,0,0:0:0:0:
446,295,52635,1,0,0:0:0:0:
429,336,52724,1,0,0:0:0:0:
396,366,52812,1,8,0:0:0:0:
354,379,52900,1,0,0:0:0:0:
310,373,52988,1,0,0:0:0:0:
272,348,53077,1,0,0:0:0:0:
245,312,53166,5,8,0:0:0:0:
225,271,53254,1,0,0:0:0:0:
190,244,53342,1,0,0:0:0:0:
147,234,53430,1,0,0:0:0:0:
103,244,53518,1,8,0:0:0:0:
68,272,53607,1,0,0:0:0:0:
49,312,53695,1,0,0:0:0:0:
50,357,53783,1,0,0:0:0:0:
256,192,53872,12,0,55989,0:0:0:0:
90,171,56342,5,2,0:0:0:0:
167,157,56519,1,2,0:0:0:0:
292,274,56695,5,2,0:0:0:0:
233,75,56872,1,2,0:0:0:0:
328,154,57048,1,2,0:0:0:0:
179,295,57224,1,2,0:0:0:0:
37,117,57401,2,2,P|15:163|25:212,1,90
93,285,57754,1,4,0:0:0:0:
233,75,57930,2,4,L|223:257,1,180,2|4,0:0|0:0,0:0:0:0:
441,127,58636,5,8,0:0:0:0:
263,324,58812,1,8,0:0:0:0:
490,248,58989,1,8,0:0:0:0:
226,191,59165,1,8,0:0:0:0:
381,352,59342,1,8,0:0:0:0:
314,98,59519,5,2,0:0:0:0:
300,221,59695,1,0,0:0:0:0:
161,292,59872,2,2,P|114:282|66:238,1,90,2|0,0:0|0:0,0:0:0:0:
199,102,60224,1,2,0:0:0:0:
352,310,60401,1,0,0:0:0:0:
161,292,60577,1,2,0:0:0:0:
313,98,60754,2,0,P|256:52|326:29,1,180,0|2,0:0|0:0,0:0:0:0:
259,339,61460,5,8,0:0:0:0:
393,127,61636,1,8,0:0:0:0:
175,176,61813,1,8,0:0:0:0:
369,241,61989,1,8,0:0:0:0:
201,38,62165,1,8,0:0:0:0:
175,176,62342,6,0,P|185:223|232:260,1,90,2|0,0:0|0:0,0:0:0:0:
377,310,62695,1,2,0:0:0:0:
221,101,62872,1,0,0:0:0:0:
271,33,63048,2,0,P|305:110|252:181,1,180,2|2,0:0|0:0,0:0:0:0:
59,248,63577,1,8,0:0:0:0:
158,215,63754,2,2,B|209:246|209:246|247:294|247:294|319:324,1,180
466,357,64283,5,8,0:0:0:0:
321,209,64460,1,8,0:0:0:0:
342,358,64636,1,8,0:0:0:0:
430,186,64813,1,8,0:0:0:0:
211,235,64989,1,8,0:0:0:0:
187,316,65166,6,2,P|128:254|154:172,1,180
252,73,65695,1,8,0:0:0:0:
211,235,65872,2,0,P|306:214|325:133,1,180,2|2,0:0|0:0,0:0:0:0:
244,157,66401,1,8,0:0:0:0:
53,254,66577,6,2,P|117:330|204:300,1,180
137,248,67107,1,8,0:0:0:0:
171,111,67283,2,2,P|208:80|276:79,1,90
360,120,67636,1,2,0:0:0:0:
259,206,67813,1,8,0:0:0:0:
414,323,67989,1,0,0:0:0:0:
342,60,68342,6,2,P|386:43|445:56,1,90
396,127,68695,1,8,0:0:0:0:
259,206,68872,1,0,0:0:0:0:
290,126,69048,2,2,P|329:159|344:221,1,90
318,286,69401,2,8,P|388:278|437:177,1,180
263,48,69930,5,8,0:0:0:0:
438,189,70107,1,8,0:0:0:0:
200,159,70283,1,8,0:0:0:0:
395,66,70460,1,8,0:0:0:0:
299,269,70636,1,8,0:0:0:0:
312,55,70813,6,2,P|348:131|446:134,1,180
395,66,71342,1,0,0:0:0:0:
395,66,71519,2,2,B|360:123|360:123|356:178|356:178|317:235,1,180
223,317,72048,1,8,0:0:0:0:
203,64,72224,2,4,P|121:71|162:116,1,180,2|2,0:0|0:0,0:0:0:0:
314,160,72754,5,8,0:0:0:0:
170,253,72930,1,8,0:0:0:0:
348,364,73107,1,8,0:0:0:0:
227,140,73283,1,8,0:0:0:0:
114,316,73460,1,8,0:0:0:0:
412,254,73636,6,2,B|355:235|355:235|286:232|286:232|228:209,1,180
145,94,74166,1,0,0:0:0:0:
78,41,74342,2,2,P|69:131|153:179,1,180
300,201,74872,1,8,0:0:0:0:
45,324,75048,2,2,P|128:356|193:302,1,180
80,109,75577,5,8,0:0:0:0:
100,282,75754,1,8,0:0:0:0:
16,197,75930,1,8,0:0:0:0:
242,170,76107,1,8,0:0:0:0:
16,197,76283,1,8,0:0:0:0:
320,173,76460,6,0,B|380:178|380:178|432:198|432:198|520:197,1,180,4|0,0:0|0:0,0:0:0:0:
494,56,76989,1,2,0:0:0:0:
195,64,77342,1,2,0:0:0:0:
114,322,77695,1,2,0:0:0:0:
114,322,77872,5,2,0:0:0:0:
195,64,78224,1,2,0:0:0:0:
320,197,78401,1,2,0:0:0:0:
455,180,78754,2,0,P|461:99|360:58,1,180,2|2,0:0|0:0,0:0:0:0:
386,137,79283,5,2,0:0:0:0:
237,191,79460,1,0,0:0:0:0:
199,267,79636,2,8,P|152:197|203:113,1,180
286,57,80166,1,0,0:0:0:0:
383,217,80342,1,2,0:0:0:0:
192,163,80519,1,8,0:0:0:0:
397,134,80695,2,2,P|455:173|430:286,1,180
285,332,81224,5,8,0:0:0:0:
189,306,81401,1,8,0:0:0:0:
214,211,81577,1,8,0:0:0:0:
310,237,81754,1,8,0:0:0:0:
104,247,81930,1,8,0:0:0:0:
413,221,82107,5,8,0:0:0:0:
224,35,82460,2,2,P|202:127|221:232,1,180
290,44,83166,2,8,L|267:149,1,90
178,281,83519,2,2,P|250:308|337:253,1,180
308,64,84048,5,8,0:0:0:0:
248,211,84224,1,8,0:0:0:0:
141,82,84401,1,8,0:0:0:0:
398,203,84577,1,8,0:0:0:0:
109,277,84754,1,8,0:0:0:0:
245,140,84930,6,2,P|293:115|264:194,1,180
117,271,85460,1,0,0:0:0:0:
245,140,85636,2,8,B|296:102|296:102|327:55|327:55|379:6,1,180
465,31,86166,1,2,0:0:0:0:
245,140,86342,2,2,P|279:224|209:291,1,180
108,285,86872,5,8,0:0:0:0:
354,70,87048,1,8,0:0:0:0:
65,129,87225,1,8,0:0:0:0:
378,238,87401,1,8,0:0:0:0:
214,17,87578,1,8,0:0:0:0:
257,338,87755,5,2,0:0:0:0:
265,191,88107,1,2,0:0:0:0:
37,207,88283,1,2,0:0:0:0:
168,37,88637,1,2,0:0:0:0:
342,97,88989,1,2,0:0:0:0:
265,191,89166,5,2,0:0:0:0:
294,14,89519,1,2,0:0:0:0:
411,203,89695,1,2,0:0:0:0:
142,205,90048,1,2,0:0:0:0:
140,108,90224,2,0,P|201:128|228:177,1,90,2|2,0:0|0:0,0:0:0:0:
192,337,90577,1,2,0:0:0:0:
142,205,90930,6,2,B|205:207|205:207|255:178|255:178|318:175,1,180
500,194,91636,1,0,0:0:0:0:
362,306,91813,2,8,P|344:216|381:136,1,180
228,26,92519,5,8,0:0:0:0:
228,373,92695,1,8,0:0:0:0:
70,108,92872,1,8,0:0:0:0:
383,266,93048,1,8,0:0:0:0:
70,277,93224,1,8,0:0:0:0:
383,108,93401,5,2,0:0:0:0:
235,282,93577,1,2,0:0:0:0:
149,120,93754,1,2,0:0:0:0:
326,206,93930,1,2,0:0:0:0:
89,207,94107,2,0,P|89:300|171:357,1,180,2|8,0:0|0:0,0:0:0:0:
179,255,94636,1,0,0:0:0:0:
383,73,94813,2,2,P|467:122|462:201,1,180
390,156,95342,5,8,0:0:0:0:
34,241,95519,1,8,0:0:0:0:
327,320,95695,1,8,0:0:0:0:
79,69,95872,1,8,0:0:0:0:
166,347,96048,1,8,0:0:0:0:
254,41,96225,1,8,0:0:0:0:
142,259,96577,6,8,P|202:261|249:365,1,180
166,347,97107,1,0,0:0:0:0:
88,113,97283,1,2,0:0:0:0:
308,159,97460,1,0,0:0:0:0:
45,40,97636,2,0,P|9:82|71:193,1,180,2|0,0:0|0:0,0:0:0:0:
59,276,98166,5,8,0:0:0:0:
342,281,98342,1,8,0:0:0:0:
198,55,98519,1,8,0:0:0:0:
197,351,98695,1,8,0:0:0:0:
356,133,98871,1,8,0:0:0:0:
61,126,99048,6,2,P|130:183|209:149,1,180
142,100,99577,2,2,B|123:166|123:166|126:230|126:230|101:290,1,180
199,370,100283,1,8,0:0:0:0:
269,329,100460,5,2,0:0:0:0:
274,196,100813,1,2,0:0:0:0:
203,82,101166,1,2,0:0:0:0:
82,30,101519,1,2,0:0:0:0:
