osu file format v14

[General]
AudioFilename: Principalities.mp3
AudioLeadIn: 0
PreviewTime: 225984
Countdown: 0
SampleSet: Soft
StackLeniency: 0.7
Mode: 0
LetterboxInBreaks: 1
WidescreenStoryboard: 0

[Editor]
DistanceSpacing: 1
BeatDivisor: 4
GridSize: 4
TimelineZoom: 2.3

[Metadata]
Title:Principalities
TitleUnicode:Principalities
Artist:Alex S.
ArtistUnicode:Alex S.
Creator:Hullahopp
Version:Hopeless
Source:
Tags:Dubstep Electro DnB Jurney to the edge of the universe the cosmos jurney
BeatmapID:610325
BeatmapSetID:268013

[Difficulty]
HPDrainRate:6
CircleSize:4
OverallDifficulty:7
ApproachRate:8.5
SliderMultiplier:2
SliderTickRate:1

[Events]
//Background and Video events
0,0,"purple_universe-wide.jpg",0,0
//Break Periods
2,133494,142550
2,159977,172343
//Storyboard Layer 0 (Background)
//Storyboard Layer 1 (Fail)
//Storyboard Layer 2 (Pass)
//Storyboard Layer 3 (Foreground)
//Storyboard Sound Samples

[TimingPoints]
14122,413.793103448276,4,2,1,70,1,0
27363,-200,4,2,1,70,0,0
40604,-100,4,2,1,70,0,0
53846,-100,4,2,1,90,0,0
80328,-100,4,1,1,90,0,0
86535,-200,4,1,1,90,0,0
86949,-100,4,1,1,90,0,0
93363,-100,4,1,1,20,0,0
93570,-66.6666666666667,4,1,1,90,0,1
126673,-76.9230769230769,4,1,1,90,0,1
129156,-142.857142857143,4,1,1,90,0,1
129984,-90.9090909090909,4,1,1,90,0,1
133294,-100,4,1,1,90,0,0
146122,-100,4,2,1,90,0,0
146535,-100,4,2,1,90,0,0
185432,-100,4,2,1,30,0,0
186259,-100,4,1,1,90,0,0
225984,-66.6666666666667,4,1,1,90,0,1
250811,-66.6666666666667,4,1,1,90,0,0
252466,-100,4,1,1,90,0,0
255777,-66.6666666666667,4,1,1,90,0,0
256190,-100,4,1,1,90,0,0
259087,-66.6666666666667,4,1,1,90,0,0
259501,-66.6666666666667,4,1,1,90,0,0
259915,-100,4,1,1,90,0,0
262397,-66.6666666666667,4,1,1,90,0,0
262811,-100,4,1,1,90,0,0
265708,-66.6666666666667,4,1,1,90,0,0
266122,-100,4,1,1,90,0,0
269018,-66.6666666666667,4,1,1,90,0,0
269432,-100,4,1,1,90,0,0
272328,-66.6666666666667,4,1,1,90,0,0
272742,-100,4,1,1,90,0,0
274811,-66.6666666666667,4,1,1,90,0,0
275639,-100,4,1,1,90,0,0
278949,-66.6666666666667,4,1,1,90,0,1
331915,-100,4,2,1,90,0,0
358397,-100,4,2,1,5,0,0

[Colours]
Combo1 : 0,255,255
Combo2 : 128,0,128
Combo3 : 0,0,255
Combo4 : 255,0,255

[HitObjects]
408,220,14122,6,0,B|352:280|352:280|260:300,1,150,2|2,0:0|0:0,0:0:0:0:
208,232,14535,2,0,L|312:212,1,100,2|2,0:0|0:0,0:0:0:0:
196,148,14949,2,0,B|152:156|132:194|132:194|85:171,1,100,2|0,0:0|0:0,0:0:0:0:
316,148,15363,2,0,B|359:156|379:194|379:194|426:171,1,100,2|0,0:0|0:0,0:0:0:0:
304,236,15777,5,2,0:0:0:0:
232,296,15984,1,0,0:0:0:0:
144,288,16190,1,2,0:0:0:0:
76,232,16397,1,0,0:0:0:0:
216,200,16604,1,2,0:0:0:0:
272,128,16811,1,0,0:0:0:0:
360,100,17018,1,2,0:0:0:0:
448,132,17225,1,0,0:0:0:0:
304,216,17432,6,0,B|284:276|228:288|228:288|228:356,1,150,2|2,0:0|0:0,0:0:0:0:
144,296,17846,2,0,B|144:264|144:264|108:232|128:156,1,100,2|2,0:0|0:0,0:0:0:0:
192,80,18259,2,0,L|212:136,1,50,2|0,0:0|0:0,0:0:0:0:
296,140,18466,2,0,L|292:84,1,50
380,128,18673,2,0,L|368:188,1,50,2|0,0:0|0:0,0:0:0:0:
416,252,18880,2,0,L|448:200,1,50
324,320,19087,6,0,L|328:256,1,50,2|0,0:0|0:0,0:0:0:0:
248,216,19294,2,0,L|232:272,1,50
148,204,19501,2,0,L|184:156,1,50,2|0,0:0|0:0,0:0:0:0:
132,80,19708,2,0,L|88:120,1,50,2|0,0:0|0:0,0:0:0:0:
240,64,19915,5,2,0:0:0:0:
252,64,20018,1,0,0:0:0:0:
264,64,20122,1,2,0:0:0:0:
276,64,20225,1,0,0:0:0:0:
288,64,20328,2,0,B|340:64|340:64|368:120|418:122,1,150,2|0,0:0|0:0,0:0:0:0:
420,40,20742,6,0,L|292:176,1,150,2|0,0:0|0:0,0:0:0:0:
312,268,21156,2,0,L|414:158,1,150,2|0,0:0|0:0,0:0:0:0:
414,158,21570,1,2,0:0:0:0:
456,248,21777,1,0,0:0:0:0:
408,336,21984,1,2,0:0:0:0:
312,352,22190,1,0,0:0:0:0:
136,268,22397,6,0,P|184:316|240:336,1,100,2|0,0:0|0:0,0:0:0:0:
248,189,22811,2,0,P|215:152|172:128,1,100,2|0,0:0|0:0,0:0:0:0:
408,72,23225,1,2,0:0:0:0:
400,84,23328,1,2,0:0:0:0:
392,96,23432,1,2,0:0:0:0:
384,108,23535,1,2,0:0:0:0:
376,120,23639,2,0,L|316:212,1,100,2|0,0:0|0:0,0:0:0:0:
152,256,24053,5,2,0:0:0:0:
256,192,24259,12,6,27363,0:0:0:0:
164,144,27777,5,2,0:0:0:0:
156,160,28190,1,2,0:0:0:0:
152,180,28604,1,0,0:0:0:0:
336,256,29018,5,2,0:0:0:0:
348,240,29432,1,2,0:0:0:0:
356,224,29845,1,2,0:0:0:0:
360,204,30259,1,0,0:0:0:0:
360,184,30673,6,2,P|332:128|204:112,1,200
144,180,31915,1,0,0:0:0:0:
176,276,32122,1,0,0:0:0:0:
208,108,32328,6,2,P|240:160|236:208,1,100
332,312,33156,2,2,P|334:262|363:222,1,100
464,224,33984,6,0,P|408:132|308:140,1,200,2|0,0:0|0:0,0:0:0:0:
112,108,35225,1,2,0:0:0:0:
220,180,35432,1,0,0:0:0:0:
204,272,35639,6,2,B|148:252|128:196|128:196|68:200|36:152,1,200
72,284,36880,1,0,0:0:0:0:
168,360,37294,1,2,0:0:0:0:
256,192,37501,12,12,40397,0:0:0:0:
368,92,40604,6,8,L|288:112,1,50
368,172,40811,2,0,L|288:192,1,50
372,252,41018,2,0,L|292:272,1,50,8|0,0:0|0:0,0:0:0:0:
372,332,41225,2,0,L|292:352,1,50
140,332,41432,6,0,L|188:344,1,50,8|0,0:0|0:0,0:0:0:0:
140,252,41639,2,0,L|188:264,1,50
144,172,41846,2,0,L|192:184,1,50,8|0,0:0|0:0,0:0:0:0:
144,92,42053,2,0,L|192:104,1,50
264,48,42259,5,8,0:0:0:0:
312,35,42362,1,0,0:0:0:0:
361,38,42465,1,0,0:0:0:0:
407,58,42569,1,0,0:0:0:0:
444,92,42672,1,8,0:0:0:0:
467,135,42776,1,0,0:0:0:0:
476,185,42879,1,0,0:0:0:0:
467,234,42983,1,0,0:0:0:0:
443,277,43086,5,8,0:0:0:0:
406,311,43190,1,0,0:0:0:0:
360,330,43293,1,0,0:0:0:0:
311,333,43396,1,0,0:0:0:0:
263,320,43500,1,8,0:0:0:0:
222,292,43603,1,0,0:0:0:0:
192,252,43707,1,0,0:0:0:0:
177,205,43810,1,0,0:0:0:0:
176,160,43915,6,0,L|188:88,1,50,8|0,0:0|0:0,0:0:0:0:
236,104,44122,2,0,L|256:40,1,50
296,60,44328,2,0,L|332:16,1,50,8|0,0:0|0:0,0:0:0:0:
372,32,44535,2,0,L|412:0,1,50
452,40,44742,6,0,L|420:108,1,50,8|0,0:0|0:0,0:0:0:0:
460,124,44949,2,0,L|424:176,1,50
448,212,45156,2,0,L|400:256,1,50,8|0,0:0|0:0,0:0:0:0:
416,296,45363,2,0,L|360:320,1,50
324,324,45570,5,8,0:0:0:0:
274,328,45673,1,0,0:0:0:0:
225,319,45776,1,0,0:0:0:0:
188,287,45880,1,0,0:0:0:0:
180,239,45983,1,8,0:0:0:0:
208,199,46087,1,0,0:0:0:0:
255,186,46190,1,0,0:0:0:0:
305,184,46294,1,0,0:0:0:0:
355,180,46397,5,8,0:0:0:0:
399,158,46501,1,0,0:0:0:0:
411,112,46604,1,0,0:0:0:0:
384,71,46707,1,0,0:0:0:0:
339,49,46811,1,8,0:0:0:0:
289,44,46914,1,0,0:0:0:0:
240,49,47018,1,0,0:0:0:0:
190,58,47121,1,0,0:0:0:0:
148,92,47225,6,0,L|120:144,1,50,8|0,0:0|0:0,0:0:0:0:
136,216,47432,2,0,L|168:164,1,50
236,140,47639,2,0,L|200:204,1,50,8|0,0:0|0:0,0:0:0:0:
220,264,47846,2,0,L|256:204,1,50
312,272,48053,6,0,L|288:212,1,50,8|0,0:0|0:0,0:0:0:0:
296,140,48259,2,0,L|332:204,1,50
396,216,48466,2,0,L|364:164,1,50,8|0,0:0|0:0,0:0:0:0:
384,92,48673,2,0,L|412:144,1,50
448,104,48880,5,8,0:0:0:0:
416,65,48983,1,0,0:0:0:0:
369,49,49086,1,0,0:0:0:0:
322,61,49190,1,0,0:0:0:0:
289,98,49293,1,8,0:0:0:0:
280,147,49397,1,0,0:0:0:0:
283,197,49500,1,0,0:0:0:0:
286,246,49604,1,0,0:0:0:0:
278,295,49707,5,8,0:0:0:0:
242,329,49811,1,0,0:0:0:0:
194,329,49914,1,0,0:0:0:0:
160,292,50017,1,0,0:0:0:0:
140,244,50121,1,8,0:0:0:0:
120,196,50224,1,0,0:0:0:0:
108,148,50328,1,0,0:0:0:0:
104,100,50431,1,0,0:0:0:0:
120,56,50535,6,0,L|176:56,1,50,8|0,0:0|0:0,0:0:0:0:
192,104,50742,2,0,L|256:104,1,50
272,144,50949,2,0,L|332:144,1,50,8|0,0:0|0:0,0:0:0:0:
352,184,51156,2,0,L|412:184,1,50
336,236,51363,6,0,L|280:236,1,50,8|0,0:0|0:0,0:0:0:0:
252,276,51570,2,0,L|192:276,1,50
164,312,51777,2,0,L|112:312,1,50,8|0,0:0|0:0,0:0:0:0:
76,348,51984,2,0,L|12:348,1,50
256,192,52190,12,12,53639,0:0:0:0:
360,140,53846,6,0,P|300:124|224:128,1,100,2|0,0:0|0:0,0:0:0:0:
152,244,54259,2,0,P|212:260|288:256,1,100,8|0,0:0|0:0,0:0:0:0:
204,88,54673,2,0,P|188:148|192:224,1,100,2|0,0:0|0:0,0:0:0:0:
308,296,55087,2,0,P|324:236|320:160,1,100,8|0,0:0|0:0,0:0:0:0:
108,64,55501,6,0,P|76:144|80:192,1,100,2|0,0:0|0:0,0:0:0:0:
100,264,55915,1,8,0:0:0:0:
184,328,56122,1,0,0:0:0:0:
240,64,56328,2,0,P|208:144|212:192,1,100,2|0,0:0|0:0,0:0:0:0:
232,264,56742,1,8,0:0:0:0:
316,328,56949,1,0,0:0:0:0:
204,88,57156,6,0,P|188:148|192:224,1,100,2|0,0:0|0:0,0:0:0:0:
308,296,57570,2,0,P|324:236|320:160,1,100,8|0,0:0|0:0,0:0:0:0:
152,244,57983,2,0,P|212:260|288:256,1,100,2|0,0:0|0:0,0:0:0:0:
360,140,58397,2,0,P|300:124|224:128,1,100,8|0,0:0|0:0,0:0:0:0:
392,300,58811,5,2,0:0:0:0:
236,324,59018,1,0,0:0:0:0:
288,192,59225,1,8,0:0:0:0:
236,324,59432,1,0,0:0:0:0:
168,116,59639,1,2,0:0:0:0:
236,324,59846,1,0,0:0:0:0:
40,76,60053,1,8,0:0:0:0:
236,324,60259,1,0,0:0:0:0:
360,140,60466,6,0,P|300:124|224:128,1,100,2|0,0:0|0:0,0:0:0:0:
152,244,60880,2,0,P|212:260|288:256,1,100,8|0,0:0|0:0,0:0:0:0:
204,88,61294,2,0,P|188:148|192:224,1,100,2|0,0:0|0:0,0:0:0:0:
308,296,61708,2,0,P|324:236|320:160,1,100,8|0,0:0|0:0,0:0:0:0:
480,112,62122,5,2,0:0:0:0:
424,200,62328,1,0,0:0:0:0:
396,304,62535,1,8,0:0:0:0:
300,252,62742,1,0,0:0:0:0:
188,232,62949,5,2,0:0:0:0:
260,144,63156,1,0,0:0:0:0:
288,40,63363,1,8,0:0:0:0:
376,92,63570,1,0,0:0:0:0:
308,296,63777,6,0,P|324:236|320:160,1,100,2|0,0:0|0:0,0:0:0:0:
204,88,64190,2,0,P|188:148|192:224,1,100,8|0,0:0|0:0,0:0:0:0:
360,140,64604,2,0,P|300:124|224:128,1,100,2|0,0:0|0:0,0:0:0:0:
152,244,65018,2,0,P|212:260|288:256,1,100,8|0,0:0|0:0,0:0:0:0:
44,96,65432,5,2,0:0:0:0:
116,304,65639,1,0,0:0:0:0:
180,96,65846,1,8,0:0:0:0:
248,300,66053,1,0,0:0:0:0:
308,96,66259,5,2,0:0:0:0:
380,304,66466,1,0,0:0:0:0:
444,96,66673,1,8,0:0:0:0:
512,300,66880,1,0,0:0:0:0:
216,260,67087,5,2,0:0:0:0:
204,244,67190,1,2,0:0:0:0:
196,224,67294,2,0,P|188:152|296:96,1,200,8|0,0:0|0:0,0:0:0:0:
336,272,67915,6,0,P|312:208|268:180,1,100,2|0,0:0|0:0,0:0:0:0:
136,312,68328,2,0,P|204:304|240:272,1,100
172,108,68742,1,2,0:0:0:0:
160,208,68949,1,0,0:0:0:0:
360,68,69156,5,8,0:0:0:0:
260,56,69363,1,0,0:0:0:0:
376,248,69570,1,2,0:0:0:0:
412,152,69777,1,0,0:0:0:0:
184,304,69984,1,8,0:0:0:0:
292,312,70190,1,0,0:0:0:0:
140,120,70397,5,2,0:0:0:0:
140,120,70604,2,0,P|124:216|264:232,1,250,8|0,0:0|0:0,0:0:0:0:
264,236,71225,2,0,P|296:160|272:116,1,100,2|8,0:0|0:0,0:0:0:0:
456,64,71639,5,0,0:0:0:0:
432,204,71846,1,0,0:0:0:0:
300,64,72053,1,2,0:0:0:0:
324,204,72259,1,0,0:0:0:0:
56,64,72466,1,2,0:0:0:0:
80,204,72673,1,0,0:0:0:0:
212,64,72880,1,2,0:0:0:0:
188,204,73086,1,0,0:0:0:0:
172,328,73294,2,0,B|232:320|256:284|256:284|280:320|344:328,1,200,8|2,0:0|0:0,0:0:0:0:
180,228,73915,5,8,0:0:0:0:
332,228,74122,1,0,0:0:0:0:
256,100,74328,1,0,0:0:0:0:
76,220,74535,2,0,P|112:152|156:132,1,100,2|8,0:0|0:0,0:0:0:0:
436,220,74949,2,0,P|400:152|356:132,1,100
56,208,75363,6,0,P|92:140|136:120,1,100,2|0,0:0|0:0,0:0:0:0:
456,208,75777,2,0,P|420:140|376:120,1,100,2|0,0:0|0:0,0:0:0:0:
328,244,76190,1,2,0:0:0:0:
184,244,76397,1,0,0:0:0:0:
440,336,76604,1,2,0:0:0:0:
72,336,76811,1,0,0:0:0:0:
256,192,77018,12,0,79501,0:0:0:0:
392,208,80328,6,0,P|352:156|288:136,1,100,4|0,0:0|0:0,0:0:0:0:
164,300,80742,2,0,P|248:284|276:252,1,100
192,80,81156,2,0,P|172:152|184:188,1,100
348,148,81570,1,0,0:0:0:0:
348,148,81777,1,0,0:0:0:0:
316,332,81984,6,0,B|240:316|240:316|196:276,1,100
200,272,82294,1,0,0:0:0:0:
176,240,82397,2,0,B|124:168|124:168|140:84,1,150
144,76,82811,2,0,L|160:24,2,50,0|0|0,0:0|0:0|0:0,0:0:0:0:
308,68,83225,6,0,P|380:68|420:96,1,100
268,312,83639,2,0,B|304:264|292:244|292:244|304:264|380:208,1,150,4|0,0:0|0:0,0:0:0:0:
380,212,84053,2,0,P|428:176|384:68,1,150
400,72,84466,2,0,P|344:44|260:48,1,100
128,104,84880,2,0,P|212:132|256:124,1,100
368,136,85294,5,0,0:0:0:0:
260,244,85501,1,0,0:0:0:0:
388,304,85708,1,0,0:0:0:0:
156,328,85915,1,0,0:0:0:0:
228,128,86122,1,0,0:0:0:0:
216,140,86225,1,0,0:0:0:0:
208,152,86328,1,0,0:0:0:0:
204,164,86432,1,0,0:0:0:0:
201,176,86535,2,0,P|205:224|237:268,1,100,0|4,0:0|0:0,0:0:0:0:
380,204,87156,5,0,0:0:0:0:
388,192,87259,1,0,0:0:0:0:
392,176,87363,2,0,P|396:112|368:68,1,100,0|0,0:0|0:0,0:0:0:0:
140,128,87777,1,0,0:0:0:0:
132,140,87880,1,0,0:0:0:0:
128,152,87984,1,0,0:0:0:0:
128,168,88087,1,0,0:0:0:0:
128,184,88190,2,0,P|152:240|212:272,1,100
316,328,88604,6,0,P|340:268|292:172,1,150,4|0,0:0|0:0,0:0:0:0:
292,164,89018,2,0,P|256:124|248:72,1,100
348,80,89432,5,0,0:0:0:0:
336,88,89535,1,0,0:0:0:0:
324,96,89639,1,0,0:0:0:0:
312,104,89742,1,0,0:0:0:0:
300,112,89846,2,0,L|200:176,1,100
148,316,90259,6,0,L|112:244,1,50,4|0,0:0|0:0,0:0:0:0:
232,212,90466,2,0,L|232:268,1,50
336,288,90673,2,0,L|368:220,1,50,4|0,0:0|0:0,0:0:0:0:
464,288,90880,2,0,L|412:336,1,50
432,180,91087,6,0,L|424:112,1,50,4|0,0:0|0:0,0:0:0:0:
336,84,91294,2,0,L|320:144,1,50,4|0,0:0|0:0,0:0:0:0:
212,128,91501,2,0,L|244:80,1,50,4|0,0:0|0:0,0:0:0:0:
172,28,91708,2,0,L|112:60,1,50,4|0,0:0|0:0,0:0:0:0:
256,192,91915,12,0,93363,0:0:0:0:
340,128,93570,6,0,P|256:100|184:116,1,150.000005722046,8|0,0:0|0:0,0:0:0:0:
104,256,93984,1,0,0:0:0:0:
376,248,94190,1,0,0:0:0:0:
224,320,94397,2,0,P|224:188|72:132,1,300.000011444092
280,80,95018,1,0,0:0:0:0:
308,316,95225,5,8,0:0:0:0:
376,132,95432,1,0,0:0:0:0:
308,316,95639,1,8,0:0:0:0:
280,80,95846,1,0,0:0:0:0:
136,136,96053,2,0,P|68:196|52:276,1,150.000005722046,8|0,0:0|0:0,0:0:0:0:
248,280,96466,2,0,P|316:220|332:140,1,150.000005722046,8|0,0:0|0:0,0:0:0:0:
444,312,96880,5,8,0:0:0:0:
192,148,97087,1,8,0:0:0:0:
372,344,97294,1,0,0:0:0:0:
212,72,97501,1,0,0:0:0:0:
296,352,97708,2,0,B|260:240|260:240|152:276|92:192,1,300.000011444092
212,72,98328,1,0,0:0:0:0:
376,112,98535,6,0,L|472:244,1,150.000005722046,8|0,0:0|0:0,0:0:0:0:
212,72,98949,2,0,L|308:204,1,150.000005722046,8|0,0:0|0:0,0:0:0:0:
132,232,99363,2,0,P|80:152|72:92,1,150.000005722046,2|0,0:0|0:0,0:0:0:0:
368,312,99777,2,0,P|272:312|208:276,1,150.000005722046,2|0,0:0|0:0,0:0:0:0:
356,112,100190,5,8,0:0:0:0:
96,332,100397,1,0,0:0:0:0:
180,60,100604,1,0,0:0:0:0:
368,312,100811,1,0,0:0:0:0:
404,48,101018,2,0,P|404:176|276:120,1,300.000011444092
279,137,101639,1,0,0:0:0:0:
100,152,101846,6,0,L|48:304,1,150.000005722046,8|0,0:0|0:0,0:0:0:0:
236,332,102259,2,0,L|284:190,1,150.000005722046,8|0,0:0|0:0,0:0:0:0:
404,96,102673,1,2,0:0:0:0:
452,260,102880,1,0,0:0:0:0:
248,72,103087,2,0,P|80:132|72:244,1,300.000011444092,2|0,0:0|0:0,0:0:0:0:
192,192,103708,5,0,0:0:0:0:
136,312,103915,2,8,P|304:252|312:140,1,300.000011444092
288,80,104432,1,8,0:0:0:0:
224,40,104535,1,8,0:0:0:0:
92,96,104742,2,0,P|96:232|148:264,1,150.000005722046,0|8,0:0|0:0,0:0:0:0:
160,280,105053,1,8,0:0:0:0:
236,296,105156,1,8,0:0:0:0:
408,308,105363,5,0,0:0:0:0:
440,144,105570,1,0,0:0:0:0:
268,204,105777,1,0,0:0:0:0:
440,144,105984,1,2,0:0:0:0:
440,144,106087,1,2,0:0:0:0:
440,144,106190,1,2,0:0:0:0:
132,112,106397,1,8,0:0:0:0:
104,316,106604,1,8,0:0:0:0:
344,64,106811,6,0,B|320:76|320:76|312:120|312:120|264:132|264:132|252:160,1,150.000005722046
368,328,107225,1,2,0:0:0:0:
368,328,107432,1,2,0:0:0:0:
80,304,107639,2,2,P|100:220|152:168,1,150.000005722046,2|0,0:0|0:0,0:0:0:0:
388,236,108053,1,2,0:0:0:0:
388,236,108259,1,2,0:0:0:0:
104,312,108466,2,2,P|92:228|116:160,1,150.000005722046,2|0,0:0|0:0,0:0:0:0:
384,136,108880,1,2,0:0:0:0:
384,136,109087,1,2,0:0:0:0:
168,296,109294,6,2,P|128:144|196:28,2,300.000011444092,2|2|8,0:0|0:0|0:0,0:0:0:0:
312,164,110328,1,8,0:0:0:0:
336,320,110535,1,0,0:0:0:0:
444,104,110949,2,0,P|316:64|156:128,1,300.000011444092,2|0,0:0|0:0,0:0:0:0:
0,232,111570,1,0,0:0:0:0:
160,316,111777,2,0,P|296:371|438:331,1,300.000011444092,2|2,0:0|0:0,0:0:0:0:
304,204,112397,5,2,0:0:0:0:
84,88,112604,1,2,0:0:0:0:
324,216,112811,1,2,0:0:0:0:
64,76,113018,1,2,0:0:0:0:
432,100,113225,5,8,0:0:0:0:
424,176,113328,1,8,0:0:0:0:
400,248,113432,2,8,P|308:328|232:324,1,150.000005722046
212,320,113742,1,8,0:0:0:0:
152,272,113846,1,8,0:0:0:0:
120,204,113949,1,8,0:0:0:0:
120,128,114053,1,8,0:0:0:0:
160,64,114156,1,8,0:0:0:0:
228,32,114259,1,8,0:0:0:0:
304,36,114363,1,8,0:0:0:0:
372,72,114466,1,8,0:0:0:0:
416,136,114570,1,8,0:0:0:0:
428,212,114673,1,8,0:0:0:0:
260,176,115087,5,8,0:0:0:0:
80,312,115501,1,8,0:0:0:0:
80,312,115708,1,8,0:0:0:0:
260,176,115915,1,8,0:0:0:0:
260,176,116328,1,8,0:0:0:0:
388,304,116742,5,2,0:0:0:0:
388,304,116949,1,2,0:0:0:0:
260,176,117156,2,2,P|196:96|24:172,1,300.000011444092,2|0,0:0|0:0,0:0:0:0:
140,216,117777,1,0,0:0:0:0:
428,176,117984,2,8,L|404:28,2,150.000005722046
288,276,118604,1,0,0:0:0:0:
172,328,118811,2,8,L|148:180,2,150.000005722046
88,328,119432,1,0,0:0:0:0:
48,256,119639,1,8,0:0:0:0:
432,304,120053,6,0,B|408:256|408:256|380:212|324:232,1,150.000005722046
176,268,120466,1,8,0:0:0:0:
124,212,120570,1,8,0:0:0:0:
84,144,120673,2,8,B|56:84|88:36|88:36|200:0|220:104,1,225.000008583069
396,112,121294,1,8,0:0:0:0:
444,176,121397,1,8,0:0:0:0:
468,252,121501,2,8,B|496:312|464:360|464:360|352:396|352:276,1,225.000008583069
160,244,122122,5,8,0:0:0:0:
112,184,122225,1,8,0:0:0:0:
112,108,122328,2,8,B|136:32|216:40|216:40|288:96|356:36,1,225.000008583069
452,160,122949,1,8,0:0:0:0:
456,244,123053,1,8,0:0:0:0:
428,320,123156,1,8,0:0:0:0:
368,376,123259,1,8,0:0:0:0:
288,372,123363,2,8,L|96:352,1,150.000005722046
60,212,123777,5,8,0:0:0:0:
136,220,123880,1,8,0:0:0:0:
212,232,123984,2,8,B|272:236|272:236|348:208|312:100,1,150.000005722046
116,84,124604,1,8,0:0:0:0:
116,84,124811,1,8,0:0:0:0:
376,68,125018,5,8,0:0:0:0:
404,140,125122,1,8,0:0:0:0:
424,216,125225,2,8,P|408:312|360:344,1,150.000005722046,8|8,0:0|0:0,0:0:0:0:
232,200,125846,2,2,P|200:72|100:40,2,225.000008583069
88,180,126673,6,8,P|108:296|244:332,1,259.999988098145
288,312,127190,1,8,0:0:0:0:
336,272,127294,2,8,P|400:192|356:108,1,194.999991073609
312,88,127708,2,8,P|224:64|176:92,1,129.999994049073,0|8,0:0|0:0,0:0:0:0:
152,128,128018,1,8,0:0:0:0:
120,184,128122,2,8,P|120:268|248:324,1,194.999991073609
268,332,128535,2,8,P|352:320|416:248,1,129.999994049073,0|8,0:0|0:0,0:0:0:0:
424,244,128846,1,8,0:0:0:0:
444,184,128949,1,8,0:0:0:0:
320,88,129156,6,0,L|216:192,1,139.999995727539,8|8,0:0|0:0,0:0:0:0:
172,228,129673,1,8,0:0:0:0:
112,252,129777,1,8,0:0:0:0:
72,128,129984,6,0,P|140:68|284:80,1,220.000006713867,8|8,0:0|0:0,0:0:0:0:
396,144,130604,1,8,0:0:0:0:
424,276,130811,2,2,P|360:288|304:264,1,110.000003356934,0|0,0:0|0:0,0:0:0:0:
236,352,131225,2,2,P|204:288|220:224,1,110.000003356934,0|0,0:0|0:0,0:0:0:0:
264,132,131639,1,2,0:0:0:0:
228,100,131742,1,2,0:0:0:0:
188,76,131846,2,2,P|112:68|92:116,1,110.000003356934
76,204,132259,1,0,0:0:0:0:
192,280,132466,6,0,L|304:260,1,110.000003356934,2|0,0:0|0:0,0:0:0:0:
368,156,132880,2,0,L|259:175,1,110.000003356934,2|0,0:0|0:0,0:0:0:0:
156,192,133294,1,4,0:0:0:0:
256,192,143225,12,4,146122,0:0:0:0:
392,192,146535,6,0,L|280:124,1,100,2|0,0:0|0:0,0:0:0:0:
112,188,146949,2,0,L|200:244,1,100
392,192,147363,2,0,L|299:230,1,100,2|0,0:0|0:0,0:0:0:0:
104,280,147777,2,0,L|220:232,1,100
136,72,148190,5,2,0:0:0:0:
136,72,148397,1,0,0:0:0:0:
296,104,148604,1,0,0:0:0:0:
296,104,148811,1,0,0:0:0:0:
176,216,149018,1,2,0:0:0:0:
176,216,149225,1,0,0:0:0:0:
344,240,149432,1,0,0:0:0:0:
344,240,149639,1,0,0:0:0:0:
212,324,149846,6,2,P|136:316|104:296,1,100
72,144,150259,2,0,P|132:116|184:108,1,100
347,109,150673,2,2,P|395:121|440:144,1,100
395,305,151087,2,0,P|349:324|300:324,1,100
172,184,151501,5,2,0:0:0:0:
148,104,151708,1,8,0:0:0:0:
340,184,151915,1,4,0:0:0:0:
256,228,152121,1,8,0:0:0:0:
256,32,152328,1,4,0:0:0:0:
364,104,152535,1,0,0:0:0:0:
88,232,152742,1,8,0:0:0:0:
148,104,152949,1,2,0:0:0:0:
144,312,153156,6,8,P|240:316|268:312,1,100,8|0,0:0|0:0,0:0:0:0:
444,256,153570,2,8,P|376:236|336:236,1,100,8|0,0:0|0:0,0:0:0:0:
136,144,153984,2,8,P|208:140|244:148,1,100,8|0,0:0|0:0,0:0:0:0:
424,80,154397,2,8,P|344:116|308:120,1,100,8|0,0:0|0:0,0:0:0:0:
256,192,154811,12,0,159777,0:0:0:0:
368,112,173018,5,2,0:0:0:0:
368,112,173122,1,2,0:0:0:0:
368,112,173225,2,0,P|288:72|244:80,2,100,2|0|0,0:0|0:0|0:0,0:0:0:0:
156,52,173846,1,2,0:0:0:0:
156,52,173949,1,2,0:0:0:0:
156,52,174053,2,0,P|154:103|176:148,2,100,2|0|0,0:0|0:0|0:0,0:0:0:0:
232,244,174673,5,2,0:0:0:0:
232,244,174777,1,2,0:0:0:0:
232,244,174880,2,0,P|280:196|288:140,2,100,2|0|0,0:0|0:0|0:0,0:0:0:0:
420,300,175501,1,2,0:0:0:0:
420,300,175604,1,2,0:0:0:0:
420,300,175708,2,0,B|392:312|392:312|352:304|352:304|308:308,2,100,2|0|0,0:0|0:0|0:0,0:0:0:0:
116,316,176328,5,2,0:0:0:0:
96,280,176432,1,2,0:0:0:0:
84,240,176535,2,0,P|80:192|100:144,2,100,2|0|0,0:0|0:0|0:0,0:0:0:0:
300,96,177156,1,2,0:0:0:0:
292,136,177259,1,2,0:0:0:0:
284,176,177363,2,0,B|280:204|280:204|288:248|288:248|288:296,2,100,2|0|0,0:0|0:0|0:0,0:0:0:0:
140,96,177984,5,2,0:0:0:0:
140,96,178087,1,2,0:0:0:0:
140,96,178190,2,0,P|184:48|224:36,1,100,2|0,0:0|0:0,0:0:0:0:
192,196,178604,2,0,P|108:208|76:192,1,100,0|2,0:0|0:0,0:0:0:0:
296,252,179018,2,0,P|312:180|284:124,1,100,0|2,0:0|0:0,0:0:0:0:
424,72,179432,1,0,0:0:0:0:
396,296,179639,5,2,0:0:0:0:
396,296,179742,1,2,0:0:0:0:
396,296,179846,2,0,B|360:332|360:332|300:360,1,100,2|0,0:0|0:0,0:0:0:0:
152,264,180259,1,0,0:0:0:0:
72,96,180466,1,2,0:0:0:0:
72,96,180570,1,2,0:0:0:0:
72,96,180673,2,0,B|128:88|128:88|188:88,1,100,2|0,0:0|0:0,0:0:0:0:
328,120,181087,1,0,0:0:0:0:
256,320,181294,5,2,0:0:0:0:
256,320,181397,1,2,0:0:0:0:
256,320,181501,2,0,P|276:256|252:200,1,100,2|0,0:0|0:0,0:0:0:0:
140,96,181915,1,0,0:0:0:0:
256,320,182122,1,2,0:0:0:0:
256,320,182225,1,2,0:0:0:0:
256,320,182329,2,0,P|236:256|260:200,1,100,2|0,0:0|0:0,0:0:0:0:
372,96,182743,1,0,0:0:0:0:
256,192,182949,12,0,185432,0:0:0:0:
392,156,186259,6,0,P|348:108|264:84,1,150,2|0,0:0|0:0,0:0:0:0:
164,64,186673,2,0,P|184:148|316:180,1,200
360,272,187190,2,0,L|244:300,1,100
262,295,187501,1,0,0:0:0:0:
84,104,187915,6,0,P|120:180|100:244,1,150,2|0,0:0|0:0,0:0:0:0:
40,288,188328,2,0,B|160:264|160:264|248:264,1,200
340,180,188846,2,0,L|232:180,1,100
240,180,189156,1,0,0:0:0:0:
360,344,189570,6,0,B|384:304|384:304|388:244|388:244|408:192,1,150,2|0,0:0|0:0,0:0:0:0:
472,148,189984,2,0,P|360:168|256:112,1,200
328,52,190501,2,0,P|376:72|432:60,1,100
422,64,190811,1,0,0:0:0:0:
100,72,191225,6,0,P|140:120|116:208,1,150,2|0,0:0|0:0,0:0:0:0:
224,200,191639,2,0,P|204:269|247:328,1,150
300,252,192053,1,2,0:0:0:0:
428,192,192259,1,2,0:0:0:0:
308,116,192466,1,2,0:0:0:0:
424,56,192673,1,2,0:0:0:0:
184,100,192880,6,0,P|120:156|116:224,1,150,2|0,0:0|0:0,0:0:0:0:
72,292,193294,2,0,B|112:272|112:272|168:260|168:260|208:228|208:228|256:208,1,200
336,252,193811,2,0,P|340:176|312:140,1,100
329,157,194122,1,0,0:0:0:0:
424,328,194535,6,0,B|392:276|416:228|416:228|392:168,1,150,2|0,0:0|0:0,0:0:0:0:
488,272,194949,2,0,B|364:272|364:272|328:264|328:264|284:260,1,200
192,172,195466,2,0,L|292:180,1,100
291,179,195777,1,0,0:0:0:0:
120,232,196190,6,0,P|104:164|148:92,1,150,2|0,0:0|0:0,0:0:0:0:
100,28,196604,2,0,B|152:40|152:40|192:64|192:64|244:72|244:72|296:96,1,200
395,83,197122,2,0,P|379:151|343:183,1,100
360,172,197432,1,0,0:0:0:0:
176,336,197846,6,0,P|196:256|156:188,1,150,2|0,0:0|0:0,0:0:0:0:
268,169,198259,2,0,P|238:102|260:32,1,150,0|0,0:0|0:0,0:0:0:0:
336,96,198673,1,2,0:0:0:0:
144,96,198880,1,2,0:0:0:0:
376,176,199087,1,2,0:0:0:0:
104,176,199294,1,2,0:0:0:0:
380,320,199501,6,0,P|328:304|284:280,1,100,8|0,0:0|0:0,0:0:0:0:
132,64,199915,2,0,P|184:80|228:104,1,100,8|0,0:0|0:0,0:0:0:0:
224,282,200328,2,0,P|179:305|132:320,1,100,8|0,0:0|0:0,0:0:0:0:
287,101,200742,2,0,P|332:78|380:64,1,100,8|0,0:0|0:0,0:0:0:0:
384,340,201156,6,0,P|400:256|384:208,1,100,8|0,0:0|0:0,0:0:0:0:
128,44,201570,2,0,P|112:128|128:176,1,100,8|0,0:0|0:0,0:0:0:0:
384,44,201984,2,0,P|400:128|384:176,1,100,8|0,0:0|0:0,0:0:0:0:
128,340,202397,2,0,P|112:256|128:208,1,100,8|0,0:0|0:0,0:0:0:0:
408,192,202811,5,8,0:0:0:0:
408,192,203018,1,0,0:0:0:0:
256,52,203225,1,8,0:0:0:0:
256,52,203432,1,0,0:0:0:0:
104,192,203639,1,8,0:0:0:0:
104,192,203846,1,0,0:0:0:0:
256,332,204053,1,8,0:0:0:0:
256,332,204260,1,0,0:0:0:0:
352,120,204466,6,0,P|268:88|220:88,1,100,8|0,0:0|0:0,0:0:0:0:
424,192,204880,2,0,P|376:220|328:220,1,100,8|0,0:0|0:0,0:0:0:0:
196,184,205294,1,8,0:0:0:0:
72,84,205501,1,0,0:0:0:0:
48,240,205708,1,8,0:0:0:0:
48,240,206122,6,0,B|72:256|72:256|88:272|88:272|140:288,1,100,8|0,0:0|0:0,0:0:0:0:
308,224,206535,2,0,B|304:180|304:180|296:160|296:160|284:112,1,100,8|0,0:0|0:0,0:0:0:0:
124,120,206949,2,0,P|184:80|220:72,1,100,8|0,0:0|0:0,0:0:0:0:
388,264,207363,2,0,P|328:304|292:312,1,100,8|0,0:0|0:0,0:0:0:0:
112,200,207777,5,0,0:0:0:0:
112,200,207984,1,0,0:0:0:0:
232,96,208190,1,8,0:0:0:0:
232,96,208397,1,0,0:0:0:0:
392,140,208604,1,8,0:0:0:0:
392,140,208811,1,0,0:0:0:0:
260,252,209018,1,8,0:0:0:0:
260,252,209225,1,0,0:0:0:0:
396,260,209432,6,0,P|344:316|284:328,1,100,8|0,0:0|0:0,0:0:0:0:
116,124,209846,2,0,P|168:68|228:56,1,100,8|0,0:0|0:0,0:0:0:0:
412,276,210259,2,0,P|360:332|300:344,1,100,8|0,0:0|0:0,0:0:0:0:
100,108,210673,2,0,P|152:52|212:40,1,100,8|0,0:0|0:0,0:0:0:0:
432,108,211087,5,8,0:0:0:0:
360,308,211294,1,0,0:0:0:0:
244,108,211501,1,8,0:0:0:0:
116,304,211708,1,0,0:0:0:0:
360,308,211915,1,8,0:0:0:0:
24,108,212122,1,0,0:0:0:0:
244,108,212328,1,8,0:0:0:0:
256,192,212742,5,0,0:0:0:0:
256,192,213363,5,0,0:0:0:0:
256,192,213984,5,0,0:0:0:0:
256,192,214604,5,0,0:0:0:0:
256,192,215225,5,0,0:0:0:0:
256,192,215846,5,0,0:0:0:0:
256,192,216466,5,0,0:0:0:0:
256,192,217087,5,0,0:0:0:0:
256,192,217708,5,0,0:0:0:0:
256,192,218328,5,4,0:0:0:0:
160,100,218535,1,4,0:0:0:0:
308,64,218742,1,0,0:0:0:0:
392,200,218949,1,0,0:0:0:0:
124,308,219363,5,8,0:0:0:0:
100,264,219466,1,0,0:0:0:0:
88,216,219570,1,0,0:0:0:0:
88,168,219673,1,0,0:0:0:0:
104,120,219777,1,8,0:0:0:0:
136,84,219880,1,0,0:0:0:0:
184,68,219984,1,0,0:0:0:0:
232,68,220087,1,0,0:0:0:0:
228,116,220190,1,8,0:0:0:0:
212,164,220294,1,0,0:0:0:0:
220,212,220397,1,0,0:0:0:0:
248,252,220501,1,0,0:0:0:0:
296,264,220604,1,8,0:0:0:0:
344,252,220708,1,0,0:0:0:0:
376,216,220811,1,0,0:0:0:0:
396,168,220915,1,0,0:0:0:0:
388,120,221018,5,8,0:0:0:0:
352,84,221122,1,0,0:0:0:0:
308,64,221225,1,0,0:0:0:0:
308,112,221328,1,0,0:0:0:0:
304,164,221432,1,8,0:0:0:0:
276,208,221535,1,0,0:0:0:0:
220,212,221639,1,0,0:0:0:0:
176,192,221742,1,0,0:0:0:0:
140,156,221846,1,8,0:0:0:0:
100,128,221949,1,0,0:0:0:0:
52,112,222053,1,0,0:0:0:0:
48,160,222156,1,0,0:0:0:0:
56,208,222259,1,8,0:0:0:0:
76,256,222363,1,0,0:0:0:0:
116,284,222466,1,0,0:0:0:0:
160,312,222570,1,0,0:0:0:0:
208,328,222673,6,0,L|272:344,1,50,8|0,0:0|0:0,0:0:0:0:
392,264,222880,2,0,L|340:240,1,50,8|0,0:0|0:0,0:0:0:0:
408,92,223087,2,0,L|352:92,1,50,8|0,0:0|0:0,0:0:0:0:
164,72,223294,2,0,L|220:96,1,50,8|0,0:0|0:0,0:0:0:0:
132,212,223501,2,0,L|188:204,1,50,8|0,0:0|0:0,0:0:0:0:
380,172,223708,2,0,L|324:180,1,50,8|0,0:0|0:0,0:0:0:0:
124,232,223915,2,0,L|180:224,1,50,8|0,0:0|0:0,0:0:0:0:
388,152,224122,2,0,L|332:160,1,50,8|0,0:0|0:0,0:0:0:0:
256,192,224328,5,4,0:0:0:0:
392,144,225984,6,0,P|328:96|224:96,1,150.000005722046,8|0,0:0|0:0,0:0:0:0:
264,312,226397,1,0,0:0:0:0:
112,164,226604,1,0,0:0:0:0:
256,192,226811,2,0,B|272:112|244:48|244:48|172:88|96:52,1,300.000011444092
112,164,227432,1,0,0:0:0:0:
264,312,227639,6,0,B|304:292|304:292|332:264|332:264|376:240|376:240|416:184,1,150.000005722046,8|0,0:0|0:0,0:0:0:0:
256,48,228053,2,0,B|244:76|244:76|236:112|236:112|204:152|204:152|168:228,1,150.000005722046,8|0,0:0|0:0,0:0:0:0:
216,324,228466,2,0,P|184:236|192:176,1,150.000005722046,8|0,0:0|0:0,0:0:0:0:
400,48,228880,2,0,P|432:136|424:196,1,150.000005722046,8|0,0:0|0:0,0:0:0:0:
256,48,229294,5,2,0:0:0:0:
92,160,229501,1,2,0:0:0:0:
272,240,229708,1,0,0:0:0:0:
108,352,229915,1,0,0:0:0:0:
348,256,230122,6,0,P|264:164|208:284,1,300.000011444092,8|0,0:0|0:0,0:0:0:0:
272,240,230742,1,0,0:0:0:0:
416,56,230949,2,0,L|264:92,1,150.000005722046,8|0,0:0|0:0,0:0:0:0:
108,352,231363,2,0,L|253:317,1,150.000005722046,8|0,0:0|0:0,0:0:0:0:
64,208,231777,5,2,0:0:0:0:
272,240,231984,1,0,0:0:0:0:
196,68,232190,2,2,P|288:52|448:180,1,300.000011444092,2|8,0:0|0:0,0:0:0:0:
272,240,232811,5,8,0:0:0:0:
84,96,233018,1,0,0:0:0:0:
64,308,233225,1,0,0:0:0:0:
276,16,233432,1,0,0:0:0:0:
440,132,233639,1,0,0:0:0:0:
440,336,233846,5,0,0:0:0:0:
440,336,234053,1,0,0:0:0:0:
272,240,234259,2,0,B|236:224|236:224|192:216|192:216|152:192|152:192|112:172,1,150.000005722046,8|0,0:0|0:0,0:0:0:0:
308,60,234673,2,0,L|440:132,1,150.000005722046,8|0,0:0|0:0,0:0:0:0:
440,336,235087,5,8,0:0:0:0:
272,240,235294,1,0,0:0:0:0:
308,60,235501,1,8,0:0:0:0:
88,116,235915,5,2,0:0:0:0:
88,116,236122,1,2,0:0:0:0:
52,324,236328,2,2,P|156:340|264:188,1,300.000011444092,2|8,0:0|0:0,0:0:0:0:
272,124,236846,1,0,0:0:0:0:
308,60,236949,1,0,0:0:0:0:
432,280,237156,6,0,B|400:288|400:288|352:272|352:272|280:284,1,150.000005722046,8|8,0:0|0:0,0:0:0:0:
212,292,237466,1,8,0:0:0:0:
128,88,237570,6,0,L|204:108,1,75.0000028610231,8|0,0:0|0:0,0:0:0:0:
336,200,237777,2,0,L|263:180,1,75.0000028610231,8|0,0:0|0:0,0:0:0:0:
116,76,237984,2,0,L|192:96,1,75.0000028610231,8|0,0:0|0:0,0:0:0:0:
348,212,238190,2,0,L|275:192,1,75.0000028610231,8|0,0:0|0:0,0:0:0:0:
232,48,238397,5,8,0:0:0:0:
308,60,238501,1,8,0:0:0:0:
380,84,238604,1,8,0:0:0:0:
432,140,238708,1,8,0:0:0:0:
448,216,238811,2,8,L|448:264,8,37.5000014305115
116,76,239639,5,2,0:0:0:0:
116,76,240053,2,2,B|60:144|116:220|116:220|188:172|260:232,1,300.000011444092
180,296,240673,1,0,0:0:0:0:
400,116,240880,1,2,0:0:0:0:
400,116,240984,2,2,P|328:72|248:88,1,150.000005722046
196,28,241294,2,2,L|248:180,1,150.000005722046
416,312,241708,5,2,0:0:0:0:
344,336,241811,1,0,0:0:0:0:
268,344,241915,1,0,0:0:0:0:
200,316,242018,1,0,0:0:0:0:
156,256,242122,1,2,0:0:0:0:
336,96,242535,5,8,0:0:0:0:
336,96,242742,1,8,0:0:0:0:
88,96,242949,1,2,0:0:0:0:
88,96,243363,2,2,B|148:40|240:92|240:92|184:152|228:240,1,300.000011444092
316,164,243984,1,0,0:0:0:0:
332,300,244190,5,8,0:0:0:0:
316,300,244604,1,8,0:0:0:0:
300,300,245018,2,2,L|136:272,1,150.000005722046,2|0,0:0|0:0,0:0:0:0:
72,60,245432,2,2,L|219:85,1,150.000005722046,2|0,0:0|0:0,0:0:0:0:
428,280,245846,6,2,P|364:212|308:208,1,150.000005722046,2|0,0:0|0:0,0:0:0:0:
88,224,246259,1,2,0:0:0:0:
88,224,246673,2,2,B|44:152|96:84|96:84|144:88|144:88|188:80|188:80|288:84,1,300.000011444092
376,104,247294,1,0,0:0:0:0:
352,308,247501,1,2,0:0:0:0:
352,308,247604,2,2,P|276:208|224:208,1,150.000005722046
200,264,247915,2,2,L|240:92,1,150.000005722046
64,256,248328,5,2,0:0:0:0:
48,184,248432,1,0,0:0:0:0:
76,116,248535,1,0,0:0:0:0:
144,80,248639,1,0,0:0:0:0:
164,152,248742,1,2,0:0:0:0:
496,20,249156,6,8,L|424:164,1,150.000005722046
292,136,249570,5,0,0:0:0:0:
284,152,249983,5,0,0:0:0:0:
272,168,250397,5,0,0:0:0:0:
260,180,250811,5,0,0:0:0:0:
248,192,251225,5,0,0:0:0:0:
232,204,251639,5,0,0:0:0:0:
216,216,252053,2,8,L|184:236,8,37.5000014305115
428,288,252880,6,0,P|304:352|336:176,1,400
380,112,254122,2,0,P|224:144|200:360,1,400
440,20,255777,6,2,P|496:84|472:176,1,150.000005722046,2|0,0:0|0:0,0:0:0:0:
268,40,256190,6,0,P|188:48|172:320,1,400
304,300,257432,2,0,P|416:224|356:88,1,300
296,188,258259,2,0,P|188:136|80:260,1,300
452,44,259087,6,2,P|376:128|384:212,1,150.000005722046,2|0,0:0|0:0,0:0:0:0:
60,340,259501,2,2,P|136:256|128:172,1,150.000005722046,2|0,0:0|0:0,0:0:0:0:
440,324,259915,6,0,P|336:316|384:148,1,300
304,72,260742,2,0,P|204:180|224:340,1,300
214,324,261570,1,0,0:0:0:0:
56,48,262397,6,2,B|104:80|104:80|144:52|196:60,1,150.000005722046,2|0,0:0|0:0,0:0:0:0:
40,212,262811,6,8,P|56:300|160:288,1,200
180,260,263328,1,8,0:0:0:0:
216,224,263432,1,8,0:0:0:0:
264,208,263535,1,8,0:0:0:0:
316,212,263639,2,8,P|380:200|424:160,1,100
428,136,263949,1,8,0:0:0:0:
380,40,264053,6,0,P|324:84|200:52,1,200
80,120,264673,1,0,0:0:0:0:
76,320,264880,2,0,P|160:240|320:300,1,300
432,52,265708,6,2,B|440:116|440:116|400:92|356:104,1,150.000005722046,2|0,0:0|0:0,0:0:0:0:
376,276,266122,2,0,P|292:296|244:276,1,100
128,204,266535,2,0,L|152:152,8,33.3333333333333
304,312,267363,6,0,P|308:232|384:356,1,400
376,276,268259,2,0,L|352:328,7,33.3333333333333
460,344,269018,6,2,B|444:264|444:264|408:172,1,150.000005722046
152,56,269432,2,0,P|116:116|112:164,1,100
360,140,269846,2,0,L|340:184,9,33.3333333333333,0|0|0|0|0|0|0|0|0|0,0:0|0:0|0:0|0:0|0:0|0:0|0:0|0:0|0:0|0:0,0:0:0:0:
144,340,270673,6,0,P|68:252|128:92,1,300
125,93,271397,1,0,0:0:0:0:
232,68,271501,2,0,L|288:80,1,50,8|0,0:0|0:0,0:0:0:0:
348,196,271708,2,0,L|299:185,1,50,8|0,0:0|0:0,0:0:0:0:
228,48,271915,2,0,L|284:60,1,50,8|0,0:0|0:0,0:0:0:0:
428,104,272122,1,8,0:0:0:0:
144,340,272328,6,2,L|80:196,1,150.000005722046,2|0,0:0|0:0,0:0:0:0:
348,196,272742,2,0,L|440:260,1,100
252,256,273156,2,0,B|228:228|136:224|136:224|184:180|172:128,1,200
72,136,273777,1,0,0:0:0:0:
228,48,273984,2,0,P|340:28|424:88,1,200
308,160,274604,1,0,0:0:0:0:
400,304,274811,6,8,P|320:336|184:280,1,225.000008583069
144,236,275225,1,8,0:0:0:0:
112,168,275328,1,8,0:0:0:0:
120,92,275432,1,8,0:0:0:0:
172,36,275535,1,8,0:0:0:0:
248,24,275639,6,0,L|352:16,1,100,8|0,0:0|0:0,0:0:0:0:
424,200,276053,2,0,L|308:176,1,100
144,236,276466,2,0,L|232:312,1,100
60,112,276880,2,0,L|148:36,1,100
256,192,277294,12,8,278122,0:0:0:0:
396,264,278949,6,0,B|360:332|276:328|276:328|252:280|196:276,1,225.000008583069,4|0,0:0|0:0,0:0:0:0:
204,352,279363,2,0,P|144:256|236:208,1,225.000008583069
292,188,279777,2,0,L|392:176,2,75.0000028610231,0|0|0,0:0|0:0|0:0,0:0:0:0:
56,48,280190,1,0,0:0:0:0:
56,48,280294,2,0,P|40:140|48:208,1,150.000005722046
56,272,280604,6,0,B|124:240|156:184|156:184|252:140|316:232,1,300.000011444092,4|0,0:0|0:0,0:0:0:0:
460,44,281225,1,0,0:0:0:0:
384,52,281328,1,0,0:0:0:0:
316,88,281432,2,0,P|264:152|264:204,2,75.0000028610231,0|0|0,0:0|0:0|0:0,0:0:0:0:
372,324,281846,1,0,0:0:0:0:
372,324,281949,2,0,P|320:256|228:256,1,150.000005722046
196,284,282259,6,0,P|144:220|144:148,1,150.000005722046,4|0,0:0|0:0,0:0:0:0:
384,52,282673,2,0,P|436:116|436:188,1,150.000005722046
416,252,282984,1,0,0:0:0:0:
372,312,283087,2,0,P|288:348|264:348,2,75.0000028610231,0|0|0,0:0|0:0|0:0,0:0:0:0:
92,248,283501,1,0,0:0:0:0:
92,248,283604,2,0,P|60:168|92:112,1,150.000005722046
136,180,283915,6,0,P|216:140|304:184,1,150.000005722046,4|0,0:0|0:0,0:0:0:0:
372,312,284328,2,0,P|292:352|204:308,1,150.000005722046
184,280,284639,1,0,0:0:0:0:
148,212,284742,2,0,P|140:136|156:92,2,75.0000028610231,0|0|0,0:0|0:0|0:0,0:0:0:0:
388,80,285156,1,0,0:0:0:0:
388,80,285259,2,0,B|360:100|328:84|328:84|292:104|292:104|276:80|232:72,1,150.000005722046
228,148,285570,6,0,B|276:192|328:168|328:168|312:232|360:284,1,225.000008583069,4|0,0:0|0:0,0:0:0:0:
424,248,285984,2,0,P|396:340|284:304,1,225.000008583069
252,252,286397,2,0,P|188:180|132:176,1,150.000005722046
52,340,286811,1,0,0:0:0:0:
52,340,286915,2,0,P|128:308|172:216,1,150.000005722046
144,180,287225,6,0,P|164:96|220:48,1,150.000005722046,4|0,0:0|0:0,0:0:0:0:
368,220,287639,2,0,P|348:304|292:352,1,150.000005722046
400,144,288053,1,0,0:0:0:0:
400,144,288156,2,0,P|320:100|240:112,1,150.000005722046
220,44,288466,2,0,P|188:116|328:140,1,225.000008583069
320,244,288880,6,0,L|172:336,1,150.000005722046,4|0,0:0|0:0,0:0:0:0:
28,120,289294,2,0,L|155:40,1,150.000005722046
320,244,289708,1,0,0:0:0:0:
396,240,289811,1,0,0:0:0:0:
460,200,289915,2,0,P|504:140|424:60,1,150.000005722046
428,132,290225,2,0,P|360:100|296:128,1,150.000005722046
224,148,290535,5,0,0:0:0:0:
244,220,290639,1,0,0:0:0:0:
244,296,290742,2,0,P|184:356|100:300,1,150.000005722046
168,276,291053,2,0,P|124:232|140:152,1,150.000005722046
188,96,291363,1,0,0:0:0:0:
243,48,291466,1,0,0:0:0:0:
317,51,291569,1,0,0:0:0:0:
369,102,291673,1,0,0:0:0:0:
374,175,291776,1,0,0:0:0:0:
328,232,291880,1,0,0:0:0:0:
255,244,291983,1,0,0:0:0:0:
194,203,292087,1,0,0:0:0:0:
120,204,292190,6,0,L|44:356,1,150.000005722046,4|0,0:0|0:0,0:0:0:0:
371,376,292604,2,0,L|327:228,1,150.000005722046
452,40,293018,2,0,P|380:120|272:124,1,150.000005722046
268,116,293328,1,0,0:0:0:0:
196,96,293432,2,0,P|88:76|12:136,1,150.000005722046
232,336,293846,6,0,L|96:236,1,150.000005722046,4|0,0:0|0:0,0:0:0:0:
424,240,294259,2,0,L|352:56,1,150.000005722046
64,76,294673,1,0,0:0:0:0:
64,76,294777,2,0,P|44:176|80:248,1,150.000005722046
124,256,295087,1,0,0:0:0:0:
192,220,295190,2,0,P|212:120|176:48,1,150.000005722046
268,56,295501,6,0,P|300:128|320:212,1,150.000005722046,4|0,0:0|0:0,0:0:0:0:
56,348,295915,2,0,P|84:204|92:184,1,150.000005722046
384,320,296328,1,0,0:0:0:0:
384,320,296432,2,0,P|352:236|396:168,1,150.000005722046
428,132,296742,2,0,P|456:88|468:56,2,75.0000028610231,0|0|0,0:0|0:0|0:0,0:0:0:0:
208,72,297156,6,0,B|168:104|168:104|124:120|124:120|64:176|64:176,1,150.000005722046,4|0,0:0|0:0,0:0:0:0:
220,344,297570,2,0,B|248:312|248:312|256:288|256:288|272:272|272:272|276:244|276:244|292:212,1,150.000005722046
464,344,297984,1,0,0:0:0:0:
440,272,298087,1,0,0:0:0:0:
440,196,298190,2,0,P|432:112|376:84,1,150.000005722046
372,160,298501,2,0,B|320:152|304:108|304:108|232:128,1,150.000005722046
116,240,298811,6,0,L|288:300,1,150.000005722046,4|0,0:0|0:0,0:0:0:0:
80,84,299225,2,0,L|252:144,1,150.000005722046
408,56,299639,2,0,B|440:124|396:168|396:168|440:212|408:280,1,225.000008583069
348,224,300053,2,0,P|296:292|180:236,1,225.000008583069
264,176,300466,6,0,B|232:104|232:104|180:40,1,150.000005722046,4|0,0:0|0:0,0:0:0:0:
348,224,300880,2,0,B|392:168|392:168|424:96,1,150.000005722046
260,280,301294,1,0,0:0:0:0:
260,280,301397,2,0,B|208:276|180:312|180:312|168:252|120:232,1,150.000005722046
96,208,301708,1,0,0:0:0:0:
80,136,301811,1,0,0:0:0:0:
108,64,301915,1,0,0:0:0:0:
400,60,302122,6,0,P|456:120|444:204,1,150.000005722046,4|0,0:0|0:0,0:0:0:0:
264,336,302535,2,0,P|176:312|132:224,1,150.000005722046
432,312,302949,1,0,0:0:0:0:
432,312,303053,2,0,L|308:204,1,150.000005722046
260,164,303363,2,0,L|196:104,2,75.0000028610231,0|0|0,0:0|0:0|0:0,0:0:0:0:
204,280,303777,6,0,P|136:220|68:224,1,150.000005722046,4|0,0:0|0:0,0:0:0:0:
308,104,304190,2,0,P|376:164|444:160,1,150.000005722046
252,192,304604,1,8,0:0:0:0:
112,128,304811,2,8,L|80:80,4,37.5000014305115,8|8|8|8|8,0:0|0:0|0:0|0:0|0:0,0:0:0:0:
204,104,305122,1,8,0:0:0:0:
308,104,305225,1,8,0:0:0:0:
252,192,305328,1,8,0:0:0:0:
432,216,305432,6,0,P|416:300|348:340,1,150.000005722046,4|0,0:0|0:0,0:0:0:0:
47,248,305846,2,0,P|63:164|131:124,1,150.000005722046,8|0,0:0|0:0,0:0:0:0:
375,323,306259,2,0,P|309:377|231:364,1,150.000005722046
104,140,306673,2,0,P|170:85|248:99,1,150.000005722046
152,300,307087,5,4,0:0:0:0:
152,300,307294,1,0,0:0:0:0:
360,300,307501,1,8,0:0:0:0:
360,300,307708,1,0,0:0:0:0:
152,84,307915,1,0,0:0:0:0:
152,84,308122,1,0,0:0:0:0:
360,84,308328,1,0,0:0:0:0:
360,84,308535,1,0,0:0:0:0:
152,300,308742,6,0,L|40:188,1,150.000005722046,4|0,0:0|0:0,0:0:0:0:
360,84,309156,2,0,L|472:196,1,150.000005722046,8|0,0:0|0:0,0:0:0:0:
152,84,309570,2,0,L|40:196,1,150.000005722046
360,300,309984,2,0,L|472:188,1,150.000005722046
216,152,310397,5,4,0:0:0:0:
216,152,310604,1,0,0:0:0:0:
296,232,310811,1,8,0:0:0:0:
296,232,311018,1,0,0:0:0:0:
348,96,311225,5,0,0:0:0:0:
164,288,311432,1,0,0:0:0:0:
360,300,311639,1,0,0:0:0:0:
152,84,311846,1,0,0:0:0:0:
164,288,312053,6,0,P|112:220|40:216,1,150.000005722046,4|0,0:0|0:0,0:0:0:0:
348,96,312466,2,0,P|400:164|472:168,1,150.000005722046,8|0,0:0|0:0,0:0:0:0:
208,148,312880,1,0,0:0:0:0:
208,148,312984,1,0,0:0:0:0:
208,148,313087,1,0,0:0:0:0:
304,248,313294,1,0,0:0:0:0:
164,288,313501,1,0,0:0:0:0:
348,360,313708,6,0,P|384:284|464:260,1,150.000005722046,4|0,0:0|0:0,0:0:0:0:
164,24,314122,2,0,P|128:100|48:124,1,150.000005722046,8|0,0:0|0:0,0:0:0:0:
304,248,314535,1,0,0:0:0:0:
304,248,314639,1,0,0:0:0:0:
304,248,314742,1,0,0:0:0:0:
164,288,314949,1,0,0:0:0:0:
208,148,315156,1,0,0:0:0:0:
340,88,315363,6,0,B|376:112|376:112|420:172|420:172|448:200,1,150.000005722046,4|0,0:0|0:0,0:0:0:0:
256,340,315777,2,0,B|252:296|252:296|220:224|220:224|212:176,1,150.000005722046,8|0,0:0|0:0,0:0:0:0:
64,328,316190,1,0,0:0:0:0:
64,328,316294,1,0,0:0:0:0:
64,328,316397,1,0,0:0:0:0:
40,168,316604,1,0,0:0:0:0:
208,148,316811,1,0,0:0:0:0:
392,88,317018,5,4,0:0:0:0:
392,88,317225,1,0,0:0:0:0:
340,208,317432,1,8,0:0:0:0:
340,208,317639,1,0,0:0:0:0:
256,88,317846,1,2,0:0:0:0:
80,248,318053,1,0,0:0:0:0:
256,280,318259,1,2,0:0:0:0:
80,56,318466,1,0,0:0:0:0:
440,264,318673,6,2,B|412:300|412:300|352:284|312:332,1,150.000005722046,4|0,0:0|0:0,0:0:0:0:
168,236,319087,2,0,P|228:164|300:152,1,150.000005722046
436,68,319501,2,2,B|376:88|320:56|320:56|236:8|144:56,1,300.000011444092,2|0,0:0|0:0,0:0:0:0:
236,136,320122,1,0,0:0:0:0:
272,336,320328,6,2,B|284:332|284:332|320:324|320:324|360:288|360:288|408:264|408:264|456:168|360:104,1,300.000011444092,2|0,0:0|0:0,0:0:0:0:
276,212,320949,1,0,0:0:0:0:
276,212,321156,2,2,P|200:148|56:256,1,300.000011444092,2|0,0:0|0:0,0:0:0:0:
368,104,321984,6,2,L|468:232,1,150.000005722046,2|0,0:0|0:0,0:0:0:0:
216,320,322397,2,0,L|216:160,1,150.000005722046
48,236,322811,2,2,B|48:136|48:136|40:56|140:12|200:92,1,300.000011444092,2|0,0:0|0:0,0:0:0:0:
124,124,323432,1,0,0:0:0:0:
216,320,323639,6,2,P|384:316|400:72,1,450.000017166138,2|0,0:0|0:0,0:0:0:0:
296,188,324466,2,2,P|248:124|176:104,1,150.000005722046
56,272,324880,2,2,P|104:336|176:356,1,150.000005722046
256,192,325294,12,0,328604,0:0:0:0:
256,192,328708,12,0,331501,0:0:0:0:
324,192,331915,5,4,0:0:0:0:
256,260,332122,1,0,0:0:0:0:
188,192,332328,1,0,0:0:0:0:
256,124,332535,1,0,0:0:0:0:
364,300,332742,5,8,0:0:0:0:
147,300,332949,1,0,0:0:0:0:
147,83,333155,1,0,0:0:0:0:
364,83,333362,1,0,0:0:0:0:
147,300,333570,6,0,P|104:264|48:264,1,100,8|0,0:0|0:0,0:0:0:0:
364,83,333984,2,0,P|408:120|464:120,1,100
199,231,334397,2,0,P|229:270|232:320,1,100,8|0,0:0|0:0,0:0:0:0:
312,152,334811,2,0,P|282:113|280:64,1,100
128,124,335225,5,8,0:0:0:0:
60,192,335432,1,0,0:0:0:0:
128,260,335639,1,0,0:0:0:0:
196,192,335846,1,0,0:0:0:0:
208,304,336053,5,8,0:0:0:0:
208,87,336260,1,0,0:0:0:0:
424,87,336466,1,0,0:0:0:0:
424,304,336673,1,0,0:0:0:0:
316,192,336880,5,8,0:0:0:0:
316,192,337087,1,0,0:0:0:0:
232,192,337294,1,0,0:0:0:0:
232,192,337501,1,0,0:0:0:0:
272,284,337708,5,8,0:0:0:0:
272,100,337915,1,0,0:0:0:0:
276,311,338122,1,0,0:0:0:0:
276,72,338328,1,0,0:0:0:0:
72,104,338535,5,8,0:0:0:0:
72,124,338742,1,0,0:0:0:0:
80,144,338949,1,0,0:0:0:0:
92,160,339156,1,0,0:0:0:0:
120,312,339363,5,8,0:0:0:0:
140,312,339570,1,0,0:0:0:0:
160,304,339777,1,0,0:0:0:0:
176,292,339984,1,0,0:0:0:0:
224,96,340190,5,8,0:0:0:0:
244,96,340397,1,0,0:0:0:0:
264,104,340604,1,0,0:0:0:0:
280,116,340811,1,0,0:0:0:0:
432,144,341018,5,8,0:0:0:0:
432,164,341225,1,0,0:0:0:0:
424,184,341432,1,0,0:0:0:0:
412,200,341639,1,0,0:0:0:0:
296,360,341846,5,8,0:0:0:0:
272,352,342053,1,0,0:0:0:0:
256,324,342259,1,0,0:0:0:0:
248,292,342466,1,0,0:0:0:0:
252,144,342673,5,8,0:0:0:0:
243,119,342880,1,0,0:0:0:0:
215,104,343086,1,0,0:0:0:0:
182,95,343293,1,0,0:0:0:0:
104,216,343501,6,0,P|88:272|104:328,1,100,8|0,0:0|0:0,0:0:0:0:
120,124,343915,2,0,P|170:152|199:203,1,100
236,276,344328,1,8,0:0:0:0:
328,316,344535,1,0,0:0:0:0:
420,280,344742,1,8,0:0:0:0:
464,188,344949,1,0,0:0:0:0:
284,68,345156,6,0,P|208:52|152:104,1,150,8|0,0:0|0:0,0:0:0:0:
108,88,345570,2,0,P|96:152|192:232,1,200
200,280,346087,2,0,P|264:280|308:248,1,100
294,263,346397,1,0,0:0:0:0:
124,348,346811,6,0,P|100:268|132:208,1,150,8|0,0:0|0:0,0:0:0:0:
128,211,347225,1,0,0:0:0:0:
384,76,347639,1,0,0:0:0:0:
384,76,347742,2,0,P|352:136|376:200,1,100
355,165,348053,1,0,0:0:0:0:
312,332,348466,6,0,P|272:280|192:244,1,150,8|0,0:0|0:0,0:0:0:0:
152,268,348880,2,0,P|112:208|152:92,1,200
192,120,349397,2,0,P|240:88|320:88,1,100
280,81,349708,1,0,0:0:0:0:
412,272,350122,6,0,P|384:208|304:196,1,150,8|0,0:0|0:0,0:0:0:0:
316,244,350535,2,0,B|272:252|252:272|252:272|224:192|140:208,1,200
148,256,351053,2,0,P|88:264|56:300,1,100
61,290,351363,1,0,0:0:0:0:
256,192,351777,12,0,358397,0:0:0:0:
