osu file format v10

[General]
AudioFilename: Party With Pinkie [VIP].mp3
AudioLeadIn: 0
PreviewTime: 169935
Countdown: 0
SampleSet: None
StackLeniency: 0.7
Mode: 3
LetterboxInBreaks: 1

[Editor]
Bookmarks: 975,31695,62415,77775,108495,139215,169935,200655,231375,262095,292815
DistanceSpacing: 1
BeatDivisor: 4
GridSize: 16

[Metadata]
Title:Party With Pinkie [VIP]
TitleUnicode:Party With Pinkie [VIP]
Artist:Alex S.
ArtistUnicode:Alex S.
Creator:vytalibus
Version:osu!mania
Source:
Tags:
BeatmapID:183618
BeatmapSetID:61657

[Difficulty]
HPDrainRate:7
CircleSize:7
OverallDifficulty:7
ApproachRate:8
SliderMultiplier:1.4
SliderTickRate:1

[Events]
//Background and Video events
0,0,"Party With Pinkie VIP.jpg"
//Break Periods
//Storyboard Layer 0 (Background)
//Storyboard Layer 1 (Fail)
//Storyboard Layer 2 (Pass)
//Storyboard Layer 3 (Foreground)
//Storyboard Sound Samples
//Background Colour Transformations
3,100,163,162,255

[TimingPoints]
975.590163934426,480,4,1,0,100,1,0

[HitObjects]
182,288,1455,2,0,B|182:192,1,70
329,288,3135,2,0,B|329:192,1,70
329,160,3615,1,0,0:0:0
109,288,5295,2,0,B|109:192,1,70
402,288,6975,2,0,B|402:192,1,70
402,160,7455,1,0,0:0:0
36,288,9135,2,0,B|36:192,1,70
475,288,10815,2,0,B|475:192,1,70
475,160,11295,1,0,0:0:0
256,304,12975,2,0,B|256:208,1,70
36,272,14655,2,0,B|36:192,1,70
475,272,14655,2,0,B|475:192,1,70
36,128,15135,1,0,0:0:0
475,128,15135,1,0,0:0:0
182,288,16815,6,0,B|182:192,1,70
329,288,18495,2,0,B|329:192,1,70
329,160,18975,1,0,0:0:0
109,288,20655,2,0,B|109:192,1,70
182,288,20655,2,0,B|182:192,1,70
329,288,22335,2,0,B|329:192,1,70
402,288,22335,2,0,B|402:192,1,70
329,160,22815,1,0,0:0:0
402,160,22815,1,0,0:0:0
182,288,24495,2,0,B|182:192,1,70
109,288,24495,2,0,B|109:192,1,70
36,288,24495,2,0,B|36:192,1,70
402,288,26175,2,0,B|402:192,1,70
329,288,26175,2,0,B|329:192,1,70
475,288,26175,2,0,B|475:192,1,70
329,160,26655,1,0,0:0:0
402,160,26655,1,0,0:0:0
475,160,26655,1,0,0:0:0
109,272,28335,2,0,B|109:192,1,70
182,272,28335,2,0,B|182:192,1,70
329,272,28335,2,0,B|329:192,1,70
402,272,28335,2,0,B|402:192,1,70
256,320,29775,2,0,B|256:176,3,140
182,176,31455,1,0,0:0:0
36,176,31455,1,0,0:0:0
329,176,31455,1,0,0:0:0
475,176,31455,1,0,0:0:0
109,240,31695,1,0,0:0:0
402,240,31935,1,0,0:0:0
36,320,32175,1,0,0:0:0
182,320,32175,1,0,0:0:0
329,320,32415,1,0,0:0:0
475,320,32415,1,0,0:0:0
402,96,32655,1,0,0:0:0
329,96,32775,1,0,0:0:0
256,96,32895,1,0,0:0:0
182,96,33015,1,0,0:0:0
109,96,33135,1,0,0:0:0
182,96,33255,1,0,0:0:0
256,96,33375,1,0,0:0:0
329,96,33495,1,0,0:0:0
403,240,33615,1,0,0:0:0
110,240,33855,1,0,0:0:0
476,320,34095,1,0,0:0:0
330,320,34095,1,0,0:0:0
183,320,34335,1,0,0:0:0
37,320,34335,1,0,0:0:0
110,96,34575,1,0,0:0:0
183,96,34695,1,0,0:0:0
256,96,34815,1,0,0:0:0
330,96,34935,1,0,0:0:0
403,96,35055,1,0,0:0:0
330,96,35175,1,0,0:0:0
256,96,35295,1,0,0:0:0
183,96,35415,1,0,0:0:0
109,240,35535,1,0,0:0:0
402,240,35775,1,0,0:0:0
36,320,36015,1,0,0:0:0
182,320,36015,1,0,0:0:0
329,320,36255,1,0,0:0:0
475,320,36255,1,0,0:0:0
